Классический форум-трекер
canvas not supported
Нас вместе: 4 235 050

Уик-энд у Берни / Weekend at Bernie's (1989) BDRip [H.264/720p-LQ] [Hi10P]


 
 
RSS
Начать новую тему   Ответить на тему    Торрент-трекер NNM-Club -> Классика кино и Старые фильмы до 90-х -> Старые Зарубежные Фильмы (HD, FHD, UHD, 3D)
Автор Сообщение
sinteros ®
Стаж: 15 лет 5 мес.
Сообщений: 562
Ratio: 65.353
Поблагодарили: 62356
100%
Уик-энд у Берни / Weekend at Bernie's (1989)
BDRip [H.264/720p-LQ] [Hi10P]

Год выпуска: 1989
Страна: США
Жанр: комедия, приключения
Перевод: Многоголосый, Двухголосый, Авторский X5
Оригинальная аудио дорожка: Английская
Язык субтитров: Русский, Английский
Вид субтитров: Вшитые (отключаемые)

Описание фильма: Двое молодых работников страховой компании обнаруживают в бухгалтерских книгах, что кто-то четыре раза получил деньги по страховому полису покойника, о чем они честно сообщили своему начальнику Берни, живущему явно не по средствам. Берни, а именно он и занимался хищениями, пригласил ребят на уик-энд в свой роскошный дом на океане и одновременно попросил своих друзей из мафии убить своих слишком старательных подчиненных.
Но босс мафии велел убить самого Берни, узнав, что тот «окучивает» его любовницу, что и было сделано в роскошном доме на океане при помощи укола в ягодицу. Ребятам, приехавшим на уикенд, пришлось выдавать Берни за живого, что было нетрудно, учитывая веселое состояние многочисленных гостей.
«Два придурка. Один труп. Отличная вечеринка!!!»

Режиссер: Тед Котчефф

Актеры: Эндрю МакКарти, Джонатан Силвермен, Катрин Мэри Стюарт, Терри Кайзер, Дон Кэлфа, Катрин Паркс, Элуиз Деджориа, Грегори Салата, Луис Гьямбалво, Тед Котчефф

Качество видео: BDRip
Продолжительность: 01:38:25

< МОИ РЕЛИЗЫ >
Основной файл весит 2,38гб с одной звуковой дорожкой!

Дополнительная информация: Отрезал от начала видео почти 35 секунд заставки которая почему то была вшита в основной файл на Blu-ray диске.

Видео: MPEG-4 AVC/H.264, 1280x722(16:9), 23,976fps, 3204 Кbps, 0.145bit/pixel
Аудио 1: MVO Russian, AC3, 2ch, 48 kHz, 192 kbps, (Многоголосый) - Отдельным файлом
Аудио 2: DVO Russian, AC3, 2ch, 48 kHz, 192 kbps, (Двухголосый - ТНТ) - Отдельным файлом
Аудио 3: AVO Russian, AC3, 2ch, 48 kHz, 192 kbps, (Одноголосый - Живов) - Отдельным файлом
Аудио 4: AVO Russian, AC3, 2ch, 48 kHz, 192 kbps, (Одноголосый - Михалёв) - Отдельным файлом
Аудио 5: AVO Russian, AC3, 2ch, 48 kHz, 192 kbps, (Одноголосый - Дольский) - Отдельным файлом
Аудио 6: AVO Russian, AC3, 2ch, 48 kHz, 192 kbps, (Одноголосый - Дохалов поздний) - Отдельным файлом
Аудио 7: AVO Russian, AC3, 2ch, 48 kHz, 192 kbps, (Одноголосый - Дохалов ранний) - Отдельным файлом
Аудио 8: Ukrainian, AC3, 2ch, 48 kHz, 192 kbps, (Двухголосый - 1+1) - Отдельным файлом
Аудио 9: English, AC3, 2ch, 48 kHz, 192 kbps, (Оригинал) - Отдельным файлом

Примечание: Рип в High 10 Profile, в настоящее время не поддерживается большинством аппаратных проигрывателей, поэтому предназначен исключительно для воспроизведения на ПК. Для корректного воспроизведения может потребоваться обновление ПО.
Общее
Полное имя : Уик-энд у Берни (1989) BDRip-AVC.mkv
Формат : Matroska
Версия формата : Version 4 / Version 2
Размер файла : 3,44 Гбайт
Продолжительность : 1 ч. 38 м.
Общий поток : 5003 Кбит/сек
Название фильма : Уик-энд у Берни / Weekend at Bernie's (1989) BDRip-AVC (Sinteros)
Attachment : Yes

Видео
Идентификатор : 1
Формат : AVC
Формат/Информация : Advanced Video Codec
Профиль формата : High 10@L4.1
Параметр CABAC формата : Да
Параметр ReFrames формата : 11 кадров
Идентификатор кодека : V_MPEG4/ISO/AVC
Продолжительность : 1 ч. 38 м.
Битрейт : 3204 Кбит/сек
Ширина : 1280 пикселей
Высота : 722 пикселя
Соотношение сторон : 16:9
Режим частоты кадров : Постоянный
Частота кадров : 23,976 кадра/сек
Цветовое пространство : YUV
Субдискретизация насыщенности : 4:2:0
Битовая глубина : 10 бит
Тип развёртки : Прогрессивная
Бит/(Пиксели*Кадры) : 0.145
Размер потока : 2,18 Гбайт (63%)
Заголовок : MPEG-4 AVC/H.264, 1280x722(16:9), 23,976fps, 3204 Кbps, 0.145bit/pixel
Библиотека кодирования : x264 core 133 r2334 a3ac64b
Настройки программы : cabac=1 / ref=11 / deblock=1:-1:-1 / analyse=0x3:0x133 / me=tesa / subme=10 / psy=1 / psy_rd=1.00:0.15 / mixed_ref=1 / me_range=24 / chroma_me=1 / trellis=2 / 8x8dct=1 / cqm=0 / deadzone=21,11 / fast_pskip=1 / chroma_qp_offset=-3 / threads=12 / lookahead_threads=1 / sliced_threads=0 / nr=0 / decimate=1 / interlaced=0 / bluray_compat=0 / constrained_intra=0 / bframes=6 / b_pyramid=2 / b_adapt=2 / b_bias=0 / direct=1 / weightb=1 / open_gop=0 / weightp=2 / keyint=250 / keyint_min=23 / scenecut=40 / intra_refresh=0 / rc_lookahead=60 / rc=crf / mbtree=1 / crf=22.0 / qcomp=0.60 / qpmin=0 / qpmax=81 / qpstep=4 / ip_ratio=1.40 / aq=1:1.00
Язык : English
Default : Да
Forced : Нет

Аудио #1
Идентификатор : 2
Формат : AC-3
Формат/Информация : Audio Coding 3
Расширение режима : CM (complete main)
Параметр Endianness формата : Big
Идентификатор кодека : A_AC3
Продолжительность : 1 ч. 38 м.
Вид битрейта : Постоянный
Битрейт : 192 Кбит/сек
Каналы : 2 канала
Расположение каналов : Front: L R
Частота : 48,0 КГц
Битовая глубина : 16 бит
Метод сжатия : С потерями
Размер потока : 135 Мбайт (4%)
Заголовок : MVO Russian, AC3, 2ch, 48 kHz, 192 kbps, (Многоголосый) - Отдельным файлом
Язык : Russian
Default : Да
Forced : Нет

Аудио #2 - Отдельным файлом
Идентификатор : 3
Формат : AC-3
Формат/Информация : Audio Coding 3
Расширение режима : CM (complete main)
Параметр Endianness формата : Big
Идентификатор кодека : A_AC3
Продолжительность : 1 ч. 38 м.
Вид битрейта : Постоянный
Битрейт : 192 Кбит/сек
Каналы : 2 канала
Расположение каналов : Front: L R
Частота : 48,0 КГц
Битовая глубина : 16 бит
Метод сжатия : С потерями
Размер потока : 135 Мбайт (4%)
Заголовок : DVO Russian, AC3, 2ch, 48 kHz, 192 kbps, (Двухголосый - ТНТ) - Отдельным файлом
Язык : Russian
Default : Нет
Forced : Нет

Аудио #3 - Отдельным файлом
Идентификатор : 4
Формат : AC-3
Формат/Информация : Audio Coding 3
Расширение режима : CM (complete main)
Параметр Endianness формата : Big
Идентификатор кодека : A_AC3
Продолжительность : 1 ч. 38 м.
Вид битрейта : Постоянный
Битрейт : 192 Кбит/сек
Каналы : 2 канала
Расположение каналов : Front: L R
Частота : 48,0 КГц
Битовая глубина : 16 бит
Метод сжатия : С потерями
Размер потока : 135 Мбайт (4%)
Заголовок : AVO Russian, AC3, 2ch, 48 kHz, 192 kbps, (Одноголосый - Живов) - Отдельным файлом
Язык : Russian
Default : Нет
Forced : Нет

Аудио #4 - Отдельным файлом
Идентификатор : 5
Формат : AC-3
Формат/Информация : Audio Coding 3
Расширение режима : CM (complete main)
Параметр Endianness формата : Big
Идентификатор кодека : A_AC3
Продолжительность : 1 ч. 38 м.
Вид битрейта : Постоянный
Битрейт : 192 Кбит/сек
Каналы : 2 канала
Расположение каналов : Front: L R
Частота : 48,0 КГц
Битовая глубина : 16 бит
Метод сжатия : С потерями
Размер потока : 135 Мбайт (4%)
Заголовок : AVO Russian, AC3, 2ch, 48 kHz, 192 kbps, (Одноголосый - Михалёв) - Отдельным файлом
Язык : Russian
Default : Нет
Forced : Нет

Аудио #5 - Отдельным файлом
Идентификатор : 6
Формат : AC-3
Формат/Информация : Audio Coding 3
Расширение режима : CM (complete main)
Параметр Endianness формата : Big
Идентификатор кодека : A_AC3
Продолжительность : 1 ч. 38 м.
Вид битрейта : Постоянный
Битрейт : 192 Кбит/сек
Каналы : 2 канала
Расположение каналов : Front: L R
Частота : 48,0 КГц
Битовая глубина : 16 бит
Метод сжатия : С потерями
Размер потока : 135 Мбайт (4%)
Заголовок : AVO Russian, AC3, 2ch, 48 kHz, 192 kbps, (Одноголосый - Дольский) - Отдельным файлом
Язык : Russian
Default : Нет
Forced : Нет

Аудио #6 - Отдельным файлом
Идентификатор : 7
Формат : AC-3
Формат/Информация : Audio Coding 3
Расширение режима : CM (complete main)
Параметр Endianness формата : Big
Идентификатор кодека : A_AC3
Продолжительность : 1 ч. 38 м.
Вид битрейта : Постоянный
Битрейт : 192 Кбит/сек
Каналы : 2 канала
Расположение каналов : Front: L R
Частота : 48,0 КГц
Битовая глубина : 16 бит
Метод сжатия : С потерями
Размер потока : 135 Мбайт (4%)
Заголовок : AVO Russian, AC3, 2ch, 48 kHz, 192 kbps, (Одноголосый - Дохалов поздний) - Отдельным файлом
Язык : Russian
Default : Нет
Forced : Нет

Аудио #7 - Отдельным файлом
Идентификатор : 8
Формат : AC-3
Формат/Информация : Audio Coding 3
Расширение режима : CM (complete main)
Параметр Endianness формата : Big
Идентификатор кодека : A_AC3
Продолжительность : 1 ч. 38 м.
Вид битрейта : Постоянный
Битрейт : 192 Кбит/сек
Каналы : 2 канала
Расположение каналов : Front: L R
Частота : 48,0 КГц
Битовая глубина : 16 бит
Метод сжатия : С потерями
Размер потока : 135 Мбайт (4%)
Заголовок : AVO Russian, AC3, 2ch, 48 kHz, 192 kbps, (Одноголосый - Дохалов ранний) - Отдельным файлом
Язык : Russian
Default : Нет
Forced : Нет

Аудио #8 - Отдельным файлом
Идентификатор : 9
Формат : AC-3
Формат/Информация : Audio Coding 3
Расширение режима : CM (complete main)
Параметр Endianness формата : Big
Идентификатор кодека : A_AC3
Продолжительность : 1 ч. 38 м.
Вид битрейта : Постоянный
Битрейт : 192 Кбит/сек
Каналы : 2 канала
Расположение каналов : Front: L R
Частота : 48,0 КГц
Битовая глубина : 16 бит
Метод сжатия : С потерями
Размер потока : 135 Мбайт (4%)
Заголовок : Ukrainian, AC3, 2ch, 48 kHz, 192 kbps, (Двухголосый - 1+1) - Отдельным файлом
Язык : Ukrainian
Default : Нет
Forced : Нет

Аудио #9 - Отдельным файлом
Идентификатор : 10
Формат : AC-3
Формат/Информация : Audio Coding 3
Расширение режима : CM (complete main)
Параметр Endianness формата : Big
Идентификатор кодека : A_AC3
Продолжительность : 1 ч. 38 м.
Вид битрейта : Постоянный
Битрейт : 192 Кбит/сек
Каналы : 2 канала
Расположение каналов : Front: L R
Частота : 48,0 КГц
Битовая глубина : 16 бит
Метод сжатия : С потерями
Размер потока : 135 Мбайт (4%)
Заголовок : English, AC3, 2ch, 48 kHz, 192 kbps, (Оригинал) - Отдельным файлом
Язык : English
Default : Нет
Forced : Нет

Текст #1
Идентификатор : 11
Формат : UTF-8
Идентификатор кодека : S_TEXT/UTF8
Идентификатор кодека/Информация : UTF-8 Plain Text
Язык : Russian
Default : Нет
Forced : Нет

Текст #2
Идентификатор : 12
Формат : UTF-8
Идентификатор кодека : S_TEXT/UTF8
Идентификатор кодека/Информация : UTF-8 Plain Text
Язык : English
Default : Нет
Forced : Нет

Меню
00:00:00.000 : en:
00:05:40.590 : en:
00:11:19.011 : en:
00:20:54.628 : en:
00:27:33.735 : en:
00:33:58.995 : en:
00:45:44.700 : en:
00:49:47.985 : en:
01:00:43.515 : en:
01:11:09.140 : en:
01:19:34.186 : en:
01:32:07.939 : en:
01:37:49.488 : en:
Скриншоты:


Уик-энд у Берни на NNM-club

Время раздачи: 24/7 (жду до 10-15 скачавших а дальше могу уйти с радачи)
[NNM-Club.me]_Uik-yend u Berni (1989) BDRip-AVC.torrent
 Торрент: Платиновая раздача  Зарегистрирован
 
Скачать


Примагнититься
 Зарегистрирован:   13 Янв 2015 01:29:20
 Размер:   3.57 GB  (
 Рейтинг:   4.7 (Голосов: 52)
 Поблагодарили:   133
 Проверка:   Оформление проверено модератором 13 Янв 2015 12:40:07
Как cкачать  ·  Как раздать  ·  Правильно оформить  ·  Поднять ратио!  
nidor
Стаж: 10 лет 11 мес.
Сообщений: 39
Ratio: 4.871
1.58%
ussr.gif
=) Фильм зачетный!Спасибо!
Icegnoll
Стаж: 11 лет
Сообщений: 16
Ratio: 7.18
100%
Очень смешной фильм, давно его не видел! Спасибо, с удовольствием погляжу еще!
tornorvator
Стаж: 12 лет 4 мес.
Сообщений: 301
Ratio: 34.425
0.62%
Автору постера зачот! А фильм неплохой.
vovka036
Стаж: 13 лет 9 мес.
Сообщений: 1966
Ratio: 0.812
80.71%
russia.gif
Самая обалденная комедия своего времени, да и сейчас ещё не состарилась. А что на бытовых плеерах точно не прокатит? Печалька.
NRave
Стаж: 17 лет
Сообщений: 721
Ratio: 4.566
Поблагодарили: 109
100%
Восстановленный первый перевод Вартана Дохалова (01:39:03)
Показать сообщения:   
Начать новую тему   Ответить на тему    Торрент-трекер NNM-Club -> Классика кино и Старые фильмы до 90-х -> Старые Зарубежные Фильмы (HD, FHD, UHD, 3D) Часовой пояс: GMT + 3
Страница 1 из 1