Классический форум-трекер
canvas not supported
Нас вместе: 4 210 978

Грэвити Фоллс / Гравити Фолз / Gravity Falls (2014-2015) WEB-DLRip (2 сезон, 6 серий из 20) [LE-Production] (Обновляемая)


 
 
RSS
Начать новую тему   Ответить на тему    Торрент-трекер NNM-Club -> Архив торрентов -> Архив Мультфильмов
Автор Сообщение
FedExe ®
Uploader 300+
Стаж: 12 лет 5 мес.
Сообщений: 9668
Ratio: 392.184
Поблагодарили: 946918
100%
Откуда: LoX - living off experien
Грэвити Фоллс / Гравити Фолз / Gravity Falls (2014-2015) WEB-DLRip (2 сезон, 6 серий из 20) [LE-Production] (Обновляемая)
Жанр: Приключения, Комедия, Рисованная анимация

Описание:
Продолжение истории о приключениях близнецов, брата и сестры Диппера и Мэйбл Пайнс, чьи летние планы отправляются в чулан, когда родители оправляют их к дальнему родственнику в тихий городок Грэвити Фоллс. Но так ли прост этот город, родственник и жители и какие тайны ждут своих первооткрывателей?

Режиссер: Джон Ошима, Аарон Спрингер, Джо Питт
Персонажи: Диппер Пайнс, Мейбл Пайнс, Стэнфорд Пайнс, Венди Кордрой, Зус Рамирез, Гидеон Глифул, Робби Ви, Старик МакГаккет, Билл Шифр (Сайфер), Пассифика Нортвест



Продолжительность: 00:22:00
Качество видео: WEB-DLRip
Перевод: Любительский (многоголосый закадровый)
Автор перевода: Notabenoid
Релиз от: LE-Production

Видеокодек: Xvid
Битрейт видео: ~1 673 Kbps
Размер кадра: 720х400
Аудиокодек: MP3
Аудио# 1 Русский: 48 kHz, AC3 Dolby Digital, 2/0 (L,R) ch, ~192 kbps | Любительский (многоголосый, закадровый) |
Аудио# 2 Английский: 48 kHz, AC3 Dolby Digital, 2/0 (L,R) ch, ~192 kbps | Оригинал |
Код: выделить все

General
Complete name                    : Gravity.Falls.S02E01.Scary-oke.LE-Production.avi
Format                           : AVI
Format/Info                      : Audio Video Interleave
File size                        : 335 MiB
Duration                         : 22mn 36s
Overall bit rate                 : 2 072 Kbps
Writing application              : VirtualDubMod 1.5.10.2 (build 2540/release)
Writing library                  : VirtualDubMod build 2540/release

Video
ID                               : 0
Format                           : MPEG-4 Visual
Format profile                   : Advanced Simple@L5
Format settings, BVOP            : 1
Format settings, QPel            : No
Format settings, GMC             : No warppoints
Format settings, Matrix          : Custom
Codec ID                         : XVID
Codec ID/Hint                    : XviD
Duration                         : 22mn 36s
Bit rate                         : 1 673 Kbps
Width                            : 720 pixels
Height                           : 400 pixels
Display aspect ratio             : 16:9
Frame rate                       : 23.976 fps
Color space                      : YUV
Chroma subsampling               : 4:2:0
Bit depth                        : 8 bits
Scan type                        : Progressive
Compression mode                 : Lossy
Bits/(Pixel*Frame)               : 0.242
Stream size                      : 271 MiB (81%)
Writing library                  : XviD 73

Audio #1
ID                               : 1
Format                           : AC-3
Format/Info                      : Audio Coding 3
Mode extension                   : CM (complete main)
Codec ID                         : 2000
Duration                         : 22mn 36s
Bit rate mode                    : Constant
Bit rate                         : 192 Kbps
Channel(s)                       : 2 channels
Channel positions                : Front: L R
Sampling rate                    : 48.0 KHz
Bit depth                        : 16 bits
Compression mode                 : Lossy
Stream size                      : 31.1 MiB (9%)
Alignment                        : Split accross interleaves
Interleave, duration             : 42 ms (1.00 video frame)
Interleave, preload duration     : 500 ms
Title                            : Rus (le-production)

Audio #2
ID                               : 2
Format                           : AC-3
Format/Info                      : Audio Coding 3
Mode extension                   : CM (complete main)
Codec ID                         : 2000
Duration                         : 22mn 36s
Bit rate mode                    : Constant
Bit rate                         : 192 Kbps
Channel(s)                       : 2 channels
Channel positions                : Front: L R
Sampling rate                    : 48.0 KHz
Bit depth                        : 16 bits
Compression mode                 : Lossy
Stream size                      : 31.1 MiB (9%)
Alignment                        : Split accross interleaves
Interleave, duration             : 42 ms (1.00 video frame)
Interleave, preload duration     : 500 ms
Title                            : Eng (original)
Скриншоты:

Внимание! Раздача ведётся путём добавления новых серий; при каждом добавлении создаётся новый торрент.
Чтобы начать докачку новой серии, пользователям необходимо сделать следующее:
1. Остановить скачивание;
2. Удалить старый торрент у себя из клиента (старые серии удалять не надо);
3. Скачать новый торрент и запустить его у себя в клиенте вместо старого, при этом указать клиенту путь в старую папку куда и должно происходить скачивание новых серий. Ваш клиент при этом должен произвести хеширование (проверку) старой папки и будет докачивать только те серии, которых у вас ещё нет. Старые серии при этом не удаляются, а продолжают раздаваться! Eсли вы уже удалили старые серии, то предотвратить повторную закачку старых серий можно, отжав галочку в соответствующих местах при запуске нового торрента.
Приятного просмотра
Все раздачи "Грэвити Фоллс / Гравити Фолз / Gravity Falls"
Время раздачи: 24/7 (круглосуточно) - до 5 скачавших, далее по возможности...
 Торрент: Платиновая раздача  Зарегистрирован
 
Скачать


Примагнититься
 Зарегистрирован:   15 Янв 2015 21:11:43
 Размер:   1.93 GB  (
 Рейтинг:   4.8 (Голосов: 46)
 Поблагодарили:   153
 Проверка:   Оформление проверено модератором 15 Янв 2015 23:40:01
Как cкачать  ·  Как раздать  ·  Правильно оформить  ·  Поднять ратио!  

_________________

Ну и конечно, данный материал выложен исключительно для ознакомления. После просмотра Вы обязаны удалить все файлы, отформатировать жесткий диск, разбить его молотком, облить кислотой и сжечь остатки в микроволновке.
nb188
Стаж: 6 лет 10 мес.
Сообщений: 103
Ratio: 0.687
100%
Он крутой в отличии от винкс он лучше... Здесь в этом мультике есть много мистических аномалий, и этот мультик очень интересный, в этом мультике храниться тайны и загадки и там есть личная жизнь!
маленькие мартышки
Алёнка и Катя
Браво! Друзья Друзья :смех: :смех: :смех: :смех:
Топик был перенесен из форума Зарубежные Мультсериалы в форум Архив Мультфильмов

Причина переноса: не обновляется

Исправил релиз - напиши ЛС denver7979, дав ссылку на релиз.
Если нет ответа 24 часа - нажми на кнопку "Обратить внимание модераторов".
Показать сообщения:   
Начать новую тему   Ответить на тему    Торрент-трекер NNM-Club -> Архив торрентов -> Архив Мультфильмов Часовой пояс: GMT + 3
Страница 1 из 1