Классический форум-трекер
canvas not supported
Нас вместе: 4 235 067

Восход «Чёрной луны» / Black Moon Rising (1986) BDRip [H.264/720p-LQ] [Hi10P]


 
 
RSS
Начать новую тему   Ответить на тему    Торрент-трекер NNM-Club -> Классика кино и Старые фильмы до 90-х -> Старые Зарубежные Фильмы (HD, FHD, UHD, 3D)
Автор Сообщение
sinteros ®
Стаж: 15 лет 5 мес.
Сообщений: 562
Ratio: 65.353
Поблагодарили: 62356
100%
Восход «Чёрной луны» / Black Moon Rising (1986)
BDRip [H.264/720p-LQ] [Hi10P]

Год выпуска: 1986
Производство: США
Жанр: фантастика, боевик, триллер
Перевод: Многоголосый x2, Двухголосый, Авторский
Оригинальная аудио дорожка: Английская
Язык субтитров: Русский, Английский
Вид субтитров: Вшитые (отключаемые)

Описание фильма: История, которая начинается с угона сверхмощного автомобиля с реактивным двигателем — «Черная луна», становится еще более запутанной, когда к разборкам между «специалистами» по незаконной транспортировке, гангстерами и агентами правительственных спецслужб подключается расследование, проводимое ФБР.

Режиссер: Харли Коклисс

Актеры: Томми Ли Джонс, Линда Хэмилтон, Роберт Вон, Ричард Джэкел, Ли Винг, Бубба Смит, Дэн Шор, Уильям Сэндерсон, Кинен Уинн, Ник Кассаветис

Качество видео: BDRip
Продолжительность: 01:39:30

< МОИ РЕЛИЗЫ >
Основной файл весит 2,37гб с одной звуковой дорожкой!

Видео: MPEG-4 AVC/H.264, 1280x720(16:9), 23,976fps, 2906 Кbps, 0.131bit/pixel
Аудио 1: DVO Russian, AC3, 6ch, 48 kHz, 448 kbps, (Двухголосый - Amalgama)
Аудио 2: MVO Russian, AC3, 2ch, 48 kHz, 192 kbps, (Многоголосый - НЕВА-1) - Отдельным файлом
Аудио 3: MVO Russian, AC3, 2ch, 48 kHz, 192 kbps, (Многоголосый - Россия) - Отдельным файлом
Аудио 4: AVO Russian, AC3, 6ch, 48 kHz, 448 kbps, (Одноголосый - Визгунов) - Отдельным файлом
Аудио 5: English, AC3, 6ch, 48 kHz, 448 kbps, (Оригинал) - Отдельным файлом

Примечание: Рип в High 10 Profile, в настоящее время не поддерживается большинством аппаратных проигрывателей, поэтому предназначен исключительно для воспроизведения на ПК. Для корректного воспроизведения может потребоваться обновление ПО.
Общее
Полное имя : Восход «Черной луны» (1986) BDrip-AVC.mkv
Формат : Matroska
Версия формата : Version 4 / Version 2
Размер файла : 3,27 Гбайт
Продолжительность : 1 ч. 39 м.
Общий поток : 4703 Кбит/сек
Название фильма : Восход «Чёрной луны» / Black Moon Rising (1986) BDRip-AVC (Sinteros)
Attachment : Yes

Видео
Идентификатор : 1
Формат : AVC
Формат/Информация : Advanced Video Codec
Профиль формата : High 10@L4.1
Параметр CABAC формата : Да
Параметр ReFrames формата : 11 кадров
Идентификатор кодека : V_MPEG4/ISO/AVC
Продолжительность : 1 ч. 39 м.
Битрейт : 2906 Кбит/сек
Ширина : 1280 пикселей
Высота : 720 пикселей
Соотношение сторон : 16:9
Режим частоты кадров : Постоянный
Частота кадров : 24,000 кадра/сек
Цветовое пространство : YUV
Субдискретизация насыщенности : 4:2:0
Битовая глубина : 10 бит
Тип развёртки : Прогрессивная
Бит/(Пиксели*Кадры) : 0.131
Размер потока : 2,00 Гбайт (61%)
Заголовок : MPEG-4 AVC/H.264, 1280x720(16:9), 23,976fps, 2906 Кbps, 0.131bit/pixel
Библиотека кодирования : x264 core 133 r2334 a3ac64b
Настройки программы : cabac=1 / ref=11 / deblock=1:-1:-1 / analyse=0x3:0x133 / me=tesa / subme=10 / psy=1 / psy_rd=1.00:0.15 / mixed_ref=1 / me_range=24 / chroma_me=1 / trellis=2 / 8x8dct=1 / cqm=0 / deadzone=21,11 / fast_pskip=1 / chroma_qp_offset=-3 / threads=12 / lookahead_threads=1 / sliced_threads=0 / nr=0 / decimate=1 / interlaced=0 / bluray_compat=0 / constrained_intra=0 / bframes=6 / b_pyramid=2 / b_adapt=2 / b_bias=0 / direct=1 / weightb=1 / open_gop=0 / weightp=2 / keyint=250 / keyint_min=23 / scenecut=40 / intra_refresh=0 / rc_lookahead=60 / rc=crf / mbtree=1 / crf=23.0 / qcomp=0.60 / qpmin=0 / qpmax=81 / qpstep=4 / ip_ratio=1.40 / aq=1:1.00
Язык : English
Default : Да
Forced : Нет

Аудио #1
Идентификатор : 2
Формат : AC-3
Формат/Информация : Audio Coding 3
Расширение режима : CM (complete main)
Параметр Endianness формата : Big
Идентификатор кодека : A_AC3
Продолжительность : 1 ч. 39 м.
Вид битрейта : Постоянный
Битрейт : 448 Кбит/сек
Каналы : 6 каналов
Расположение каналов : Front: L C R, Side: L R, LFE
Частота : 48,0 КГц
Битовая глубина : 16 бит
Метод сжатия : С потерями
Размер потока : 319 Мбайт (10%)
Заголовок : DVO Russian, AC3, 6ch, 48 kHz, 448 kbps, (Двухголосый - Amalgama)
Язык : Russian
Default : Да
Forced : Нет

Аудио #2 - Отдельным файлом
Идентификатор : 3
Формат : AC-3
Формат/Информация : Audio Coding 3
Расширение режима : CM (complete main)
Параметр Endianness формата : Big
Идентификатор кодека : A_AC3
Продолжительность : 1 ч. 39 м.
Вид битрейта : Постоянный
Битрейт : 192 Кбит/сек
Каналы : 2 канала
Расположение каналов : Front: L R
Частота : 48,0 КГц
Битовая глубина : 16 бит
Метод сжатия : С потерями
Размер потока : 137 Мбайт (4%)
Заголовок : MVO Russian, AC3, 2ch, 48 kHz, 192 kbps, (Многоголосый - НЕВА-1) - Отдельным файлом
Язык : Russian
Default : Нет
Forced : Нет

Аудио #3 - Отдельным файлом
Идентификатор : 4
Формат : AC-3
Формат/Информация : Audio Coding 3
Расширение режима : CM (complete main)
Параметр Endianness формата : Big
Идентификатор кодека : A_AC3
Продолжительность : 1 ч. 39 м.
Вид битрейта : Постоянный
Битрейт : 192 Кбит/сек
Каналы : 2 канала
Расположение каналов : Front: L R
Частота : 48,0 КГц
Битовая глубина : 16 бит
Метод сжатия : С потерями
Размер потока : 137 Мбайт (4%)
Заголовок : MVO Russian, AC3, 2ch, 48 kHz, 192 kbps, (Многоголосый - Россия) - Отдельным файлом
Язык : Russian
Default : Нет
Forced : Нет

Аудио #4 - Отдельным файлом
Идентификатор : 5
Формат : AC-3
Формат/Информация : Audio Coding 3
Расширение режима : CM (complete main)
Параметр Endianness формата : Big
Идентификатор кодека : A_AC3
Продолжительность : 1 ч. 39 м.
Вид битрейта : Постоянный
Битрейт : 448 Кбит/сек
Каналы : 6 каналов
Расположение каналов : Front: L C R, Side: L R, LFE
Частота : 48,0 КГц
Битовая глубина : 16 бит
Метод сжатия : С потерями
Размер потока : 319 Мбайт (10%)
Заголовок : AVO Russian, AC3, 6ch, 48 kHz, 448 kbps, (Одноголосый - Визгунов) - Отдельным файлом
Язык : Russian
Default : Нет
Forced : Нет

Аудио #5 - Отдельным файлом
Идентификатор : 6
Формат : AC-3
Формат/Информация : Audio Coding 3
Расширение режима : CM (complete main)
Параметр Endianness формата : Big
Идентификатор кодека : A_AC3
Продолжительность : 1 ч. 39 м.
Вид битрейта : Постоянный
Битрейт : 448 Кбит/сек
Каналы : 6 каналов
Расположение каналов : Front: L C R, Side: L R, LFE
Частота : 48,0 КГц
Битовая глубина : 16 бит
Метод сжатия : С потерями
Размер потока : 319 Мбайт (10%)
Заголовок : English, AC3, 6ch, 48 kHz, 448 kbps, (Оригинал) - Отдельным файлом
Язык : English
Default : Нет
Forced : Нет

Текст #1
Идентификатор : 7
Формат : UTF-8
Идентификатор кодека : S_TEXT/UTF8
Идентификатор кодека/Информация : UTF-8 Plain Text
Язык : Russian
Default : Нет
Forced : Нет

Текст #2
Идентификатор : 8
Формат : UTF-8
Идентификатор кодека : S_TEXT/UTF8
Идентификатор кодека/Информация : UTF-8 Plain Text
Язык : English
Default : Нет
Forced : Нет

Меню
00:00:00.000 : en:
00:15:00.750 : en:
00:29:21.083 : en:
00:45:12.666 : en:
00:59:50.625 : en:
01:14:50.958 : en:
01:24:05.375 : en:
01:35:56.541 : en:
01:39:30.291 : en:
Скриншоты:



Восход «Чёрной луны» на NNM-club

Время раздачи: 24/7 (жду до 10-15 скачавших а дальше могу уйти с радачи)
[NNM-Club.me]_Voshod «CHernoy lunyi» (1986) BDrip-AVC.torrent
 Торрент: Платиновая раздача  Зарегистрирован
 
Скачать


Примагнититься
 Зарегистрирован:   05 Фев 2015 01:14:18
 Размер:   3.27 GB  (
 Рейтинг:   4.8 (Голосов: 36)
 Поблагодарили:   153
 Проверка:   Оформление проверено модератором 05 Фев 2015 09:10:24
Как cкачать  ·  Как раздать  ·  Правильно оформить  ·  Поднять ратио!  
fil873
Стаж: 12 лет 1 мес.
Сообщений: 21
Ratio: 25.039
0.38%
2.37 или 3.27, это как не суди по обложке ?
sinteros ®
Стаж: 15 лет 5 мес.
Сообщений: 562
Ratio: 65.353
Поблагодарили: 62356
100%
fil873 писал(а): Перейти к сообщению
2.37 или 3.27, это как не суди по обложке ?


Если вы внимательно читали описание к релизу то должны были заметить следующую надпись жирным шрифтом.
Основной файл весит 2,37гб с одной звуковой дорожкой!
S.Bash
Стаж: 13 лет 1 мес.
Сообщений: 1011
Ratio: 47.156
Раздал: 50.89 TB
100%
russia.gif
Помню смотрел в кинотеатре, так люди в проходах сидели.
Тогда, он мне понравился, посмотрю как сейчас воспримется.
KPOHEP
Стаж: 12 лет 4 мес.
Сообщений: 33
Ratio: 3.806
100%
ussr.gif
Да, 29 лет назад это была бомба.
Показать сообщения:   
Начать новую тему   Ответить на тему    Торрент-трекер NNM-Club -> Классика кино и Старые фильмы до 90-х -> Старые Зарубежные Фильмы (HD, FHD, UHD, 3D) Часовой пояс: GMT + 3
Страница 1 из 1