Классический форум-трекер
canvas not supported
Нас вместе: 4 210 974

Интерстеллар / Interstellar (2014) BDRip [IMAX] [H.264] [MP4|1024x576]


 
 
RSS
Начать новую тему   Ответить на тему    Торрент-трекер NNM-Club -> Мультимедиа и прочее -> Мобильное Видео
Автор Сообщение
Heisenberg ®
RG NNM Club Video
Куратор Видео
Спонсор Клуба
Uploaders 3000+
Стаж: 11 лет
Сообщений: 5386
Ratio: 13K
Раздал: 3.2921 PB
Поблагодарили: 133406
100%
nnm-club.gif
Интерстеллар (Interstellar) (2014) BDRip
«Следующий шаг человечества станет величайшим»
Производство: США, Великобритания, Канада
Жанр: Фантастика, Драма, Приключения

Описание фильма:
Когда засуха приводит человечество к продовольственному кризису, коллектив исследователей и учёных отправляется сквозь червоточину (которая предположительно соединяет области пространства-времени через большое расстояние) в путешествие, чтобы превзойти прежние ограничения для космических путешествий человека и переселить человечество на другую планету.

Режиссер: Кристофер Нолан
Продюсер: Кристофер Нолан, Линда Обст, Эмма Томас
Актеры: Мэттью МакКонахи, Энн Хэтэуэй, Джессика Честейн, Маккензи Фой, Майкл Кейн, Дэвид Гяси, Уэс Бентли, Кейси Аффлек, Джон Литгоу, Мэтт Дэймон, Тофер Грэйс, Эллен Бёрстин

Продолжительность: 02:49:03
Перевод: Дублированный (Лицензия Blu-ray CEE)

Дата мировой премьеры: 26 октября 2014
Дата российской премьеры: 6 ноября 2014
Дата выхода DVD/Blu-ray релиза: 26 марта 2015
Формат: MP4 (ISO v.2)
Качество видео: BDRip 576p
Видеокодек: MPEG-4 AVC/H.264
Битрейт видео: ~2879 kb/s
Размер кадра: 1024x576
Аудиокодек: AAC
Битрейт аудио: 192 kb/s 2.0 CBR LC
Код:

Полное имя                               : F:\Kreker\Интерстеллар.2014.BDRip.576p.IMAX.NNM-Club.mp4
Формат                                   : MPEG-4
Профиль формата                          : Base Media / Version 2
Идентификатор кодека                     : mp42
Размер файла                             : 3,63 Гбайт
Продолжительность                        : 2 ч. 49 м.
Общий поток                              : 3075 Кбит/сек
Дата кодирования                         : UTC 2015-03-26 23:48:55
Дата пометки                             : UTC 2015-03-26 23:48:55
Библиотека кодирования                   : AVS

Видео
Идентификатор                            : 1
Формат                                   : AVC
Формат/Информация                        : Advanced Video Codec
Профиль формата                          : Main@L4.1
Параметр CABAC формата                   : Да
Параметр ReFrames формата                : 5 кадров
Идентификатор кодека                     : avc1
Идентификатор кодека/Информация          : Advanced Video Coding
Продолжительность                        : 2 ч. 49 м.
Битрейт                                  : 2879 Кбит/сек
Ширина                                   : 1024 пикселя
Высота                                   : 576 пикселей
Соотношение сторон                       : 16:9
Режим частоты кадров                     : Постоянный
Частота кадров                           : 23,976 кадра/сек
Цветовое пространство                    : YUV
Субдискретизация насыщенности            : 4:2:0
Битовая глубина                          : 8 бит
Тип развёртки                            : Прогрессивная
Бит/(Пиксели*Кадры)                      : 0.204
Размер потока                            : 3,40 Гбайт (94%)
Язык                                     : English
Дата кодирования                         : UTC 2015-03-26 23:48:55
Дата пометки                             : UTC 2015-03-26 23:48:55
Основные цвета                           : BT.709
Характеристики трансфера                 : BT.709
Коэффициенты матрицы                     : BT.709

Аудио
Идентификатор                            : 2
Формат                                   : AAC
Формат/Информация                        : Advanced Audio Codec
Профиль формата                          : LC
Идентификатор кодека                     : 40
Продолжительность                        : 2 ч. 49 м.
Вид битрейта                             : Постоянный
Битрейт                                  : 192 Кбит/сек
Каналы                                   : 2 канала
Расположение каналов                     : Front: L R
Частота                                  : 44,1 КГц
Метод сжатия                             : С потерями
Размер потока                            : 229 Мбайт (6%)
Язык                                     : English
Дата кодирования                         : UTC 2015-03-26 23:48:56
Дата пометки                             : UTC 2015-03-26 23:48:56
Скриншоты


Время раздачи: Круглосуточно, до первых 10-и скачавших
Приятного просмотра! =)
 Торрент: Платиновая раздача  Зарегистрирован
 
Скачать


Примагнититься
 Зарегистрирован:   28 Мар 2015 09:30:53
 Размер:   3.63 GB  (
 Рейтинг:   4.7 (Голосов: 148)
 Поблагодарили:   503
 Проверка:   Оформление проверено модератором 28 Мар 2015 12:00:29
Как cкачать  ·  Как раздать  ·  Правильно оформить  ·  Поднять ратио!  
Heisenberg ®
RG NNM Club Video
Куратор Видео
Спонсор Клуба
Uploaders 3000+
Стаж: 11 лет
Сообщений: 5386
Ratio: 13K
Раздал: 3.2921 PB
Поблагодарили: 133406
100%
nnm-club.gif
Звук с лицензионного издания исправлен, рассинхрона нет
korozia82
Стаж: 10 лет 3 мес.
Сообщений: 21
Ratio: 7.577
49.08%
Фильм отличный!!!Не ожидал такого сюжета.
miheda
Стаж: 12 лет 5 мес.
Сообщений: 2
Ratio: 148.838
100%
фильм полное фувло, очень затянут. Ожидал большего.
Hogard
Стаж: 11 лет 10 мес.
Сообщений: 34
Ratio: 33.241
100%
russia.gif
Отличный фильм но его нужно понять!
19sia88
Стаж: 11 лет 9 мес.
Сообщений: 12
Ratio: 1.275
1.19%
miheda писал(а): Перейти к сообщению
фильм полное фувло, очень затянут. Ожидал большего.

Тогда в твоем случае "Сага о вампирах" тебе рекомендуется к просмотру. А фильм великолепен
andysko
Стаж: 11 лет 3 мес.
Сообщений: 12
Ratio: 10.055
0.49%
russia.gif
американцы очень удивили. Фильм бесподобен
panama46
Стаж: 12 лет 7 мес.
Сообщений: 12
Ratio: 2.712
52.6%
Зелёных полос нет?
lyoksa
Стаж: 10 лет 9 мес.
Сообщений: 7
Ratio: 63.629
6.06%
не про раздачу, но про фильм.
любая конкретика выдаст сюжет, поэтому напишу кратко
фильм офигенный. он супер.
ukhd
Стаж: 10 лет 8 мес.
Сообщений: 23
Ratio: 42.49
100%
ussr.gif
на меня "космическая одиссея 2001" 2001 год: Космическая одиссея / 2001: A Space Odyssey (1968) DVD5 [BD -> DVD] в своё время произвела большее впечатление.
Per4ilo
Стаж: 11 лет 4 мес.
Сообщений: 27
Ratio: 12.527
56.79%
russia.gif
До меня только сейчас дошло, к чему этот дизайн роботов в форме чемоданов: Эти роботы - вылитые Монолиты из "Одиссеи" Кубрика.
Спс третьему скрину!
Heisenberg ®
RG NNM Club Video
Куратор Видео
Спонсор Клуба
Uploaders 3000+
Стаж: 11 лет
Сообщений: 5386
Ratio: 13K
Раздал: 3.2921 PB
Поблагодарили: 133406
100%
nnm-club.gif
panama46
Я даже не знаю как нужно конвертнуть чтобы были зеленые полосы.
kost1
Стаж: 12 лет 4 мес.
Сообщений: 157
Ratio: 12.765
100%
В высшей степени классный фильм!
Спасибо)
roma999
Стаж: 8 лет 8 мес.
Сообщений: 21
Ratio: 1.511
0.43%
Фильм по 10 бальной шкале твёрдая 10 даже с плюсом я всегда говорил Америка это сердце и разум мирового кинематографа
Heisenberg ®
RG NNM Club Video
Куратор Видео
Спонсор Клуба
Uploaders 3000+
Стаж: 11 лет
Сообщений: 5386
Ratio: 13K
Раздал: 3.2921 PB
Поблагодарили: 133406
100%
nnm-club.gif
Этот релиз вероятно уйдет в архив, а может и нет. Не важно, он по-прежнему будет доступен.
Сделал замену, хотя это не совсем подходящее слово.
Интерстеллар / Interstellar (2014) BDRip [H.264] [MP4|1024x576] [IMAX Edition]
Показать сообщения:   
Начать новую тему   Ответить на тему    Торрент-трекер NNM-Club -> Мультимедиа и прочее -> Мобильное Видео Часовой пояс: GMT + 3
Страница 1 из 1