Классический форум-трекер
canvas not supported
Нас вместе: 4 211 000

Коля - Перекати поле (2005) DVDRip


 
 
RSS
Начать новую тему   Ответить на тему    Торрент-трекер NNM-Club -> Отечественное кино -> Отечественные Фильмы (HD*Rip/LQ, DVDRip, SATRip, VHSRip)
Автор Сообщение
andrero ®
Стаж: 14 лет 1 мес.
Сообщений: 4
Ratio: 0.575
Поблагодарили: 450
100%
russia.gif
Коля – Перекати поле (2005) DVDRip
Год выпуска: 2005
Производство: Россия, Творческая студия "Стелла"
Жанр: Драма

Описание фильма:
Коля, уехавший когда-то из родного города ловить удачу за хвост, возвращается в хорошо знакомую провинцию, не подозревая о произошедших в его отсутствие переменах. Родимый дом по-прежнему мил, но жить здесь все равно невозможно.

Для земляков такой сюрприз — полная неожиданность, которая вскоре перерастает в панику, ведь приезд Коли — настоящая угроза их размеренной жизни. И снова, как десять лет назад, Коля выдумывает историю, которая переворачивает всё с ног на голову…

Режиссер: Николай Досталь
Актеры: Андрей Жигалов, Ирина Розанова, Алла Клюка, Сергей Баталов, Лев Борисов, Владимир Толоконников, Анна Овсянникова

Продолжительность: 01:36:41
Качество видео: DVDRip



Видео: XviD, 1 789 Kbps, 720 x 432 pixels, 25.000 fps, Bits/(Pixel*Frame) : 0.230
Аудио: AC-3 , 224 Kbps, 6 channels, 48.0 KHz
Kolya.perekati.pole.avi
Format : AVI
Format/Info : Audio Video Interleave
File size : 1.36 GiB
Duration : 1h 36mn
Overall bit rate : 2 020 Kbps
Writing application : VirtualDubMod 1.5.4.1 (build 2178/release)
Writing library : VirtualDubMod build 2178/release

Video
ID : 0
Format : MPEG-4 Visual
Format profile : Advanced Simple@L5
Format settings, BVOP : 1
Format settings, QPel : No
Format settings, GMC : No warppoints
Format settings, Matrix : Custom
Codec ID : XVID
Codec ID/Hint : XviD
Duration : 1h 36mn
Bit rate : 1 789 Kbps
Width : 720 pixels
Height : 432 pixels
Display aspect ratio : 1.667
Frame rate : 25.000 fps
Color space : YUV
Chroma subsampling : 4:2:0
Bit depth : 8 bits
Scan type : Progressive
Compression mode : Lossy
Bits/(Pixel*Frame) : 0.230
Stream size : 1.21 GiB (89%)
Writing library : XviD 1.1.2 (UTC 2006-11-01)

Audio
ID : 1
Format : AC-3
Format/Info : Audio Coding 3
Mode extension : CM (complete main)
Format settings, Endianness : Big
Codec ID : 2000
Duration : 1h 36mn
Bit rate mode : Constant
Bit rate : 224 Kbps
Channel(s) : 6 channels
Channel positions : Front: L C R, Side: L R, LFE
Sampling rate : 48.0 KHz
Bit depth : 16 bits
Compression mode : Lossy
Stream size : 155 MiB (11%)
Alignment : Split accross interleaves
Interleave, duration : 96 ms (2.40 video frames)
Interleave, preload duration : 96 ms
Скриншоты:



Реставрация релиза: smaster67

Все релизы фильма на NNM-club
 Торрент: Платиновая раздача  Зарегистрирован
 
Скачать


 Зарегистрирован:   27 Май 2009 03:31:55
 Размер:   1.36 GB  (
 Рейтинг:   4.7 (Голосов: 59)
 Поблагодарили:   243
 Проверка:   Оформление проверено модератором 28 Май 2009 13:29:13
Как cкачать  ·  Как раздать  ·  Правильно оформить  ·  Поднять ратио!  
RoM@n51
Стаж: 13 лет 7 мес.
Сообщений: 53
Ratio: 1.067
9.15%
russia.gif
мыльная опера стайл
glucovka
Стаж: 14 лет 11 мес.
Сообщений: 590
Ratio: 156.579
100%
Откуда: с того света
Не знаю почему, но я обожаю этот фильм, спасибо за раздачу
dzhani2
Стаж: 15 лет 6 мес.
Сообщений: 241
Ratio: 4.697
100%
Гениальный фильм. Не знаю почему, но мало кто о нём слышал.
asmodey-pervyi
Стаж: 12 лет 1 мес.
Сообщений: 286
Ratio: 3.074
Раздал: 241 GB
100%
Откуда: Европа
russia.gif
dzhani2 писал(а): link
Гениальный фильм. Не знаю почему, но мало кто о нём слышал.

Полностью согласен ,что есть то есть их оба надо начиная с "Облако рай" :клево: :респект: :приветствую:

_________________
Я знаю немного, но то, что знаю, — знаю в совершенстве.
slavab68
Стаж: 12 лет
Сообщений: 1
Ratio: 1.993
0%
russia.gif
Да,хороший фильм!
Случайно его увидел по телевизору показывали.
BarShadow
Стаж: 11 лет 9 мес.
Сообщений: 17262
Ratio: 46.988
Поблагодарили: 20218
100%
Откуда: Пятая планета от Солнца
wild_hogs.gif
Класс!!! Продолженьице! Герои - те же, проблемы - другие. Тем, кто не видел Облако-рай - не смотреть!!!
kliffss
Стаж: 14 лет 11 мес.
Сообщений: 44
Ratio: 27.97
100%
latvia.gif
Спасибо,классный фильм,давно его смотрел,посмотрю еще с удовольствием! :выпивают:
BarShadow
Стаж: 11 лет 9 мес.
Сообщений: 17262
Ratio: 46.988
Поблагодарили: 20218
100%
Откуда: Пятая планета от Солнца
wild_hogs.gif
almikl
Куратор Детского.
Модератор Видео.
RG Всё лучшее - детям!
Uploader 500+
Стаж: 15 лет 5 мес.
Сообщений: 5391
Ratio: 420.591
Поблагодарили: 133548
100%
Откуда: Дааалекое Подмосковье
russia.gif
Коля - Перекати поле (2005) DVD5
Облако-рай (1991) DVD5
smaster67
Покровитель талантов Uploader 300+
Стаж: 13 лет 5 мес.
Сообщений: 7097
Ratio: 210.3
Поблагодарили: 217965
100%
burulicon104
Стаж: 10 лет 8 мес.
Сообщений: 14
Ratio: 10.339
100%
Жизнь как она есть на самом деле. А в кино и на телевидении гулялово развлекалово Что в 90 что сейчас один хр.....н. Боеики. Сериалы с банкирами . Золушки всякие разные. Коля -перкати поле и в дейтвительности уехал на запад работать и работает и хорошо живет. Он ведь профессионал- клоун. и хороший клоун. Огромное спасибо релизёру.
Koppektupobwuk
Стаж: 11 лет 9 мес.
Сообщений: 88
Ratio: 92.994
100%
Откуда: Апиа
Samoa.gif
Выше всех похвал . Оригинал .

_________________
Братва
Показать сообщения:   
Начать новую тему   Ответить на тему    Торрент-трекер NNM-Club -> Отечественное кино -> Отечественные Фильмы (HD*Rip/LQ, DVDRip, SATRip, VHSRip) Часовой пояс: GMT + 3
Страница 1 из 1