Классический форум-трекер
canvas not supported
Нас вместе: 4 226 707

Счастливый конец (2010) DVDRip


Страницы:  1, 2  След. 
 
RSS
Начать новую тему   Ответить на тему    Торрент-трекер NNM-Club -> Отечественное кино -> Отечественные Фильмы (SD)
Автор Сообщение
bombolik ®
Стаж: 16 лет 8 мес.
Сообщений: 235
Ratio: 77.959
Поблагодарили: 29267
100%
Откуда: SPb
russia.gif
Счастливый конец (2009) DVDRip
Год выпуска: 2009
Производство: Россия, "Пушкин пикчерз" по заказу "Централ Партнёршип"
Жанр: Мелодрама, комедия

Описание фильма:
Чего хочет мужчина? Славы, денег, секса… Всё это есть у Паши, самого популярного стриптизёра в большом городе! На его выступлениях аншлаг, самые красивые девушки выстраиваются в очередь, жизнь удалась. Но одна из поклонниц проклинает его, и Пашу покидает «главный друг его взрослой жизни», его детородный орган, и, превратившись в Человека, начинает свою не менее интересную жизнь… Потеря друга лишает Пашу всего: денег, работы, женского внимания… От кризиса его спасает внезапно нагрянувшая любовь, и влюбляется Паша по-настоящему! Но неожиданно у него появляется соперник — его экс-член, у которого на этот счет абсолютно иные планы…

Режиссер: Ярослав Чеважевский
Актеры: Павел Деревянко, Юрий Колокольников, Анна Тараторкина, Марина Голуб, Александр Филиппенко, Ярослав Чеважевский

Продолжительность: 01:36:41
Качество видео: DVDRip



Видео: XviD, 1 566 Kbps, 720 x 384 pixels, 25.000 fps, Bits/(Pixel*Frame) : 0.227
Аудио: AC-3 , 448 Kbps, 6 channels, 48.0 KHz
General
Complete name : D:\РЕСТАВРАЦИЯ\Konetz.2010.O.DVDRip.[nnm-club.me].avi
Format : AVI
Format/Info : Audio Video Interleave
File size : 1.37 GiB
Duration : 1h 36mn
Overall bit rate : 2 024 Kbps
Writing application : VirtualDubMod 1.5.10.2 (build 2540/release)
Writing library : VirtualDubMod build 2540/release

Video
ID : 0
Format : MPEG-4 Visual
Format profile : Advanced Simple@L5
Format settings, BVOP : 2
Format settings, QPel : No
Format settings, GMC : No warppoints
Format settings, Matrix : Custom
Codec ID : XVID
Codec ID/Hint : XviD
Duration : 1h 36mn
Bit rate : 1 566 Kbps
Width : 720 pixels
Height : 384 pixels
Display aspect ratio : 1.85:1
Frame rate : 25.000 fps
Color space : YUV
Chroma subsampling : 4:2:0
Bit depth : 8 bits
Scan type : Progressive
Compression mode : Lossy
Bits/(Pixel*Frame) : 0.227
Stream size : 1.06 GiB (77%)
Writing library : XviD 1.2.1 (UTC 2008-12-04)

Audio
ID : 1
Format : AC-3
Format/Info : Audio Coding 3
Mode extension : CM (complete main)
Format settings, Endianness : Big
Codec ID : 2000
Duration : 1h 36mn
Bit rate mode : Constant
Bit rate : 448 Kbps
Channel(s) : 6 channels
Channel positions : Front: L C R, Side: L R, LFE
Sampling rate : 48.0 KHz
Bit depth : 16 bits
Compression mode : Lossy
Stream size : 310 MiB (22%)
Alignment : Split accross interleaves
Interleave, duration : 40 ms (1.00 video frame)
Interleave, preload duration : 500 ms
Скриншоты:



Реставрация релиза: smaster67

Все релизы фильма на NNM-club
Konetz.2010.O.DVDRip.[nnm-club.ru].avi.torrent
 Торрент: Платиновая раздача  Зарегистрирован
 
Скачать


 Зарегистрирован:   30 Мар 2010 06:46:01
 Размер:   1.37 GB  (
 Рейтинг:   4.4 (Голосов: 96)
 Поблагодарили:   509
 Проверка:   Оформление проверено модератором 30 Мар 2010 12:24:47
Как cкачать  ·  Как раздать  ·  Правильно оформить  ·  Поднять ратио!  
Anton1975
Стаж: 14 лет 5 мес.
Сообщений: 280
Ratio: 11.755
100%
Откуда: РФ...
logo.gif
Спасибо.
corlo
Стаж: 13 лет 10 мес.
Сообщений: 98
Ratio: 2.315
100%
Откуда: из под КРАСНОДАРА
russia.gif
гдето видел его рейтинг 1.2 кто смотрел отпишитесь стоит качать или нет
SergeFSW
Стаж: 14 лет 5 мес.
Сообщений: 365
Ratio: 1.613
100%
russia.gif
На Афише вот такие отзывы:
24.01.2010, 17:26 Алена
Я хуже в своей жизни ничего не смотрела!!!!!!!!!!

16.01.2010, 23:28 111
Сперма вместо мозгов у Чеважевского. Оттого и кино такое получилось.

13.01.2010, 08:30 Надя
Это че, по Гоголю что-ли? Только тут другой орган из трех букв владельца покинул

Оценка зрителей 3,75 (32)
_Dima_
Стаж: 15 лет 8 мес.
Сообщений: 100
Ratio: 15.914
Поблагодарили: 848
9.3%
Фильм ерунда на самом деле, не ожидал что такое может быть даже...
Konctantin
Стаж: 15 лет 8 мес.
Сообщений: 28
Ratio: 11.968
Поблагодарили: 37
5.23%
Откуда: РФ
russia.gif
corlo писал(а): link
гдето видел его рейтинг 1.2 кто смотрел отпишитесь стоит качать или нет

Качать иль не качать дела твое =) А вот смотреть, даже не думай фильм полный отстой.
ChakNunchak
Стаж: 15 лет 8 мес.
Сообщений: 191
Ratio: 4.2
Поблагодарили: 538
100%
witch.png
Теперь понимаю выпошлость выражения "Х....Е мозги", ну а "он" с мозгами- (мужчинам не спать, в писуар с кандалами, отдыхать в вентилируемом сейфе и т.д. и т.п., да поможет нам господь не растерять наши члены на трудном жизненом пути аминь аминь аминь!) :убится ап стену:
imbris
Стаж: 16 лет 10 мес.
Сообщений: 74
Ratio: 1.235
Поблагодарили: 132
69.64%
Откуда: Израiль
micronesia.gif
Гениальный фильм :D

Мне очень понравилось!
vostran2008
Стаж: 13 лет 7 мес.
Сообщений: 77
Ratio: 2.799
100%
russia.gif
спасибо посмотрим и оценим потом
sancho1409
Стаж: 13 лет 6 мес.
Сообщений: 10
Ratio: 1.46
100%
ой спасибки
ricspb
Стаж: 15 лет 9 мес.
Сообщений: 64
Ratio: 1.841
100%
Прикольный местами фильм - на 1 раз посмотреть нормально.)))

_________________
- Oh my God, they killed Kenny!
- You bastards!
vertin_mart
Стаж: 13 лет 9 мес.
Сообщений: 28
Ratio: 4.56
Поблагодарили: 311
42.34%
Откуда: Астрахань
russia.gif
Спасибо, давно ждал...
Piligrim03
 
Стаж: 14 лет 4 мес.
Сообщений: 38
Ratio: 7.851
Поблагодарили: 63
66.67%
russia.gif
Фильм для воспитания восприятия юмора американского типа. Тренируют смеяться при слове "жопа"! Не нужная трата времени.
Man_with_face
Стаж: 14 лет 5 мес.
Сообщений: 253
Ratio: 2.985
Поблагодарили: 153
10.09%
Запоздалое мнение, но всё же... Давно я так не смеялся. После такого фильма начинаешь надеяться, что не всё так плохо с русским кино и есть ещё надежда на его возрождение. Актёры - блеск (Филиппенко так вообще любую роль может поднять на такую высоту, что... даже роль "старого xpeнa") и его втянуть во всякое фуфло не получится.
Emigrate19
Стаж: 14 лет 2 мес.
Сообщений: 43
Ratio: 7.326
100%
Откуда: Чайковский
russia.gif
Прикольный кинчик!!! с женой поглядели, поржали. скоротать вечер пойдет =)
Показать сообщения:   
Начать новую тему   Ответить на тему    Торрент-трекер NNM-Club -> Отечественное кино -> Отечественные Фильмы (SD) Часовой пояс: GMT + 3
Страницы:  1, 2  След.
Страница 1 из 2