Классический форум-трекер
canvas not supported
Нас вместе: 4 231 956

Mark Schoen | Увлекательный секс: Продвинутая сексуальная техника / The Better Sex Video Series: Advanced Sexual Techniques (2005) DVDRip


 
 
RSS
Начать новую тему   Ответить на тему    Торрент-трекер NNM-Club -> Обучающие видеоматериалы -> Другие видеокурсы
Автор Сообщение
kruglii ®
Стаж: 14 лет 2 мес.
Сообщений: 3194
Ratio: 5654.31
Раздал: 48.73 TB
Поблагодарили: 117499
100%
Откуда: Одесса-МАМА
ussr.gif
Mark Schoen | Увлекательный секс: Продвинутая сексуальная техника / The Better Sex Video Series: Advanced Sexual Techniques (2005) DVDRip
Режиссер: Марк Шон
Производство: Sinclair Institute
Жанр: Эротика, обучающее видео
Возрастное ограничение: 18+

Описание:
Реальные пары в деталях продемонстрируют различные сексуальные техники. Откройте для себя неизведанные позиции, ведущие к наслаждению, удовлетворению и укреплению отношений. Посмотрите как нежный массаж и эротические разговоры могут увеличить сексуальное желание и доставить Вам большее удовлетворение. Смотрите программу вместе с партнером и Ваши сексуальные отношения перейдут на абсолютно другой, более высокий уровень.

Продолжительность: 01:23:38
Качество видео: DVDRip
Перевод: Многоголосый закадровый, профессиональный

Видео: Xvid, 704x400, ~2107 Kbps
Аудио: AC3, 2 ch, 224 Kbps
Format : AVI
Format/Info : Audio Video Interleave
File size : 1.37 GiB
Duration : 1h 23mn
Overall bit rate : 2 342 Kbps
Writing application : VirtualDubMod 1.5.10.2 (build 2540/release)
Writing library : VirtualDubMod build 2540/release

Video
ID : 0
Format : MPEG-4 Visual
Format profile : Advanced Simple@L5
Format settings, BVOP : Yes
Format settings, QPel : No
Format settings, GMC : No warppoints
Format settings, Matrix : Default (H.263)
Codec ID : XVID
Codec ID/Hint : XviD
Duration : 1h 23mn
Bit rate : 2 107 Kbps
Width : 704 pixels
Height : 400 pixels
Display aspect ratio : 16:9
Frame rate : 29.970 fps
Resolution : 8 bits
Colorimetry : 4:2:0
Scan type : Progressive
Bits/(Pixel*Frame) : 0.250
Stream size : 1.23 GiB (90%)
Writing library : XviD 1.2.1 (UTC 2008-12-04)

Audio
ID : 1
Format : AC-3
Format/Info : Audio Coding 3
Codec ID : 2000
Duration : 1h 23mn
Bit rate mode : Constant
Bit rate : 224 Kbps
Channel(s) : 2 channels
Channel positions : L R
Sampling rate : 48.0 KHz
Stream size : 134 MiB (10%)
Alignment : Aligned on interleaves
Interleave, duration : 33 ms (1.00 video frame)
Interleave, preload duration : 512 ms
скриншоты:


Время раздачи: С 06:00 до 22:00
Uvlekateljnyj.Seks.Prodvinutaja.Seksualjnaja.Tehnika.2005.XviD.DVDRip.[nnm-club.ru].avi.torrent
 Торрент: Платиновая раздача  Зарегистрирован
 
Скачать


Примагнититься
 Зарегистрирован:   30 Ноя 2019 03:03:15
 Размер:   1.37 GB  (
 Рейтинг:   4.6 (Голосов: 182)
 Поблагодарили:   791
 Проверка:   Оформление проверено модератором 30 Ноя 2019 09:51:20
Как cкачать  ·  Как раздать  ·  Правильно оформить  ·  Поднять ратио!  
Egooka
Uploaders 300+
Беспощадная няка
Стаж: 16 лет
Сообщений: 5679
Ratio: 122.323
Поблагодарили: 28264
100%
singapore.gif
с каких это пор эротика на форуме разрешена? вроде бы политика клуба отличается от других трекеров именно этим.

_________________
Кавайное гестапо Вы смотрите аниме с озвучкой? тогда я иду к вам.. няхахахаха
Val
Стаж: 16 лет 10 мес.
Сообщений: 4964
Ratio: 76.638
Раздал: 33.24 TB
Поблагодарили: 50801
100%
Откуда: СПб
Egooka писал(а):
с каких это пор эротика на форуме разрешена?

Эротика Не запрещена. Запрещена порнография.
Val
Стаж: 16 лет 10 мес.
Сообщений: 4964
Ratio: 76.638
Раздал: 33.24 TB
Поблагодарили: 50801
100%
Откуда: СПб
kruglii
Подобный релиз есть: Секреты совершенного секса (2 части из 2) / The Better Sex Video Series (2005) [DVDRip] Ваш отличается только техпараметрами.
kruglii ®
Стаж: 14 лет 2 мес.
Сообщений: 3194
Ratio: 5654.31
Раздал: 48.73 TB
Поблагодарили: 117499
100%
Откуда: Одесса-МАМА
ussr.gif
Val писал(а): link
kruglii
Подобный релиз есть: Секреты совершенного секса (2 части из 2) / The Better Sex Video Series (2005) [DVDRip] Ваш отличается только техпараметрами.
а разве этого мало? у нас полностью разные параметры у меня озвучка уже лучшего качества картинка больше, размер рипа у меня в два раза превышает тот ?????
MAjeR7
 
Стаж: 13 лет 11 мес.
Сообщений: 3226
Ratio: 12.499
Поблагодарили: 18283
100%
russia.gif
уря , переходим на более высокий уровень :супер!:
спасибо :подмигивание:
kruglii ®
Стаж: 14 лет 2 мес.
Сообщений: 3194
Ratio: 5654.31
Раздал: 48.73 TB
Поблагодарили: 117499
100%
Откуда: Одесса-МАМА
ussr.gif
Увлекательный секс: 22 cекретa совершенного секса. Советы и открытия / The Better Sex Video Series: 22 Sex Secrets, Tips & Turn Ons (2005) DVDRip
Rany
DJ Настроения
Модератор
Стаж: 16 лет 7 мес.
Сообщений: 6285
Ratio: 3.763
Раздал: 3.36 TB
Поблагодарили: 67
100%
Откуда: из-за моря
nnm-club.gif
kruglii писал(а):
Зрителям, достигшим 18 лет
как по мне, нужно не забывать и о снимках, чтобы в них также учитывалось это ограничение, ибо вы вывалили сцену из порно-фильма на всеобщее обозрение, а как, если подумать, что сюда заходят и 13-17 летние?
Показать сообщения:   
Начать новую тему   Ответить на тему    Торрент-трекер NNM-Club -> Обучающие видеоматериалы -> Другие видеокурсы Часовой пояс: GMT + 3
Страница 1 из 1