Классический форум-трекер
canvas not supported
Нас вместе: 4 210 907

Американская история ужасов / American Horror Story (Сезон 1 полный (12)) WEB-DLRip [LostFilm]


 
 
RSS
Начать новую тему   Ответить на тему    Торрент-трекер NNM-Club -> Зарубежные сериалы
Автор Сообщение
hdsh ®
ИгроКлуб
Стаж: 11 лет 1 мес.
Сообщений: 1679
Ratio: 31.011
Поблагодарили: 196889
100%
Откуда: Seito
italy.gif
Американская история ужасов / American Horror Story (Сезон 1 полный (12) ) WEB-DLRip [LostFilm]
Русское название: Американская история ужасов
Оригинальное название: American Horror Story
Год выпуска: 2011
Жанр: Ужасы, драма

Описание :
Психологический триллер, в центре сюжета которого терапевт и его жена, которые переживают не самый лучший этап в их супружеской жизни. Вместе с детьми они переезжают в новый дом, который, как кажется, знает все их страхи и играет на них.

Режиссер: Райан Мерфи, Дэвид Семел
Актеры: Арик Кашинг, Закари Куинто, Кай Шульц, Тедди Сирс, Конни Бриттон, Джессика Лэнг

Продолжительность: 00:50:00
Перевод: Профессиональный многоголосый закадровый / LostFilm /

Релиз группа :

Качество: WEB-DLRip
Формат: AVI
Видео кодек: XviD
Аудио кодек: MP3
Видео: 720*400 (1.80), 23.976 fps, XviD MPEG-4, ~1485 kbps, 0.22 bit/pixel
Аудио: 48 kHz, MPEG Layer 3, 2 ch, ~192 kbps
Общее
Полное имя : J:\American.Horror.Story\American.Horror.Story.S01E01.rus.LostFilm.TV.avi
Формат : AVI
Формат/Информация : Audio Video Interleave
Размер файла : 625 Мбайт
Продолжительность : 51 м.
Общий поток : 1689 Кбит/сек
Программа кодирования : Nandub v1.0rc2
Библиотека кодирования : Nandub build 1853/release

Видео
Идентификатор : 0
Формат : MPEG-4 Visual
Профиль формата : Simple@L3
Параметр BVOP формата : Нет
Параметр QPel формата : Нет
Параметр GMC формата : Без точки перехода
Параметр матрицы формата : Default (H.263)
Идентификатор кодека : XVID
Идентификатор кодека/Подсказка : XviD
Продолжительность : 51 м.
Битрейт : 1421 Кбит/сек
Ширина : 720 пикс.
Высота : 400 пикс.
Соотношение сторон : 16:9
Частота кадров : 23,976 кадр/сек
Цветовое пространство : YUV
Подвыборка цветности : 4:2:0
Битовая глубина : 8 бит
Тип развёртки : Прогрессивная
Метод сжатия : С потерями
Бит/(Пиксели*Кадры) : 0.206
Размер потока : 526 Мбайт (84%)
Библиотека кодирования : XviD 1.2.1 (UTC 2008-12-04)

Аудио
Идентификатор : 1
Формат : MPEG Audio
Версия формата : Version 1
Профиль формата : Layer 3
Режим : Joint stereo
Расширение режима : MS Stereo
Идентификатор кодека : 55
Идентификатор кодека/Подсказка : MP3
Продолжительность : 51 м.
Вид битрейта : Переменный
Битрейт : 192 Кбит/сек
Каналы : 2 канала
Частота : 48,0 КГц
Метод сжатия : С потерями
Размер потока : 71,1 Мбайт (11%)
Выравнивание : Соединение по промежуткам
Библиотека кодирования : LAME3.97b
Настройки программы : -m j -V 4 -q 3 -lowpass 18.6 --abr 192

Серии будут добавляться по мере их перевода
Сериал "Американская история ужасов" на трекере NNM-Club:

Время раздачи: По мере возможности...
Не забываем говорить
 Торрент: Платиновая раздача  Зарегистрирован
 
Скачать


 Зарегистрирован:   02 Янв 2012 15:33:07
 Размер:   4.23 GB  (
 Рейтинг:   4.7 (Голосов: 395)
 Поблагодарили:   1533
 Проверка:   Оформление проверено модератором 03 Янв 2012 01:44:50
Как cкачать  ·  Как раздать  ·  Правильно оформить  ·  Поднять ратио!  
hdsh ®
ИгроКлуб
Стаж: 11 лет 1 мес.
Сообщений: 1679
Ratio: 31.011
Поблагодарили: 196889
100%
Откуда: Seito
italy.gif
Добавлена 9 серия
перекачайте торрент файл
celty
Стаж: 14 лет 10 мес.
Сообщений: 214
Ratio: 12.339
Откуда: HohLand
А где 7я серия? в других раздачах уже есть... Просто начал качать эту...
AmalgamA2
Стаж: 12 лет 9 мес.
Сообщений: 123
Ratio: 8.612
Раздал: 4.031 TB
85.91%
ukraine.gif
Делимся мнениями о сериале. Как сказали на одном из форумов - сейчас сериалы становятся интереснее полнометражек, целиком это мнение поддерживаю. Очень неплохой сериал.

_________________
!Am Arma silent Musae!
Mamsy
Стаж: 12 лет 10 мес.
Сообщений: 30
Ratio: 1.983
100%
Откуда: Россия
russia.gif
Эта озвучка лучшая. Пробовала с субтитрами смотреть и другой озвучкой... Но лучше наберусь терпения и подожду этой.
Mirajz
Стаж: 11 лет 11 мес.
Сообщений: 16
Ratio: 54.321
100%
Откуда: г. Обнинск
russia.gif
А где обновление, уже 12 серия вышла на LostFilm?
Оболтус222
Стаж: 12 лет 9 мес.
Сообщений: 99
Ratio: 28.272
100%
russia.gif
Да уж. Сериальчик ещё тот. Этакий дурдом с призраками социапатами . Но смотрится супер ! :шок:
semen4265
Стаж: 12 лет 2 мес.
Сообщений: 81
Ratio: 31.992
100%
Откуда: тула
russia.gif
Моя солидарность с tech_84,причём полностью.1 сезон тянет на супер(с моей точки зрения)
MrBilvederno
Стаж: 12 лет 3 мес.
Сообщений: 83
Ratio: 7.924
100%
Откуда: Саратов
russia.gif
прикольный смотреть можна!
Roro_The_Witch
Стаж: 12 лет 1 мес.
Сообщений: 34
Ratio: 27.43
100%
Откуда: Москва
russia.gif
Качала сериал по просьбе подруги, сама смотреть даже не думала. Включила вечером "для фона" и... провалилась в него на 2 дня ) Очень понравилось все от актеров до сюжета. Концовку предугадала уже на 5 - 6 серии, но интереса это нисколько не убавило.

Рекомендую всем, с нетерпением жду 2-ого сезона. :поклоняется:

_________________
Глаза боятся, а руки - крюки!
Daimon78
Стаж: 9 лет 3 мес.
Сообщений: 35
Ratio: 10.734
100%
ussr.gif
Ежели отписавшиеся здесь люди говорят,шо этот сериал хорош.Значит его действительно стоит заценить.Благодарю за релиз,коллеги
denizzz
Стаж: 16 лет 2 мес.
Сообщений: 35
Ratio: 12.505
0.17%
Откуда: Москва
russia.gif
Сериал [ничто]!
Еле осилил первый сезон
Другие качать и смотреть не буду, не смотря на другую сюжетную линию
GenK222362236
Стаж: 10 лет 6 мес.
Сообщений: 5
Ratio: 2.323
100%
Сериал отличный, смотрели всей семьей! Очень впечатлил сюжет!=)
Cube11
Стаж: 11 лет 8 мес.
Сообщений: 278
Ratio: 14.282
Поблагодарили: 3
100%
russia.gif
После половины сериал начинает утомлять.
Горничная - огонь!
apelsin-vadim
Стаж: 10 лет 10 мес.
Сообщений: 133
Ratio: 20.367
Поблагодарили: 16
100%
ukraine.gif
Спасибо огромное!
Показать сообщения:   
Начать новую тему   Ответить на тему    Торрент-трекер NNM-Club -> Зарубежные сериалы Часовой пояс: GMT + 3
Страница 1 из 1