Классический форум-трекер
canvas not supported
Нас вместе: 4 210 922

Заражение / Contagion (2011) BDRip [H.264/1080p]


 
 
RSS
Начать новую тему   Ответить на тему    Торрент-трекер NNM-Club -> Архив торрентов -> Архив Видео
Автор Сообщение
GIU ®
Uploader 100+
Стаж: 12 лет 6 мес.
Сообщений: 3474
Ratio: 4669.905
Поблагодарили: 774704
100%
ussr.gif
Заражение / Contagion (2011) BDRip [H.264/1080p]
«Скоро мир будет инфицирован.»

Производство: США, ОАЭ | Warner Bros. Pictures, Participant Media, Imagenation Abu Dhabi FZ
Жанр: Триллер, Драма
Перевод: Дублированный [Лицензия]
Язык субтитров: Английский

Режиссер: Стивен Содерберг
Актеры: Мэтт Дэймон, Марион Котийяр, Джуд Лоу, Гвинет Пэлтроу, Кейт Уинслет, Дженнифер Эль, Лоренс Фишбёрн, Брайан Крэнстон, Джон Хоукс, Санаа Лэтэн и др
Роли дублировали: Рамиля Искандер, Борис Шувалов, Алексей Рязанцев, Василий Дахненко, Людмила Шувалова

Описание:
Международная организация врачей совместно с Центром по контролю и профилактике заболеваний США пытается помешать распространению смертельного вируса.



Дата мировой премьеры: 3 сентября 2011
Дата российской премьеры: 13 октября 2011, «Каро-Премьер»
Дата выхода DVD релиза: 26 января 2012, «CP-Digital»

Продолжительность: 01:46:25
Качество видео: BDRip 1080p

Видеокодек: MPEG-4 AVC/H.264
Битрейт видео: ~10,3 Мбит/сек
Размер кадра: 1920 x 1080 (1.778) at 23.976 fps
Аудиокодек: AC3 5.1 | DTS
Aудио #1: AC-3 448 Кбит/сек, , 48,0 КГц [Русский]
Aудио #1: DTS 1510 Кбит/сек, , 48,0 КГц [Английский]
Сэмпл: Ссылка

Заражение / Contagion (2011) HDRip 1.45Gb
Заражение / Contagion (2011) [720p] BDRip
Полное имя : H:\Заражение Contagion.2011.BDRip.1080p.x264.DTS-HDChina\Zarazhenie.2011.D.BDRip.1080p.NNM-Club.mkv
Формат : Matroska
Размер файла : 9,08 Гбайт
Продолжительность : 1 ч. 46 м.
Общий поток : 12,2 Мбит/сек
Дата кодирования : UTC 2011-12-20 18:15:52
Программа кодирования : mkvmerge v4.0.0 ('The Stars were mine') сборка от Jun 6 2010 16:18:42
Библиотека кодирования : libebml v1.0.0 + libmatroska v1.0.0

Видео
Идентификатор : 1
Формат : AVC
Формат/Информация : Advanced Video Codec
Профиль формата : High@L4.1
Параметр CABAC формата : Да
Параметр ReFrames формата : 4 кадра
Идентификатор кодека : V_MPEG4/ISO/AVC
Продолжительность : 1 ч. 46 м.
Битрейт : 10,3 Мбит/сек
Ширина : 1920 пикс.
Высота : 1080 пикс.
Соотношение сторон : 16:9
Частота кадров : 23,976 кадр/сек
Цветовое пространство : YUV
Подвыборка цветности : 4:2:0
Битовая глубина : 8 бит
Тип развёртки : Прогрессивная
Бит/(Пиксели*Кадры) : 0.206
Размер потока : 7,44 Гбайт (82%)
Библиотека кодирования : x264 core 116 r2074 2641b9e
Настройки программы : cabac=1 / ref=4 / deblock=1:-3:-3 / analyse=0x3:0x133 / me=umh / subme=10 / psy=1 / psy_rd=1.00:0.00 / mixed_ref=1 / me_range=48 / chroma_me=1 / trellis=2 / 8x8dct=1 / cqm=0 / deadzone=21,11 / fast_pskip=1 / chroma_qp_offset=-2 / threads=12 / sliced_threads=0 / nr=0 / decimate=0 / interlaced=0 / bluray_compat=0 / constrained_intra=0 / bframes=6 / b_pyramid=2 / b_adapt=2 / b_bias=0 / direct=3 / weightb=1 / open_gop=0 / weightp=2 / keyint=250 / keyint_min=23 / scenecut=40 / intra_refresh=0 / rc_lookahead=60 / rc=2pass / mbtree=1 / bitrate=10261 / ratetol=1.0 / qcomp=0.60 / qpmin=0 / qpmax=69 / qpstep=4 / cplxblur=20.0 / qblur=0.5 / vbv_maxrate=50000 / vbv_bufsize=50000 / nal_hrd=none / ip_ratio=1.50 / aq=1:1.00
Язык : English

Аудио #1
Идентификатор : 2
Формат : AC-3
Формат/Информация : Audio Coding 3
Расширение режима : CM (complete main)
Идентификатор кодека : A_AC3
Продолжительность : 1 ч. 46 м.
Вид битрейта : Постоянный
Битрейт : 448 Кбит/сек
Каналы : 6 каналов
Расположение каналов : Front: L C R, Side: L R, LFE
Частота : 48,0 КГц
Битовая глубина : 16 бит
Метод сжатия : С потерями
Размер потока : 341 Мбайт (4%)
Язык : Russian

Аудио #2
Идентификатор : 3
Формат : DTS
Формат/Информация : Digital Theater Systems
Идентификатор кодека : A_DTS
Продолжительность : 1 ч. 46 м.
Вид битрейта : Постоянный
Битрейт : 1510 Кбит/сек
Каналы : 6 каналов
Расположение каналов : Front: L C R, Side: L R, LFE
Частота : 48,0 КГц
Битовая глубина : 24 бит
Метод сжатия : С потерями
Задержка видео : 11 мс.
Размер потока : 1,12 Гбайт (12%)
Язык : English

Текст
Идентификатор : 4
Формат : UTF-8
Идентификатор кодека : S_TEXT/UTF8
Идентификатор кодека/Информация : UTF-8 Plain Text
Язык : English

Скриншоты:


Время раздачи: 24/7 (до 10 скачавших)
 Торрент: Платиновая раздача  Зарегистрирован
 
Скачать


 Зарегистрирован:   20 Дек 2011 23:07:44
 Размер:   9.08 GB  (
 Рейтинг:   4.8 (Голосов: 35)
 Поблагодарили:   107
 Проверка:   Оформление проверено модератором 21 Дек 2011 22:53:11
Как cкачать  ·  Как раздать  ·  Правильно оформить  ·  Поднять ратио!  

_________________
Существует 2 бесконечности: Вселенная и Глупость. Впрочем, я не уверен насчет Вселенной.
©А.Эйнштейн
Топик был перенесен из форума Зарубежные Фильмы (HD) в форум Архив Видео

Причина переноса: Отсутствие раздающих > 1 месяца.
Dreemmer
Показать сообщения:   
Начать новую тему   Ответить на тему    Торрент-трекер NNM-Club -> Архив торрентов -> Архив Видео Часовой пояс: GMT + 3
Страница 1 из 1