Классический форум-трекер
canvas not supported
Нас вместе: 4 233 109

Гарик Сукачев – Перезвоны (2005) [APE|lossless]<Rock>


 
 
RSS
Начать новую тему   Ответить на тему    Торрент-трекер NNM-Club -> Rock, Alternative, Punk, Metal -> Русский Рок (Lossless)
Автор Сообщение
svpavkin63 ®
Стаж: 13 лет 11 мес.
Сообщений: 1058
Ratio: 108.368
Поблагодарили: 12676
100%
russia.gif
Гарик Сукачев - Перезвоны (2005)
Год: 2005
Жанр: Rock
Продолжительность: 00:53:06

Кодек: APE
Битрейт: Lossless
Тип рипа: image+.cue
Страна-производитель диска: Украина
Издатель (лейбл): Мистерiя звука Украiнi
Номер по каталогу: JRC 05016-2

Трек лист:
1. Лейтенанты
2. Нас было четверо
3. Перезвоны
4. Невезение
5. Песенка об Арбате
6. Госпожа удача
7. Кони привередливые
8. Песня о нейтральной полосе
9. Коля Огонек
10. Я милого узнаю по походке
11. Tombe la neige
12. Гори, гори...
13. Сколько был я зол (Карама)
14. Перезвоны#...
Хиты: «Лейтенанты», «Перезвоны», «Я Милого Узнаю По Походке».
Нужно иметь очень большую смелость, чтобы спеть песни Высоцкого или Окуджавы. Сукачев смелости набрался и спел, присовокупив к «Песне О Нейтральной Полосе», «Песенке Об Арбате», «Госпоже Удаче» и «Коням Привередливым» для весу классический номер французского шансона «Tombe la neige». В результате они приобрели совсем другое звучание, не героически патриотическое, к которому мы привыкли, а застольно-задумчивое, с каким обычно после рюмочки-другой запевают «Черного Ворона».
Самостоятельный материал Сукачева, в том числе песни к сериалу «Курсанты», выдержан в той же стилистике, что и каверы
Код: выделить все

Exact Audio Copy V0.99 prebeta 4 from 23. January 2008

Отчёт EAC об извлечении, выполненном 27. января 2009, 22:43

Сукачев Гарик / Перезвоны

Дисковод: _NEC    DVD_RW ND-4550A   Adapter: 3  ID: 0

Режим чтения                 : Достоверность
Использование точного потока : Да
Отключение кэша аудио        : Да
Использование указателей C2  : Нет

Коррекция смещения при чтении                     : 48
Способность читать области Lead-in и Lead-out     : Нет
Заполнение пропущенных сэмплов тишиной            : Да
Удаление блоков с тишиной в начале и конце        : Нет
При вычислениях CRC использовались нулевые сэмплы : Да
Интерфейс                                         : Установленный внешний ASPI-интерфейс

Выходной формат : Внутренние WAV-операции
Формат сэмплов  : 44.100 Гц; 16 бит; стерео

TOC извлечённого CD

     Трек |   Старт  | Длительность | Начальный сектор | Конечный сектор
    ---------------------------------------------------------------------
       1  |  0:00.00 |    4:25.05   |           0      |      19879
       2  |  4:25.05 |    2:56.71   |       19880      |      33150
       3  |  7:22.01 |    3:22.23   |       33151      |      48323
       4  | 10:44.24 |    2:36.00   |       48324      |      60023
       5  | 13:20.24 |    3:34.41   |       60024      |      76114
       6  | 16:54.65 |    2:34.29   |       76115      |      87693
       7  | 19:29.19 |    5:10.39   |       87694      |     110982
       8  | 24:39.58 |    4:23.05   |      110983      |     130712
       9  | 29:02.63 |    4:24.60   |      130713      |     150572
      10  | 33:27.48 |    3:35.50   |      150573      |     166747
      11  | 37:03.23 |    3:46.07   |      166748      |     183704
      12  | 40:49.30 |    4:19.60   |      183705      |     203189
      13  | 45:09.15 |    4:33.05   |      203190      |     223669
      14  | 49:42.20 |    3:23.56   |      223670      |     238950

Характеристики диапазона извлечения и сообщения об ошибках

Выбранный диапазон

     Имя файла D:\123\Suka4ev-Perezvoni2005HQ\Сукачев Гарик - Перезвоны.wav

     Пиковый уровень 99.4 %
     Качество диапазона 99.9 %
     CRC копии 0A0E16C0
     Копирование... OK

Ошибок не произошло

AccurateRip: сводка

Трек  1  нет в базе данных
Трек  2  нет в базе данных
Трек  3  нет в базе данных
Трек  4  нет в базе данных
Трек  5  нет в базе данных
Трек  6  нет в базе данных
Трек  7  нет в базе данных
Трек  8  нет в базе данных
Трек  9  нет в базе данных
Трек 10  нет в базе данных
Трек 11  нет в базе данных
Трек 12  нет в базе данных
Трек 13  нет в базе данных
Трек 14  нет в базе данных

Ни одного трека нет в базе AccurateRip

Конец отчёта
Код: выделить все

-----------------------

DON'T MODIFY THIS FILE

-----------------------

PERFORMER: auCDtect Task Manager, ver. 1.5.1RC4 build 1.5.1.5
Copyright (c) 2008-2010 y-soft. All rights reserved
http://y-soft.org

ANALYZER: auCDtect: CD records authenticity detector, version 0.8.2
Copyright (c) 2004 Oleg Berngardt. All rights reserved.
Copyright (c) 2004 Alexander Djourik. All rights reserved.

FILE: Сукачев Гарик - Перезвоны.ape
  Size: 381107415 Hash: 8685FECFD9E87AFE317081A6C08919F2 Accuracy: -m0
  Conclusion: CDDA 100%
  Signature: 6E011ED51C5DD382CC7F00981DA0476D01D10071
Время раздачи: Круглосуточно


Поглощение/вытеснение
Только с согласия релизера

J_Man
[NNM-Club.ru]_Sukachev Garik - Perezvonyi 2005 (Lossless).torrent
 Торрент: Платиновая раздача  Зарегистрирован
 
Скачать


Примагнититься
 Зарегистрирован:   14 Апр 2024 11:10:37
 Размер:   379 MB  (
 Рейтинг:   4.4 (Голосов: 34)
 Поблагодарили:   146
 Проверка:   Оформление проверено модератором 14 Апр 2024 13:40:58
Как cкачать  ·  Как раздать  ·  Правильно оформить  ·  Поднять ратио!  
BarShadow
Стаж: 13 лет 2 мес.
Сообщений: 17258
Ratio: 46.988
Поблагодарили: 20492
100%
Откуда: Пятая планета от Солнца
wild_hogs.gif
Спасибо.
Georgiiy
RG Soft
Реставратор, Модератор Программ, Uploader 300+
Стаж: 10 лет 6 мес.
Сообщений: 13198
Ratio: 4481.884
Раздал: 365.9 TB
Поблагодарили: 921954
100%
Откуда: Київ
ukraine.gif
Торрент обновлен в рамках акции Включаем DHT в древних раздачах.
Теперь вам нужно его скачать и открыть в торрент-клиенте, указав в качестве места сохранения раздаваемый файл или папку.

_________________
Мы прорвёмся сквозь бури наших дней!

danrecords
Стаж: 12 лет 5 мес.
Сообщений: 5228
Ratio: 9.197
Поблагодарили: 4
100%
Откуда: Беларусь, Минск
belarus.gif
Благодарю за отличное качество!

_________________
Слушать попсу нельзя!
Бусидо
Стаж: 13 лет 8 мес.
Сообщений: 165
Ratio: 14.074
100%
russia.gif
Блин....Вспомнил годы лейтенантские...."Нам не нужны чины и почести. У нас есть звёзды на плечах." Аж уронил скупую мужскую слезу.
Страна производитель диска...Украина. Эх! Была такая Страна.
Показать сообщения:   
Начать новую тему   Ответить на тему    Торрент-трекер NNM-Club -> Rock, Alternative, Punk, Metal -> Русский Рок (Lossless) Часовой пояс: GMT + 3
Страница 1 из 1