Классический форум-трекер
canvas not supported
Нас вместе: 4 233 721

Кобра / Cobra (1986) BDRip [H.264/720p-LQ]


 
 
RSS
Начать новую тему   Ответить на тему    Торрент-трекер NNM-Club -> Классика кино и Старые фильмы до 90-х -> Зарубежная Классика (HD, FHD, UHD, 3D)
Автор Сообщение
batonchik ®
RG Releasers
Котоаплоадер 15 PB+
Почетный Куратор Видео
Стаж: 16 лет 3 мес.
Сообщений: 26119
Ratio: 58K
Раздал: 15.128 PB
Поблагодарили: 1440594
100%
Откуда: СССР
ussr.gif
Кобра / Cobra (1986) BDRip
Русское название: Кобра
Оригинальное название: Cobra
Год выпуска: 1986
Выпущено: США
Жанр: боевик, триллер, криминал

Описание фильма:
Он — «Кобра» — штурмовой отряд полиции из одного человека, ему достаётся кровавая работёнка, за которую никто не хочет (или не осмеливается) взяться. Он выходит на след убийцы, за которым целая армия преступников-маньяков, стремящихся уничтожить свидетельницу их кровавой вакханалии. Но, к счастью, она попадает под защиту «Кобры».

Режиссер: Джордж Пан Косматос
Актеры: Сильвестр Сталлоне, Бриджитт Нильсен, Рени Сантони, Эндрю Робинсон, Брайан Томпсон, Джон Херцфелд, Ли Гарлингтон, Арт ЛаФлёр, Марко Родригес, Росс Ст. Филлип

Продолжительность: 01:27:00
Перевод: Дублированный
Субтитры: Русские, Русские (гоблин), Английские

Дата мировой премьеры: 23 мая 1986
Дата релиза на DVD:16 сентября 2008, «Юниверсал Пикчерс Рус»
Дата релиза на Blu-Ray: 17 марта 2011, «CP-Digital»
Релиз от:
Видеокодек: MPEG-4 AVC/H.264
Битрейт видео: ~ 3260 Кбит/сек
Размер кадра: 1280x720 (16:9)
Качество видео: BDRip LQ [batonchik]
Аудио: Русский, AC3, 5.1, 320 Кбит/сек, 48,0 КГц, 16 бит
Общее
Уникальный идентификатор : 240125956932830035634461322318300154684 (0xB4A693BC0CAC4A99A5047F03E8C58B3C)
Полное имя : \Cobra (1986) BDRip LQ 720p NNM-CLUB.mkv
Формат : Matroska
Версия формата : Version 2
Размер файла : 2,18 Гбайт
Продолжительность : 1 ч. 27 м.
Режим общего битрейта : Переменный
Общий поток : 3579 Кбит/сек
Название фильма : BATONCHIK
Дата кодирования : UTC 2012-05-12 08:08:13
Программа кодирования : mkvmerge v5.5.0 ('Healer') built on Apr 6 2012 21:43:24
Библиотека кодирования : libebml v1.2.3 + libmatroska v1.3.0

Видео
Идентификатор : 1
Формат : AVC
Формат/Информация : Advanced Video Codec
Профиль формата : High@L4.1
Параметр CABAC формата : Да
Параметр ReFrames формата : 8 кадров
Идентификатор кодека : V_MPEG4/ISO/AVC
Продолжительность : 1 ч. 27 м.
Вид битрейта : Переменный
Битрейт : 3260 Кбит/сек
Максимальный битрейт : 14,0 Мбит/сек
Ширина : 1280 пикселей
Высота : 720 пикселей
Соотношение сторон : 16:9
Частота кадров : 23,976 кадра/сек
Цветовое пространство : YUV
Субдискретизация насыщенности : 4:2:0
Битовая глубина : 8 бит
Тип развёртки : Прогрессивная
Бит/(Пиксели*Кадры) : 0.148
Размер потока : 1,94 Гбайт (89%)
Заголовок : Cobra (1986) BDRip LQ 720p NNM-CLUB
Библиотека кодирования : x264 core 120 r2164 da19765
Настройки программы : cabac=1 / ref=8 / deblock=1:-3:-3 / analyse=0x3:0x133 / me=umh / subme=11 / psy=1 / psy_rd=1.00:0.15 / mixed_ref=1 / me_range=32 / chroma_me=1 / trellis=2 / 8x8dct=1 / cqm=0 / deadzone=21,11 / fast_pskip=0 / chroma_qp_offset=-3 / threads=12 / sliced_threads=0 / slices=4 / nr=0 / decimate=1 / interlaced=0 / bluray_compat=0 / constrained_intra=0 / bframes=12 / b_pyramid=2 / b_adapt=2 / b_bias=0 / direct=1 / weightb=1 / open_gop=0 / weightp=2 / keyint=240 / keyint_min=22 / scenecut=0 / intra_refresh=0 / rc_lookahead=40 / rc=2pass / mbtree=1 / bitrate=3260 / ratetol=1.0 / qcomp=0.60 / qpmin=0 / qpmax=69 / qpstep=4 / cplxblur=20.0 / qblur=0.5 / vbv_maxrate=14000 / vbv_bufsize=14500 / nal_hrd=vbr / ip_ratio=1.40 / aq=1:1.00
Язык : English
Default : Да
Forced : Нет
Основные цвета : BT.709-5, BT.1361, IEC 61966-2-4, SMPTE RP177
Характеристики трансфера : BT.709-5, BT.1361
Коэффициенты матрицы : BT.709-5, BT.1361, IEC 61966-2-4 709, SMPTE RP177

Аудио
Идентификатор : 2
Формат : AC-3
Формат/Информация : Audio Coding 3
Расширение режима : CM (complete main)
Параметр Endianness формата : Big
Идентификатор кодека : A_AC3
Продолжительность : 1 ч. 27 м.
Вид битрейта : Постоянный
Битрейт : 320 Кбит/сек
Каналы : 6 каналов
Расположение каналов : Front: L C R, Side: L R, LFE
Частота : 48,0 КГц
Битовая глубина : 16 бит
Метод сжатия : С потерями
Размер потока : 199 Мбайт (9%)
Заголовок : Дублированный
Язык : Russian
Default : Да
Forced : Нет

Текст #1
Идентификатор : 3
Формат : UTF-8
Идентификатор кодека : S_TEXT/UTF8
Идентификатор кодека/Информация : UTF-8 Plain Text
Язык : Russian
Default : Нет
Forced : Нет

Текст #2
Идентификатор : 4
Формат : UTF-8
Идентификатор кодека : S_TEXT/UTF8
Идентификатор кодека/Информация : UTF-8 Plain Text
Заголовок : Goblin
Язык : Russian
Default : Нет
Forced : Нет

Текст #3
Идентификатор : 5
Формат : UTF-8
Идентификатор кодека : S_TEXT/UTF8
Идентификатор кодека/Информация : UTF-8 Plain Text
Язык : English
Default : Нет
Forced : Нет

Меню
00:00:00.000 : Chapter 1
00:02:51.046 : Chapter 2
00:07:11.890 : Chapter 3
00:09:59.432 : Chapter 4
00:13:11.624 : Chapter 5
00:16:44.545 : Chapter 6
00:21:39.924 : Chapter 7
00:22:59.003 : Chapter 8
00:25:50.674 : Chapter 9
00:29:10.916 : Chapter 10
00:33:24.753 : Chapter 11
00:37:48.183 : Chapter 12
00:42:39.724 : Chapter 13
00:43:51.087 : Chapter 14
00:50:53.676 : Chapter 15
00:52:36.528 : Chapter 16
00:54:33.270 : Chapter 17
00:57:04.004 : Chapter 18
00:59:41.995 : Chapter 19
01:04:14.684 : Chapter 20
01:08:27.186 : Chapter 21
01:10:39.026 : Chapter 22
01:12:37.853 : Chapter 23
01:14:44.897 : Chapter 24
01:17:32.690 : Chapter 25
01:20:08.470 : Chapter 26
01:22:39.621 : Chapter 27
Фильм снят по роману Паулы Гослинг «Честная игра », который впоследствии ещё раз экранизировали в 1995 году, с Уильямом Болдуином в главной роли.
Сталлоне использовал некоторые идеи из набросков сценария к «Полицейскому из Беверли-Хиллз».
Фильм лишь частично основан на романе Паулы Гослинг, поскольку, по словам Сталлоне, для боевика, в книге было маловато действия.
«Кобру» очень негативно приняли критики, но широкая публика была в восторге. Примечательно, что фильм был поразительно популярен у постсоветcкого зрителя, плакаты из «Кобры» и знаменитые очки вошли в обиход.
Сталлоне лично настоял на том, чтобы главную женскую роль сыграла Бриджет Нильсен. Он же настоял на кандидатуре Джорджа Пана Косматоса в качестве режиссёра.
Автомобиль, на котором разъезжает Кобра, принадлежал Сильвестру Сталлоне.
В фильме 52 трупа.
Автомобиль на котором разъезжал главный герой - Mercury Monterey Coupe', 1950.


Скриншоты:








Время раздачи: круглогодично

Играю на аккордеоне за "Спасибо"
Cobra (1986) BDRip LQ 720p NNM-CLUB.mkv.torrent
 Торрент: Платиновая раздача  Зарегистрирован
 
Скачать


Примагнититься
 Зарегистрирован:   12 Май 2012 11:47:11
 Размер:   2.18 GB  (
 Рейтинг:   4.8 (Голосов: 66)
 Поблагодарили:   182
 Проверка:   Оформление проверено модератором 12 Май 2012 11:47:50
•••
ПОЖЕРТВОВАТЬ МНЕ НА ЛЕКАРСТВА И ЛЕЧЕНИЕ | Поддержка меня и моих релизов
Yoomoney ••• 41001324015940
Как cкачать  ·  Как раздать  ·  Правильно оформить  ·  Поднять ратио!  
zalman7000
Стаж: 14 лет 5 мес.
Сообщений: 295
Ratio: 9.455
Поблагодарили: 300
100%
russia.gif
Как долго ждал хорошего качества, да еще с переводом Гоблина.
Спасибо!
Chekolduzer
Стаж: 15 лет 2 мес.
Сообщений: 169
Ratio: 14.515
100%
от Гоблина только сабы? или перевод присутствует?
Показать сообщения:   
Начать новую тему   Ответить на тему    Торрент-трекер NNM-Club -> Классика кино и Старые фильмы до 90-х -> Зарубежная Классика (HD, FHD, UHD, 3D) Часовой пояс: GMT + 3
Страница 1 из 1