Классический форум-трекер
canvas not supported
Нас вместе: 4 195 879

Балтийская слава (1957) DVDRip


 
 
RSS
Начать новую тему   Ответить на тему    Торрент-трекер NNM-Club -> Классика кино и Старые фильмы до 90-х -> Отечественная Классика (HD*Rip/LQ, DVDRip, SATRip, VHSRip)
Автор Сообщение
Vadiman79 ®
Стаж: 13 лет 1 мес.
Сообщений: 31
Ratio: 93.368
Раздал: 54.05 TB
Поблагодарили: 986
100%
Балтийская слава (1957) DVDRip
Жанр: Драма

Описание:
Фильм о борьбе моряков Балтийского флота за революционный Петроград осенью 1917 года. В центре фильма судьбы матроса и морского офицера, которые встают в ряды борцов за революцию.

Режиссер: Ян Фрид
Актеры: Иосиф Кутянский, Павел Кадочников, Леонид Кмит, Николай Макеев, Михаил Иванов, Инна Выходцева, Наталья Каташева, Герман Орлов, Владислав Стржельчик, Ефим Копелян, Константин Адашевский, Александр Борисов, Адольф Шестаков, Владимир (Вольдемар) Чобур, Борис Смирнов, Леонид Любашевский, Михаил Екатерининский, Н. Вакуров

Продолжительность: 01:28:43



Видеокодек: DivX 5
Битрейт видео: ~2004 kb/s
Размер кадра: 688x528
Качество видео: DVDRip
Аудиокодек: AC3 2.0
Битрейт аудио: 192 kb/s
Общее
Полное имя : E:\utorrent\Закачанные\_My Relizes\Baltiyskaja_slava.avi
Формат : AVI
Формат/Информация : Audio Video Interleave
Размер файла : 1,37 Гбайт
Продолжительность : 1 ч. 28 м.
Общий поток : 2206 Кбит/сек
Программа кодирования : VirtualDubModRus 1.5.10.2 (build 2542/release)
Библиотека кодирования : VirtualDubMod build 2542/release

Видео
Идентификатор : 0
Формат : MPEG-4 Visual
Параметр BVOP формата : 1
Параметр QPel формата : Нет
Параметр GMC формата : Без точки перехода
Параметр матрицы формата : Default (H.263)
Режим смешивания : Сжатый битовый поток
Идентификатор кодека : DX50
Идентификатор кодека/Подсказка : DivX 5
Продолжительность : 1 ч. 28 м.
Битрейт : 2004 Кбит/сек
Ширина : 688 пикселей
Высота : 528 пикселей
Соотношение сторон : 4:3
Частота кадров : 25,000 кадров/сек
Цветовое пространство : YUV
Субдискретизация насыщенности : 4:2:0
Битовая глубина : 8 бит
Тип развёртки : Прогрессивная
Метод сжатия : С потерями
Бит/(Пиксели*Кадры) : 0.221
Размер потока : 1,24 Гбайт (91%)
Библиотека кодирования : DivX 6.8.3-6.8.4 (UTC 2008-06-07)

Аудио
Идентификатор : 1
Формат : AC-3
Формат/Информация : Audio Coding 3
Расширение режима : CM (complete main)
Идентификатор кодека : 2000
Продолжительность : 1 ч. 28 м.
Вид битрейта : Постоянный
Битрейт : 192 Кбит/сек
Каналы : 2 канала
Расположение каналов : Front: L R
Частота : 48,0 КГц
Битовая глубина : 16 бит
Метод сжатия : С потерями
Размер потока : 122 Мбайт (9%)
Выравнивание : Соединение по промежуткам
Продолжительность промежутка : 40 мс. (1,00 видеокадр)
Время предзагрузки промежутка : 512 мс.
Скриншоты:




Время раздачи: 24/7
[NNMClub.to]_Baltiyskaya slava .torrent
 Торрент: Платиновая раздача  Зарегистрирован
 
Скачать


Примагнититься
 Зарегистрирован:   18 Май 2022 07:04:37
 Размер:   1.37 GB  (
 Рейтинг:   4.6 (Голосов: 60)
 Поблагодарили:   160
 Проверка:   Оформление проверено модератором 18 Май 2022 07:05:29
Как cкачать  ·  Как раздать  ·  Правильно оформить  ·  Поднять ратио!  

_________________
Умён не тот кто знает, а тот кто думает! (©)
sl2000
Стаж: 12 лет 3 мес.
Сообщений: 77
Ratio: 3.06
100%
Откуда: край белых ночей
russia.gif
если мне память не изменяет в БДТ такой же спектакль был. Ефим Копелян играл там тоже.
igordn
Стаж: 10 лет 10 мес.
Сообщений: 57
Ratio: 1.996
Поблагодарили: 5
100%
Откуда: Москва
russia.gif
За фильмы по морской теме - только наивысшая оценка!!! :клево: :респект:

_________________
Ставлю себе ЦЕЛЬ и бегу к ней, когда не могу бежать - иду, когда идти не могу ползу к ней со всей силы, когда и ползти не могу, то просто ложусь и лежу в направлении своей ЦЕЛИ (МЕЧТЫ)!
NorthOn
 
Админ
Стаж: 15 лет 10 мес.
Сообщений: 15392
Ratio: 909.667
Поблагодарили: 14696
100%
nnm-club.gif
Торрент обновлен в рамках акции Включаем DHT в древних раздачах
Просьба к скачавшим ранее и желающим подключиться к раздаче, перекачать торрент-файл.

_________________
Либо я найду путь, либо проложу его...
CoNoL
Стаж: 10 лет 11 мес.
Сообщений: 156
Ratio: 21.19
Раздал: 40.71 TB
9.34%
С днем Балтийского Флота ,сегодня 319 годовщина с дня его основания
Показать сообщения:   
Начать новую тему   Ответить на тему    Торрент-трекер NNM-Club -> Классика кино и Старые фильмы до 90-х -> Отечественная Классика (HD*Rip/LQ, DVDRip, SATRip, VHSRip) Часовой пояс: GMT + 3
Страница 1 из 1