Классический форум-трекер
canvas not supported
Нас вместе: 4 079 175

Белый клык (1946) DVD5


 
 
RSS
Начать новую тему   Ответить на тему    Торрент-трекер NNM-Club -> Видео -> Отечественные Фильмы для детей
Автор Сообщение
Alex_Fors ®
Стаж: 9 лет
Сообщений: 387
Ratio: 102,587
Поблагодарили: 18401
100%
portugal.gif
Белый клык (1946) DVD5
Производство: СССР
Жанр: Приключения

Режиссер: Александр Згуриди
Актеры: Олег Жаков, Елена Измайлова, Лев Свердлин, Николай Плотников, Осип Абдулов, Иван Бобров, Эммануил Геллер, В. Латышевский, Петр Репнин...

Описание :
Горный инженер Смит воспитывает собаку, которую он спас во время кровавого собачьего боя. Но его питомец Белый Клык злобен и агрессивен, ведь его воспитывал как пса-убийцу.
Не мало прошло времени, прежде чем человек и собака подружились. Но однажды ночью за Клыком пришел его прежний хозяин, вооруженный револьвером.


Возраст: 0+ (зрителям любого возраста)

Продолжительность: 01:19:18
Качество видео: DVD5

Субтитры: Отсутствуют
Видео: MPEG-2, 720x576@768x576, ~6000 Kbps
Аудио: MPEG-1, 2 ch, 224 Kbps
Дополнительные материалы: Отсутствуют
Title: Белый клык.1947.DVD5
Size: 3.73 Gb ( 3 912 480,00 KBytes ) - DVD-5
Enabled regions: 1, 2, 3, 4, 5, 6, 7, 8

VTS_01 :
Play Length: 00:00:30
Video: PAL 4:3 (720x576) VBR
Audio:
Not specified (LinearPCM, 2 ch)

VTS_02 :
Play Length: 01:19:18
Video: PAL 4:3 (720x576) VBR
Audio:
Not specified, MPA, Delay = 32 mSec

* Menus Information *

VIDEO_TS Menu
Video:
PAL 4:3 (720x576) VBR
Audio:
Not specified (LinearPCM, 2 ch)
Language Unit :
Title Menu

VTS_01 Menu
Video:
NTSC 4:3 (720x480) VBR
Auto Pan&Scan, Auto Letterboxed
Language Unit :
Root Menu

VTS_02 Menu
Video:
NTSC 4:3 (720x480) VBR
Auto Pan&Scan, Auto Letterboxed
Language Unit :
Root Menu
Формат : MPEG-PS
Размер файла : 977 Мбайт
Продолжительность : 21 м.
Общий поток : 6477 Кбит/сек

Видео
Идентификатор : 224 (0xE0)
Формат : MPEG Video
Версия формата : Version 2
Профиль формата : Main@Main
Параметр BVOP формата : Нет
Параметр матрицы формата : По умолчанию
Параметр GOP формата : M=1, N=2
Продолжительность : 21 м.
Битрейт : 6100 Кбит/сек
Ширина : 720 пикселей
Высота : 576 пикселей
Соотношение сторон : 4:3
Частота кадров : 25,000 кадров/сек
Стандарт вещания : PAL
Цветовое пространство : YUV
Субдискретизация насыщенности : 4:2:0
Битовая глубина : 8 бит
Тип развёртки : Чересстрочная
Порядок развёртки : Нижнее поле первое
Метод сжатия : С потерями
Бит/(Пиксели*Кадры) : 0.588
Размер потока : 924 Мбайт (95%)

Аудио
Идентификатор : 192 (0xC0)
Формат : MPEG Audio
Версия формата : Version 1
Профиль формата : Layer 2
Продолжительность : 21 м.
Вид битрейта : Постоянный
Битрейт : 224 Кбит/сек
Каналы : 2 канала
Частота : 48,0 КГц
Метод сжатия : С потерями
Задержка видео : -144 мс.
Размер потока : 33,8 Мбайт (3%)

Меню
Скриншоты:

Все одноименные релизы в Клубе

Время раздачи: 24/7 (до появления первых 3-5 скачавших)
[NNMClub.to]_[NNM-Club.ru]_Belyiy klyik.1947.DVD5.torrent
 Торрент: Платиновая раздача  Зарегистрирован
 
Скачать


Примагнититься
 Зарегистрирован:   23 Сен 2019 12:45:31
 Размер:   3,73 GB  (
 Рейтинг:   4,7 (Голосов: 26)
 Поблагодарили:   98
 Проверка:   Оформление проверено модератором 23 Сен 2019 12:46:25
Как cкачать  ·  Как раздать  ·  Правильно оформить  ·  Поднять ратио!  
Загрузка...
almikl
Куратор Детского.
Модератор Видео.
RG Всё лучшее - детям!
Uploader 500+
 
Стаж: 12 лет 4 мес.
Сообщений: 4755
Ratio: 338,837
Поблагодарили: 107365
100%
Откуда: Дааалекое Подмосковье
russia.gif
Торрент перерегистрирован в рамках акции Включаем DHT в древних раздачах
Теперь вам нужно его скачать и открыть в торрент-клиенте, указав в качестве места сохранения раздаваемый файл или папку.
Показать сообщения:   
Начать новую тему   Ответить на тему    Торрент-трекер NNM-Club -> Видео -> Отечественные Фильмы для детей Часовой пояс: GMT + 3
Страница 1 из 1