Классический форум-трекер
canvas not supported
Нас вместе: 4 232 307

Ип Ман / Yip Man (2008) BDRip [H.264/1080p] [MVO]


 
 
RSS
Начать новую тему   Ответить на тему    Торрент-трекер NNM-Club -> Зарубежное кино -> Азиатское кино (HD, FHD, UHD)
Автор Сообщение
eXPpectant ®
Стаж: 14 лет 5 мес.
Сообщений: 2457
Ratio: 1628.264
Раздал: 18.08 TB
Поблагодарили: 308063
100%
Откуда: Нижний Тагил + Дмитров
russia.gif
Ип Ман / Yip Man (2008) BDRip [H.264/1080p]
Русское название: Ип Ман
Оригинальное название: Yip Man
Страна: Гонконг, Китай
Жанр: боевик, драма, История, Биография

Описание фильма:
Ип Ман — признанный мастер кунг фу, живущий в Фуошане, городе, славном своими школами боевых искусств. Ип Ман практикует Вин Чун и хотя является сильнейшим бойцом города, своей школы у него нет, и он не берет учеников. Дома он проводит лишь легкие спарринги с приятелями, чтобы указать на ошибки друг друга. Проходят годы, Китай захватывают воинственные японцы, и Ип Ман оказывается одним из немногих, кто даже в жесточайших условиях оккупации не забывает о чести, достоинстве и, конечно же, мудрости, которую несет в себе кунг фу.

Режиссер: Уилсон Ип
Актеры: Донни Ен, Саймон Ям, Фан Сю-Вонг, Ка Танг Лам, Ю Хин, Ю-Нам Вонг, Чен Зи Хуи, Ли Чак, Линн Хунг, Хироюки Икеучи

Продолжительность: 01:46:21
Перевод: Профессиональный многоголосый (Gremlin Creative Studio)
Язык субтитров: Русские, английские



Видеокодек: MPEG-4 AVC/H.264
Битрейт видео: ~5501 kb/s
Размер кадра: 1920x816
Качество видео: BDRip
Аудиокодек: AC3 5.1
Битрейт аудио: 384 kb/s
Общее
Уникальный идентификатор : 196763410940684529555193296472522236678 (0x9407412781328958A2327A4197722306)
Полное имя : D:\Торрент раздача\Ip.Man.2008..BDRip-F.HD.mkv
Формат : Matroska
Версия формата : Version 2
Размер файла : 4,37 Гбайт
Продолжительность : 1 ч. 46 м.
Общий поток : 5879 Кбит/сек
Дата кодирования : UTC 2012-09-02 05:06:34
Программа кодирования : mkvmerge v5.4.0 ('Piper') built on Mar 10 2012 13:34:39
Библиотека кодирования : libebml v1.2.3 + libmatroska v1.3.0

Видео
Идентификатор : 1
Формат : AVC
Формат/Информация : Advanced Video Codec
Профиль формата : High@L4.1
Параметр CABAC формата : Да
Параметр ReFrames формата : 5 кадров
Идентификатор кодека : V_MPEG4/ISO/AVC
Продолжительность : 1 ч. 46 м.
Битрейт : 5501 Кбит/сек
Ширина : 1920 пикселей
Высота : 816 пикселей
Соотношение сторон : 2,35:1
Режим частоты кадров : Постоянный
Частота кадров : 24,000 кадра/сек
Цветовое пространство : YUV
Субдискретизация насыщенности : 4:2:0
Битовая глубина : 8 бит
Тип развёртки : Прогрессивная
Бит/(Пиксели*Кадры) : 0.146
Размер потока : 4,00 Гбайт (91%)
Библиотека кодирования : x264 core 125 r2208 d9d2288
Настройки программы : cabac=1 / ref=5 / deblock=1:-1:-1 / analyse=0x3:0x113 / me=umh / subme=10 / psy=1 / psy_rd=0.95:0.10 / mixed_ref=1 / me_range=32 / chroma_me=1 / trellis=2 / 8x8dct=1 / cqm=0 / deadzone=21,11 / fast_pskip=0 / chroma_qp_offset=1 / threads=6 / lookahead_threads=1 / sliced_threads=0 / nr=0 / decimate=1 / interlaced=0 / bluray_compat=0 / constrained_intra=0 / bframes=8 / b_pyramid=2 / b_adapt=2 / b_bias=0 / direct=3 / weightb=1 / open_gop=0 / weightp=2 / keyint=240 / keyint_min=24 / scenecut=40 / intra_refresh=0 / rc=2pass / mbtree=0 / bitrate=5501 / ratetol=1.0 / qcomp=0.60 / qpmin=0 / qpmax=69 / qpstep=4 / cplxblur=20.0 / qblur=0.5 / ip_ratio=1.40 / pb_ratio=1.30 / aq=1:0.75
Язык : English
Default : Да
Forced : Нет
Основные цвета : BT.709
Характеристики трансфера : BT.709
Коэффициенты матрицы : BT.709

Аудио
Идентификатор : 2
Формат : AC-3
Формат/Информация : Audio Coding 3
Расширение режима : CM (complete main)
Параметр Endianness формата : Big
Идентификатор кодека : A_AC3
Продолжительность : 1 ч. 46 м.
Вид битрейта : Постоянный
Битрейт : 384 Кбит/сек
Каналы : 6 каналов
Расположение каналов : Front: L C R, Side: L R, LFE
Частота : 48,0 КГц
Битовая глубина : 16 бит
Метод сжатия : С потерями
Размер потока : 292 Мбайт (7%)
Заголовок : Gremlin Creative Studio
Язык : Russian
Default : Да
Forced : Нет

Текст #1
Идентификатор : 3
Формат : UTF-8
Идентификатор кодека : S_TEXT/UTF8
Идентификатор кодека/Информация : UTF-8 Plain Text
Язык : Russian
Default : Нет
Forced : Нет

Текст #2
Идентификатор : 4
Формат : UTF-8
Идентификатор кодека : S_TEXT/UTF8
Идентификатор кодека/Информация : UTF-8 Plain Text
Язык : English
Default : Нет
Forced : Нет

Меню
00:00:00.000 : en:Chapter 01
00:07:37.375 : en:Chapter 02
00:14:42.000 : en:Chapter 03
00:21:25.750 : en:Chapter 04
00:28:08.541 : en:Chapter 05
00:34:52.916 : en:Chapter 06
00:42:25.333 : en:Chapter 07
00:47:35.000 : en:Chapter 08
00:56:07.291 : en:Chapter 09
01:03:31.416 : en:Chapter 10
01:11:03.207 : en:Chapter 11
01:18:32.500 : en:Chapter 12
01:25:53.875 : en:Chapter 13
01:34:11.416 : en:Chapter 14
01:41:23.250 : en:Chapter 15
Скриншоты:

Время раздачи: 24/7
[NNM-Club.ru]_Ip.Man.2008..BDRip.torrent
 Торрент: Платиновая раздача  Зарегистрирован
 
Скачать


Примагнититься
 Зарегистрирован:   01 Сен 2023 11:39:55
 Размер:   4.37 GB  (
 Рейтинг:   4.8 (Голосов: 110)
 Поблагодарили:   406
 Проверка:   Оформление проверено модератором 01 Сен 2023 11:45:15
Как cкачать  ·  Как раздать  ·  Правильно оформить  ·  Поднять ратио!  
v-fly
Стаж: 13 лет 9 мес.
Сообщений: 46
Ratio: 4.006
100%
pirates.png
Фильм путёвый.Недавно 2 части сразу посмотрел :D :пока:
RinaRivers
Стаж: 13 лет 10 мес.
Сообщений: 348
Ratio: 2.272
92.23%
Хороший фильм. Ип Ман 2 вот к сожалению,сильно проигрывается в сравнении.
Gazonocos​il'shik​
Стаж: 14 лет 4 мес.
Сообщений: 115
Ratio: 65.123
Раздал: 9.47 TB
Поблагодарили: 8435
87.76%
великолепный фильм!!!
Alone_Kedr
Куратор Сериалов
Зам. Куратора Видео, Модератор Талантов, Uploader 500+,
DJ Настроения
Стаж: 9 лет 10 мес.
Сообщений: 13385
Ratio: 10K
Поблагодарили: 546983
100%
Откуда: CCCP
ussr.gif
Торрент обновлен в рамках акции Включаем DHT в древних раздачах
Просьба к скачавшим ранее и желающим подключиться к раздаче, перекачать торрент-файл.
Показать сообщения:   
Начать новую тему   Ответить на тему    Торрент-трекер NNM-Club -> Зарубежное кино -> Азиатское кино (HD, FHD, UHD) Часовой пояс: GMT + 3
Страница 1 из 1