Классический форум-трекер
canvas not supported
Нас вместе: 4 232 384

Рыцари неба / Les chevaliers du ciel / Sky Fighters (2005) BDRemux [VC-1/1080p]


 
 
RSS
Начать новую тему   Ответить на тему    Торрент-трекер NNM-Club -> Зарубежное кино -> Зарубежные Фильмы (HD, FHD)
Автор Сообщение
Луць ®
Стаж: 11 лет 4 мес.
Сообщений: 880
Ratio: 649.72
Раздал: 52.25 TB
Поблагодарили: 47551
100%
Откуда: г.Луцк
ukraine.gif
Рыцари неба / Les chevaliers du ciel / Sky Fighters (2005) BDRemux
Производство: Франция, Германия / Mandarin Films, Outsider Productions, Black Forest Films, Canal+ (fr), CMW Films
Жанр: боевик, драма, приключения

Режиссер: Жерар Пирес
Актеры: Бенуа Мажимель, Кловис Корнийяк, Жеральдин Пайя, Алис Тальони, Филипп Торретон, Рей Рейс, Питер Хадсон, Жан-Батист Пюэк, Кристоф Реймонд, Фиона Курзон

Описание:
По мотивам комиксов Жана-Мишеля Шарлье и Альбера Удерзо «Приключения Танги и Лавердюра».
В разгар престижного авиасалона террористы угоняют суперсовременный истребитель. Капитанов Маршелли и Валуа отправляют патрулировать Северное море, где угнанный самолет исчез с экранов радаров.
Это только прелюдия к настоящей битве, которая случится в небе над Елисейскими полями в День взятия Бастилии…


Возраст: 18+ (зрителям, достигшим 18 лет. запрещено для детей)

Релиз от: hq-films
Продолжительность: 01:40:32
Качество видео: BDRemux
Перевод: Дублированный
Язык субтитров: Русские
Вид субтитров: Вшитые

Видео: VC-1, 1920x1080, 21.0 Mbps
Аудио #1: DTS, 6 ch, 755 Kbps - Русский дубляж
Аудио #2: DTS, 6 ch, 1510 Kbps - Французский
     Общее
Уникальный идентификатор : 177713624047296447672902557297118250253 (0x85B26625607D2513AAC47D024C0B850D)
Полное имя : D:\sky Fighters Remux.mkv
Формат : Matroska
Версия формата : Version 1
Размер файла : 16,4 Гбайт
Продолжительность : 1 ч. 40 м.
Общий поток : 23,3 Мбит/сек
Название фильма : -=SkyDreamer=- (HQ-Films.ws)
Дата кодирования : UTC 2008-06-12 15:04:11
Программа кодирования : mkvmerge v2.2.0 ('Turn It On Again') built on Mar 4 2008 12:58:26
Библиотека кодирования : libebml v0.7.7 + libmatroska v0.8.1

Видео
Идентификатор : 1
Формат : VC-1
Профиль формата : AP@L3
Идентификатор кодека : WVC1
Идентификатор кодека/Подсказка : Microsoft
Продолжительность : 1 ч. 40 м.
Битрейт : 20,5 Мбит/сек
Ширина : 1920 пикселей
Высота : 1080 пикселей
Соотношение сторон : 16:9
Частота кадров : 23,976 кадра/сек
Субдискретизация насыщенности : 4:2:0
Битовая глубина : 8 бит
Тип развёртки : Прогрессивная
Метод сжатия : С потерями
Бит/(Пиксели*Кадры) : 0.413
Размер потока : 14,4 Гбайт (88%)
Заголовок : Sky.Fighters.VC-1.Blu.Ray.2005-HQF
Язык : French

Аудио #1
Идентификатор : 2
Формат : DTS
Формат/Информация : Digital Theater Systems
Идентификатор кодека : A_DTS
Продолжительность : 1 ч. 40 м.
Вид битрейта : Постоянный
Битрейт : 755 Кбит/сек
Каналы : 6 каналов
Расположение каналов : Front: L C R, Side: L R, LFE
Частота : 48,0 КГц
Битовая глубина : 24 бит
Метод сжатия : С потерями
Размер потока : 544 Мбайт (3%)
Заголовок : DTS_5.1_768kbps
Язык : Russian

Аудио #2
Идентификатор : 3
Формат : DTS
Формат/Информация : Digital Theater Systems
Идентификатор кодека : A_DTS
Продолжительность : 1 ч. 40 м.
Вид битрейта : Постоянный
Битрейт : 1510 Кбит/сек
Каналы : 6 каналов
Расположение каналов : Front: L C R, Side: L R, LFE
Частота : 48,0 КГц
Битовая глубина : 16 бит
Метод сжатия : С потерями
Размер потока : 1,06 Гбайт (6%)
Заголовок : DTS_5.1_1536kbps
Язык : French

Текст
Идентификатор : 4
Формат : UTF-8
Идентификатор кодека : S_TEXT/UTF8
Идентификатор кодека/Информация : UTF-8 Plain Text
Заголовок : Subtitle
Язык : Russian
Скриншоты:
Отреставрируем и восстановим всем Клубом!

Все одноименные релизы в Клубе

Время раздачи: 24/7 (мультитрекерная раздача, минимум до появления первых 3-5 скачавших)
[NNMClub.to]_Ryitsari neba - Les Chevaliers du Ciel - Sky Fighters (2005) BDRemux.torrent
 Торрент: Платиновая раздача  Зарегистрирован
 
Скачать


Примагнититься
 Зарегистрирован:   28 Май 2023 02:36:30
 Размер:   16.4 GB  (
 Рейтинг:   4.4 (Голосов: 41)
 Поблагодарили:   177
 Проверка:   Оформление проверено модератором 28 Май 2023 03:23:34
Как cкачать  ·  Как раздать  ·  Правильно оформить  ·  Поднять ратио!  
Луць ®
Стаж: 11 лет 4 мес.
Сообщений: 880
Ratio: 649.72
Раздал: 52.25 TB
Поблагодарили: 47551
100%
Откуда: г.Луцк
ukraine.gif
Всем прятного просмотра!
snusftw
Стаж: 13 лет
Сообщений: 639
Ratio: 5.187
100%
russia.gif
Очень поверхностный фильм, но съемки полетов настолько красивые, стоит смотреть хотя бы ради этого.

_________________
"Благословлен Господь, что сделал меня физиком-теоретиком."
DERNACHT
Стаж: 13 лет 10 мес.
Сообщений: 85
Ratio: 9.355
15.61%
panama.gif
Красивый, душевный фильм. Бесхитростные персонажи, французский юмор, женщины в правильно подогнанных летных комбезах и Миражи. Что еще надо для счастья? Хорошее кино.
GAMGAM
Стаж: 17 лет 6 мес.
Сообщений: 540
Ratio: 2.668
Поблагодарили: 109
19.97%
Качаю так как дублированного перевода не имею, фильм супер афигенный.
Westboy
Стаж: 13 лет 7 мес.
Сообщений: 35
Ratio: 1.719
Раздал: 2.048 TB
1.89%
Луць
Вместо субтитров - абракадабра из значков. В какой проге проигрывать файл?
serovdl
Стаж: 12 лет 10 мес.
Сообщений: 2
Ratio: 1.469
100%
russia.gif
Спасибо!!!
Kalex
Администратор
Стаж: 16 лет 7 мес.
Сообщений: 44367
Ratio: 128.272
Поблагодарили: 15161
100%
nnm-club.gif
Торрент перерегистрирован на трекере в рамках акции Включаем DHT в древних раздачах
Теперь вам нужно его скачать и открыть в торрент-клиенте, указав в качестве места сохранения раздаваемый файл или папку.

_________________
NNMClub и IPv6/Teredo
vo0van
Стаж: 11 лет 9 мес.
Сообщений: 6
Ratio: 1.712
0.75%
Судя по концовке должно быть продолжение
LORDKILL
RG Всё лучшее - детям!
Модератор Видео
Стаж: 7 лет 5 мес.
Сообщений: 3474
Ratio: 551.152
Поблагодарили: 343723
100%
Спасибо! За оживление торрента. Только русских субтитров нет.
Optimus
Uploader 104+
Стаж: 11 лет 9 мес.
Сообщений: 6761
Ratio: 2386.225
Раздал: 291.1 TB
Поблагодарили: 439989
32.93%
Откуда: Красноярск
ussr.gif
LORDKILL писал(а): Перейти к сообщению
Спасибо! За оживление торрента. Только русских субтитров нет.


не сложно найти - https://subtitry.ru/subtitles/163689956/?c=9d4&knights-of-heaven

_________________
Показать сообщения:   
Начать новую тему   Ответить на тему    Торрент-трекер NNM-Club -> Зарубежное кино -> Зарубежные Фильмы (HD, FHD) Часовой пояс: GMT + 3
Страница 1 из 1