Классический форум-трекер
canvas not supported
Нас вместе: 4 177 892

Ария - Герой асфальта (Live) (2008) [ALAC|Tracks]<Heavy Metal>


 
 
RSS
Начать новую тему   Ответить на тему    Торрент-трекер NNM-Club -> Аудио и Видео -> Музыка Lossless (ALAC)
Автор Сообщение
Cecidit ®
Стаж: 7 лет 11 мес.
Сообщений: 129
Ratio: 39.772
Поблагодарили: 8820
100%
Откуда: Москва, МО Щелково
russia.gif
Ария - Герой асфальта (Live) (2008)
Год: 2008
Жанр: Heavy Metal
Продолжительность: 01:44:33

Кодек: ALAC
Битрейт: Lossless
Тип раздачи: Tracks
Обложки: Вшиты
Кодирование: XLD + QuickTime + iTunes

«Герой асфальта: XX лет» — пятый концертный альбом группы Ария, выпущенный в 2008 году. Записан в ходе масштабного юбилейного концертного тура, посвящённого 20-летию альбома Герой асфальта. Альбом, выпущенный в формате концертного CD на двух дисках, состоит из 17 треков, и представляет собой запись концерта в Москве, в ДС Лужники.

Cостав группы во время данного юбилейного тура:
Артур Беркут — вокал (экс-Ария)
Виталий Дубинин — бас-гитара, вокал
Владимир Холстинин — гитара
Сергей Попов — гитара
Максим Удалов — барабаны
Валерий Кипелов — вокал (экс-Ария)
Сергей Маврин — гитара (экс-Ария)

Трeклист:
Прoдолжительность: 00:49:06
Треклист:

01. Интро
02. Последний Закат
03. Раскачаем Этот Мир
04. Колизей
05. Меченый Злом
06. Крещение Огнём
07. Антихрист
08. Осколок Льда
09. Кровь Королей
Прoдолжительность: 00:55:27
Треклист:

01. На Службе Силы Зла
02. Герой Асфальта
03. Мёртвая Зона
04. 1100
05. Улица Роз
06. Баллада О Древнерусском Воине
07. Игра С Огнём
08. Штиль
Mediainfo, отчет и спектограммы
Код:

Общее
Полное имя                               : /Users/Denis/Library/Containers/net.mediaarea.mediainfo.mac/Data/Music/iTunes/iTunes Media/Music/Ария/Герой асфальта_ 20 Лет (Live)/1-01 Интро.m4a
Формат                                   : MPEG-4
Профиль формата                          : Apple audio with iTunes info
Идентификатор кодека                     : M4A
Размер файла                             : 7,64 Мбайт
Продолжительность                        : 1 м. 9 с.
Режим общего битрейта                    : Переменный
Общий поток                              : 927 Кбит/сек
Альбом                                   : Герой асфальта: 20 Лет (Live)
Альбом/Исполнитель                       : Ария
Часть/Положение                          : 1
Часть/Всего                              : 2
Трек                                     : Интро
Трек/Положение                           : 1
Трек/Всего                               : 9
Исполнитель                              : Ария
Жанр                                     : Heavy Metal
Дата записи                              : 2008
Дата кодирования                         : UTC 1993-02-15 02:05:03
Дата пометки                             : UTC 2014-05-28 09:22:51
Программа кодирования                    : X Lossless Decoder 20140504, QuickTime 7.7.1
Обложка                                  : Yes
Примечание                               : ExactAudioCopy v0.99pb4
iTunes_CDDB_1                            : 6F0B8209+221104+9+150+5331+27011+55039+82043+108738+134867+157676+182939
iTunes_CDDB_TrackNumber                  : 1

Аудио
Идентификатор                            : 1
Формат                                   : ALAC
Идентификатор кодека                     : alac
Идентификатор кодека/Информация          : Apple Lossless Audio Codec
Продолжительность                        : 1 м. 9 с.
Duration_LastFrame                       : -23 мс.
Вид битрейта                             : Переменный
Битрейт                                  : 860 Кбит/сек
Каналы                                   : 2 канала
Частота                                  : 44,1 КГц
Битовая глубина                          : 16 бит
Размер потока                            : 7,09 Мбайт (93%)
Язык                                     : English
Дата кодирования                         : UTC 1993-02-15 02:05:03
Дата пометки                             : UTC 2014-05-28 09:22:51

Общее
Полное имя                               : /Users/Denis/Library/Containers/net.mediaarea.mediainfo.mac/Data/Music/iTunes/iTunes Media/Music/Ария/Герой асфальта_ 20 Лет (Live)/1-02 Последний закат.m4a
Формат                                   : MPEG-4
Профиль формата                          : Apple audio with iTunes info
Идентификатор кодека                     : M4A
Размер файла                             : 36,1 Мбайт
Продолжительность                        : 4 м. 49 с.
Режим общего битрейта                    : Переменный
Общий поток                              : 1049 Кбит/сек
Альбом                                   : Герой асфальта: 20 Лет (Live)
Альбом/Исполнитель                       : Ария
Часть/Положение                          : 1
Часть/Всего                              : 2
Трек                                     : Последний закат
Трек/Положение                           : 2
Трек/Всего                               : 9
Исполнитель                              : Ария
Жанр                                     : Heavy Metal
Дата записи                              : 2008
Дата кодирования                         : UTC 2002-09-11 08:09:51
Дата пометки                             : UTC 2014-05-28 09:22:51
Программа кодирования                    : X Lossless Decoder 20140504, QuickTime 7.7.1
Обложка                                  : Yes
Примечание                               : ExactAudioCopy v0.99pb4
iTunes_CDDB_1                            : 6F0B8209+221104+9+150+5331+27011+55039+82043+108738+134867+157676+182939
iTunes_CDDB_TrackNumber                  : 2

Аудио
Идентификатор                            : 1
Формат                                   : ALAC
Идентификатор кодека                     : alac
Идентификатор кодека/Информация          : Apple Lossless Audio Codec
Продолжительность                        : 4 м. 49 с.
Duration_LastFrame                       : -68 мс.
Вид битрейта                             : Переменный
Битрейт                                  : 1033 Кбит/сек
Каналы                                   : 2 канала
Частота                                  : 44,1 КГц
Битовая глубина                          : 16 бит
Размер потока                            : 35,6 Мбайт (98%)
Язык                                     : English
Дата кодирования                         : UTC 2002-09-11 08:09:51
Дата пометки                             : UTC 2014-05-28 09:22:51

Общее
Полное имя                               : /Users/Denis/Library/Containers/net.mediaarea.mediainfo.mac/Data/Music/iTunes/iTunes Media/Music/Ария/Герой асфальта_ 20 Лет (Live)/1-03 Раскачаем этот мир.m4a
Формат                                   : MPEG-4
Профиль формата                          : Apple audio with iTunes info
Идентификатор кодека                     : M4A
Размер файла                             : 47,4 Мбайт
Продолжительность                        : 6 м. 13 с.
Режим общего битрейта                    : Переменный
Общий поток                              : 1063 Кбит/сек
Альбом                                   : Герой асфальта: 20 Лет (Live)
Альбом/Исполнитель                       : Ария
Часть/Положение                          : 1
Часть/Всего                              : 2
Трек                                     : Раскачаем этот мир
Трек/Положение                           : 3
Трек/Всего                               : 9
Исполнитель                              : Ария
Жанр                                     : Heavy Metal
Дата записи                              : 2008
Дата кодирования                         : UTC 2009-01-27 12:13:03
Дата пометки                             : UTC 2014-05-28 09:22:51
Программа кодирования                    : X Lossless Decoder 20140504, QuickTime 7.7.1
Обложка                                  : Yes
Примечание                               : ExactAudioCopy v0.99pb4
iTunes_CDDB_1                            : 6F0B8209+221104+9+150+5331+27011+55039+82043+108738+134867+157676+182939
iTunes_CDDB_TrackNumber                  : 3

Аудио
Идентификатор                            : 1
Формат                                   : ALAC
Идентификатор кодека                     : alac
Идентификатор кодека/Информация          : Apple Lossless Audio Codec
Продолжительность                        : 6 м. 13 с.
Duration_LastFrame                       : -42 мс.
Вид битрейта                             : Переменный
Битрейт                                  : 1050 Кбит/сек
Каналы                                   : 2 канала
Частота                                  : 44,1 КГц
Битовая глубина                          : 16 бит
Размер потока                            : 46,8 Мбайт (99%)
Язык                                     : English
Дата кодирования                         : UTC 2009-01-27 12:13:03
Дата пометки                             : UTC 2014-05-28 09:22:51

Общее
Полное имя                               : /Users/Denis/Library/Containers/net.mediaarea.mediainfo.mac/Data/Music/iTunes/iTunes Media/Music/Ария/Герой асфальта_ 20 Лет (Live)/1-04 Колизей.m4a
Формат                                   : MPEG-4
Профиль формата                          : Apple audio with iTunes info
Идентификатор кодека                     : M4A
Размер файла                             : 44,9 Мбайт
Продолжительность                        : 6 м. 0 с.
Режим общего битрейта                    : Переменный
Общий поток                              : 1047 Кбит/сек
Альбом                                   : Герой асфальта: 20 Лет (Live)
Альбом/Исполнитель                       : Ария
Часть/Положение                          : 1
Часть/Всего                              : 2
Трек                                     : Колизей
Трек/Положение                           : 4
Трек/Всего                               : 9
Исполнитель                              : Ария
Жанр                                     : Heavy Metal
Дата записи                              : 2008
Дата кодирования                         : UTC 2018-08-23 18:17:51
Дата пометки                             : UTC 2014-05-28 09:22:51
Программа кодирования                    : X Lossless Decoder 20140504, QuickTime 7.7.1
Обложка                                  : Yes
Примечание                               : ExactAudioCopy v0.99pb4
iTunes_CDDB_1                            : 6F0B8209+221104+9+150+5331+27011+55039+82043+108738+134867+157676+182939
iTunes_CDDB_TrackNumber                  : 4

Аудио
Идентификатор                            : 1
Формат                                   : ALAC
Идентификатор кодека                     : alac
Идентификатор кодека/Информация          : Apple Lossless Audio Codec
Продолжительность                        : 6 м. 0 с.
Duration_LastFrame                       : -42 мс.
Вид битрейта                             : Переменный
Битрейт                                  : 1034 Кбит/сек
Каналы                                   : 2 канала
Частота                                  : 44,1 КГц
Битовая глубина                          : 16 бит
Размер потока                            : 44,4 Мбайт (99%)
Язык                                     : English
Дата кодирования                         : UTC 2018-08-23 18:17:51
Дата пометки                             : UTC 2014-05-28 09:22:51

Общее
Полное имя                               : /Users/Denis/Library/Containers/net.mediaarea.mediainfo.mac/Data/Music/iTunes/iTunes Media/Music/Ария/Герой асфальта_ 20 Лет (Live)/1-05 Меченый злом.m4a
Формат                                   : MPEG-4
Профиль формата                          : Apple audio with iTunes info
Идентификатор кодека                     : M4A
Размер файла                             : 44,2 Мбайт
Продолжительность                        : 5 м. 55 с.
Режим общего битрейта                    : Переменный
Общий поток                              : 1042 Кбит/сек
Альбом                                   : Герой асфальта: 20 Лет (Live)
Альбом/Исполнитель                       : Ария
Часть/Положение                          : 1
Часть/Всего                              : 2
Трек                                     : Меченый злом
Трек/Положение                           : 5
Трек/Всего                               : 9
Исполнитель                              : Ария
Жанр                                     : Heavy Metal
Дата записи                              : 2008
Дата кодирования                         : UTC 2025-01-08 22:21:03
Дата пометки                             : UTC 2014-05-28 09:22:51
Программа кодирования                    : X Lossless Decoder 20140504, QuickTime 7.7.1
Обложка                                  : Yes
Примечание                               : ExactAudioCopy v0.99pb4
iTunes_CDDB_1                            : 6F0B8209+221104+9+150+5331+27011+55039+82043+108738+134867+157676+182939
iTunes_CDDB_TrackNumber                  : 5

Аудио
Идентификатор                            : 1
Формат                                   : ALAC
Идентификатор кодека                     : alac
Идентификатор кодека/Информация          : Apple Lossless Audio Codec
Продолжительность                        : 5 м. 55 с.
Duration_LastFrame                       : -75 мс.
Вид битрейта                             : Переменный
Битрейт                                  : 1028 Кбит/сек
Каналы                                   : 2 канала
Частота                                  : 44,1 КГц
Битовая глубина                          : 16 бит
Размер потока                            : 43,6 Мбайт (99%)
Язык                                     : English
Дата кодирования                         : UTC 2025-01-08 22:21:03
Дата пометки                             : UTC 2014-05-28 09:22:51

Общее
Полное имя                               : /Users/Denis/Library/Containers/net.mediaarea.mediainfo.mac/Data/Music/iTunes/iTunes Media/Music/Ария/Герой асфальта_ 20 Лет (Live)/1-06 Крещение огнём.m4a
Формат                                   : MPEG-4
Профиль формата                          : Apple audio with iTunes info
Идентификатор кодека                     : M4A
Размер файла                             : 43,0 Мбайт
Продолжительность                        : 5 м. 48 с.
Режим общего битрейта                    : Переменный
Общий поток                              : 1036 Кбит/сек
Альбом                                   : Герой асфальта: 20 Лет (Live)
Альбом/Исполнитель                       : Ария
Часть/Положение                          : 1
Часть/Всего                              : 2
Трек                                     : Крещение огнём
Трек/Положение                           : 6
Трек/Всего                               : 9
Исполнитель                              : Ария
Жанр                                     : Heavy Metal
Дата записи                              : 2008
Дата кодирования                         : UTC 2033-07-12 19:45:19
Дата пометки                             : UTC 2014-05-28 09:22:51
Программа кодирования                    : X Lossless Decoder 20140504, QuickTime 7.7.1
Обложка                                  : Yes
Примечание                               : ExactAudioCopy v0.99pb4
iTunes_CDDB_1                            : 6F0B8209+221104+9+150+5331+27011+55039+82043+108738+134867+157676+182939
iTunes_CDDB_TrackNumber                  : 6

Аудио
Идентификатор                            : 1
Формат                                   : ALAC
Идентификатор кодека                     : alac
Идентификатор кодека/Информация          : Apple Lossless Audio Codec
Продолжительность                        : 5 м. 48 с.
Duration_LastFrame                       : -6 мс.
Вид битрейта                             : Переменный
Битрейт                                  : 1023 Кбит/сек
Каналы                                   : 2 канала
Частота                                  : 44,1 КГц
Битовая глубина                          : 16 бит
Размер потока                            : 42,5 Мбайт (99%)
Язык                                     : English
Дата кодирования                         : UTC 2033-07-12 19:45:19
Дата пометки                             : UTC 2014-05-28 09:22:51

Общее
Полное имя                               : /Users/Denis/Library/Containers/net.mediaarea.mediainfo.mac/Data/Music/iTunes/iTunes Media/Music/Ария/Герой асфальта_ 20 Лет (Live)/1-07 Антихрист.m4a
Формат                                   : MPEG-4
Профиль формата                          : Apple audio with iTunes info
Идентификатор кодека                     : M4A
Размер файла                             : 37,7 Мбайт
Продолжительность                        : 5 м. 4 с.
Режим общего битрейта                    : Переменный
Общий поток                              : 1041 Кбит/сек
Альбом                                   : Герой асфальта: 20 Лет (Live)
Альбом/Исполнитель                       : Ария
Часть/Положение                          : 1
Часть/Всего                              : 2
Трек                                     : Антихрист
Трек/Положение                           : 7
Трек/Всего                               : 9
Исполнитель                              : Ария
Жанр                                     : Heavy Metal
Дата записи                              : 2008
Дата кодирования                         : UTC 2036-09-19 21:46:55
Дата пометки                             : UTC 2014-05-28 09:22:52
Программа кодирования                    : X Lossless Decoder 20140504, QuickTime 7.7.1
Обложка                                  : Yes
Примечание                               : ExactAudioCopy v0.99pb4
iTunes_CDDB_1                            : 6F0B8209+221104+9+150+5331+27011+55039+82043+108738+134867+157676+182939
iTunes_CDDB_TrackNumber                  : 7

Аудио
Идентификатор                            : 1
Формат                                   : ALAC
Идентификатор кодека                     : alac
Идентификатор кодека/Информация          : Apple Lossless Audio Codec
Продолжительность                        : 5 м. 4 с.
Duration_LastFrame                       : -61 мс.
Вид битрейта                             : Переменный
Битрейт                                  : 1025 Кбит/сек
Каналы                                   : 2 канала
Частота                                  : 44,1 КГц
Битовая глубина                          : 16 бит
Размер потока                            : 37,2 Мбайт (99%)
Язык                                     : English
Дата кодирования                         : UTC 2036-09-19 21:46:55
Дата пометки                             : UTC 2014-05-28 09:22:52

Общее
Полное имя                               : /Users/Denis/Library/Containers/net.mediaarea.mediainfo.mac/Data/Music/iTunes/iTunes Media/Music/Ария/Герой асфальта_ 20 Лет (Live)/1-08 Осколок льда.m4a
Формат                                   : MPEG-4
Профиль формата                          : Apple audio with iTunes info
Идентификатор кодека                     : M4A
Размер файла                             : 40,4 Мбайт
Продолжительность                        : 5 м. 36 с.
Режим общего битрейта                    : Переменный
Общий поток                              : 1006 Кбит/сек
Альбом                                   : Герой асфальта: 20 Лет (Live)
Альбом/Исполнитель                       : Ария
Часть/Положение                          : 1
Часть/Всего                              : 2
Трек                                     : Осколок льда
Трек/Положение                           : 8
Трек/Всего                               : 9
Исполнитель                              : Ария
Жанр                                     : Heavy Metal
Дата записи                              : 2008
Дата пометки                             : UTC 2014-05-28 09:22:52
Программа кодирования                    : X Lossless Decoder 20140504, QuickTime 7.7.1
Обложка                                  : Yes
Примечание                               : ExactAudioCopy v0.99pb4
iTunes_CDDB_1                            : 6F0B8209+221104+9+150+5331+27011+55039+82043+108738+134867+157676+182939
iTunes_CDDB_TrackNumber                  : 8

Аудио
Идентификатор                            : 1
Формат                                   : ALAC
Идентификатор кодека                     : alac
Идентификатор кодека/Информация          : Apple Lossless Audio Codec
Продолжительность                        : 5 м. 36 с.
Duration_LastFrame                       : -35 мс.
Вид битрейта                             : Переменный
Битрейт                                  : 992 Кбит/сек
Каналы                                   : 2 канала
Частота                                  : 44,1 КГц
Битовая глубина                          : 16 бит
Размер потока                            : 39,8 Мбайт (99%)
Язык                                     : English
Дата пометки                             : UTC 2014-05-28 09:22:52

Общее
Полное имя                               : /Users/Denis/Library/Containers/net.mediaarea.mediainfo.mac/Data/Music/iTunes/iTunes Media/Music/Ария/Герой асфальта_ 20 Лет (Live)/1-09 Кровь королей.m4a
Формат                                   : MPEG-4
Профиль формата                          : Apple audio with iTunes info
Идентификатор кодека                     : M4A
Размер файла                             : 61,5 Мбайт
Продолжительность                        : 8 м. 28 с.
Режим общего битрейта                    : Переменный
Общий поток                              : 1014 Кбит/сек
Альбом                                   : Герой асфальта: 20 Лет (Live)
Альбом/Исполнитель                       : Ария
Часть/Положение                          : 1
Часть/Всего                              : 2
Трек                                     : Кровь королей
Трек/Положение                           : 9
Трек/Всего                               : 9
Исполнитель                              : Ария
Жанр                                     : Heavy Metal
Дата записи                              : 2008
Дата пометки                             : UTC 2014-05-28 09:22:52
Программа кодирования                    : X Lossless Decoder 20140504, QuickTime 7.7.1
Обложка                                  : Yes
Примечание                               : ExactAudioCopy v0.99pb4
iTunes_CDDB_1                            : 6F0B8209+221104+9+150+5331+27011+55039+82043+108738+134867+157676+182939
iTunes_CDDB_TrackNumber                  : 9

Аудио
Идентификатор                            : 1
Формат                                   : ALAC
Идентификатор кодека                     : alac
Идентификатор кодека/Информация          : Apple Lossless Audio Codec
Продолжительность                        : 8 м. 28 с.
Duration_LastFrame                       : -22 мс.
Вид битрейта                             : Переменный
Битрейт                                  : 1004 Кбит/сек
Каналы                                   : 2 канала
Частота                                  : 44,1 КГц
Битовая глубина                          : 16 бит
Размер потока                            : 60,9 Мбайт (99%)
Язык                                     : English
Дата пометки                             : UTC 2014-05-28 09:22:52

Общее
Полное имя                               : /Users/Denis/Library/Containers/net.mediaarea.mediainfo.mac/Data/Music/iTunes/iTunes Media/Music/Ария/Герой асфальта_ 20 Лет (Live)/2-01 На службе силы зла.m4a
Формат                                   : MPEG-4
Профиль формата                          : Apple audio with iTunes info
Идентификатор кодека                     : M4A
Размер файла                             : 49,9 Мбайт
Продолжительность                        : 6 м. 45 с.
Режим общего битрейта                    : Переменный
Общий поток                              : 1033 Кбит/сек
Альбом                                   : Герой асфальта: 20 Лет (Live)
Альбом/Исполнитель                       : Ария
Часть/Положение                          : 2
Часть/Всего                              : 2
Трек                                     : На службе силы зла
Трек/Положение                           : 1
Трек/Всего                               : 8
Исполнитель                              : Ария
Жанр                                     : Heavy Metal
Дата записи                              : 2008
Дата кодирования                         : UTC 1973-12-30 08:56:47
Дата пометки                             : UTC 2014-05-28 09:22:52
Программа кодирования                    : X Lossless Decoder 20140504, QuickTime 7.7.1
Обложка                                  : Yes
Примечание                               : ExactAudioCopy v0.99pb4
iTunes_CDDB_1                            : 680CFF08+249704+8+150+30565+53131+80823+102914+130863+170461+210715
iTunes_CDDB_TrackNumber                  : 1

Аудио
Идентификатор                            : 1
Формат                                   : ALAC
Идентификатор кодека                     : alac
Идентификатор кодека/Информация          : Apple Lossless Audio Codec
Продолжительность                        : 6 м. 45 с.
Duration_LastFrame                       : -73 мс.
Вид битрейта                             : Переменный
Битрейт                                  : 1021 Кбит/сек
Каналы                                   : 2 канала
Частота                                  : 44,1 КГц
Битовая глубина                          : 16 бит
Размер потока                            : 49,4 Мбайт (99%)
Язык                                     : English
Дата кодирования                         : UTC 1973-12-30 08:56:47
Дата пометки                             : UTC 2014-05-28 09:22:52

Общее
Полное имя                               : /Users/Denis/Library/Containers/net.mediaarea.mediainfo.mac/Data/Music/iTunes/iTunes Media/Music/Ария/Герой асфальта_ 20 Лет (Live)/2-02 Герой асфальта.m4a
Формат                                   : MPEG-4
Профиль формата                          : Apple audio with iTunes info
Идентификатор кодека                     : M4A
Размер файла                             : 37,8 Мбайт
Продолжительность                        : 5 м. 0 с.
Режим общего битрейта                    : Переменный
Общий поток                              : 1054 Кбит/сек
Альбом                                   : Герой асфальта: 20 Лет (Live)
Альбом/Исполнитель                       : Ария
Часть/Положение                          : 2
Часть/Всего                              : 2
Трек                                     : Герой асфальта
Трек/Положение                           : 2
Трек/Всего                               : 8
Исполнитель                              : Ария
Жанр                                     : Heavy Metal
Дата записи                              : 2008
Дата пометки                             : UTC 2014-05-28 09:22:52
Программа кодирования                    : X Lossless Decoder 20140504, QuickTime 7.7.1
Обложка                                  : Yes
Примечание                               : ExactAudioCopy v0.99pb4
iTunes_CDDB_1                            : 680CFF08+249704+8+150+30565+53131+80823+102914+130863+170461+210715
iTunes_CDDB_TrackNumber                  : 2

Аудио
Идентификатор                            : 1
Формат                                   : ALAC
Идентификатор кодека                     : alac
Идентификатор кодека/Информация          : Apple Lossless Audio Codec
Продолжительность                        : 5 м. 0 с.
Duration_LastFrame                       : -51 мс.
Вид битрейта                             : Переменный
Битрейт                                  : 1038 Кбит/сек
Каналы                                   : 2 канала
Частота                                  : 44,1 КГц
Битовая глубина                          : 16 бит
Размер потока                            : 37,2 Мбайт (99%)
Язык                                     : English
Дата пометки                             : UTC 2014-05-28 09:22:52

Общее
Полное имя                               : /Users/Denis/Library/Containers/net.mediaarea.mediainfo.mac/Data/Music/iTunes/iTunes Media/Music/Ария/Герой асфальта_ 20 Лет (Live)/2-03 Мёртвая зона.m4a
Формат                                   : MPEG-4
Профиль формата                          : Apple audio with iTunes info
Идентификатор кодека                     : M4A
Размер файла                             : 45,5 Мбайт
Продолжительность                        : 6 м. 9 с.
Режим общего битрейта                    : Переменный
Общий поток                              : 1035 Кбит/сек
Альбом                                   : Герой асфальта: 20 Лет (Live)
Альбом/Исполнитель                       : Ария
Часть/Положение                          : 2
Часть/Всего                              : 2
Трек                                     : Мёртвая зона
Трек/Положение                           : 3
Трек/Всего                               : 8
Исполнитель                              : Ария
Жанр                                     : Heavy Metal
Дата записи                              : 2008
Дата кодирования                         : UTC 1997-12-02 12:08:47
Дата пометки                             : UTC 2014-05-28 09:22:52
Программа кодирования                    : X Lossless Decoder 20140504, QuickTime 7.7.1
Обложка                                  : Yes
Примечание                               : ExactAudioCopy v0.99pb4
iTunes_CDDB_1                            : 680CFF08+249704+8+150+30565+53131+80823+102914+130863+170461+210715
iTunes_CDDB_TrackNumber                  : 3

Аудио
Идентификатор                            : 1
Формат                                   : ALAC
Идентификатор кодека                     : alac
Идентификатор кодека/Информация          : Apple Lossless Audio Codec
Продолжительность                        : 6 м. 9 с.
Duration_LastFrame                       : -63 мс.
Вид битрейта                             : Переменный
Битрейт                                  : 1022 Кбит/сек
Каналы                                   : 2 канала
Частота                                  : 44,1 КГц
Битовая глубина                          : 16 бит
Размер потока                            : 45,0 Мбайт (99%)
Язык                                     : English
Дата кодирования                         : UTC 1997-12-02 12:08:47
Дата пометки                             : UTC 2014-05-28 09:22:52

Общее
Полное имя                               : /Users/Denis/Library/Containers/net.mediaarea.mediainfo.mac/Data/Music/iTunes/iTunes Media/Music/Ария/Герой асфальта_ 20 Лет (Live)/2-04 1100.m4a
Формат                                   : MPEG-4
Профиль формата                          : Apple audio with iTunes info
Идентификатор кодека                     : M4A
Размер файла                             : 36,7 Мбайт
Продолжительность                        : 4 м. 54 с.
Режим общего битрейта                    : Переменный
Общий поток                              : 1044 Кбит/сек
Альбом                                   : Герой асфальта: 20 Лет (Live)
Альбом/Исполнитель                       : Ария
Часть/Положение                          : 2
Часть/Всего                              : 2
Трек                                     : 1100
Трек/Положение                           : 4
Трек/Всего                               : 8
Исполнитель                              : Ария
Жанр                                     : Heavy Metal
Дата записи                              : 2008
Дата кодирования                         : UTC 1998-06-14 16:29:03
Дата пометки                             : UTC 2014-05-28 09:22:52
Программа кодирования                    : X Lossless Decoder 20140504, QuickTime 7.7.1
Обложка                                  : Yes
Примечание                               : ExactAudioCopy v0.99pb4
iTunes_CDDB_1                            : 680CFF08+249704+8+150+30565+53131+80823+102914+130863+170461+210715
iTunes_CDDB_TrackNumber                  : 4

Аудио
Идентификатор                            : 1
Формат                                   : ALAC
Идентификатор кодека                     : alac
Идентификатор кодека/Информация          : Apple Lossless Audio Codec
Продолжительность                        : 4 м. 54 с.
Duration_LastFrame                       : -68 мс.
Вид битрейта                             : Переменный
Битрейт                                  : 1028 Кбит/сек
Каналы                                   : 2 канала
Частота                                  : 44,1 КГц
Битовая глубина                          : 16 бит
Размер потока                            : 36,1 Мбайт (99%)
Язык                                     : English
Дата кодирования                         : UTC 1998-06-14 16:29:03
Дата пометки                             : UTC 2014-05-28 09:22:52

Общее
Полное имя                               : /Users/Denis/Library/Containers/net.mediaarea.mediainfo.mac/Data/Music/iTunes/iTunes Media/Music/Ария/Герой асфальта_ 20 Лет (Live)/2-05 Улица роз.m4a
Формат                                   : MPEG-4
Профиль формата                          : Apple audio with iTunes info
Идентификатор кодека                     : M4A
Размер файла                             : 45,2 Мбайт
Продолжительность                        : 6 м. 12 с.
Режим общего битрейта                    : Переменный
Общий поток                              : 1018 Кбит/сек
Альбом                                   : Герой асфальта: 20 Лет (Live)
Альбом/Исполнитель                       : Ария
Часть/Положение                          : 2
Часть/Всего                              : 2
Трек                                     : Улица роз
Трек/Положение                           : 5
Трек/Всего                               : 8
Исполнитель                              : Ария
Жанр                                     : Heavy Metal
Дата записи                              : 2008
Дата кодирования                         : UTC 2018-08-27 13:19:11
Дата пометки                             : UTC 2014-05-28 09:22:52
Программа кодирования                    : X Lossless Decoder 20140504, QuickTime 7.7.1
Обложка                                  : Yes
Примечание                               : ExactAudioCopy v0.99pb4
iTunes_CDDB_1                            : 680CFF08+249704+8+150+30565+53131+80823+102914+130863+170461+210715
iTunes_CDDB_TrackNumber                  : 5

Аудио
Идентификатор                            : 1
Формат                                   : ALAC
Идентификатор кодека                     : alac
Идентификатор кодека/Информация          : Apple Lossless Audio Codec
Продолжительность                        : 6 м. 12 с.
Duration_LastFrame                       : -73 мс.
Вид битрейта                             : Переменный
Битрейт                                  : 1005 Кбит/сек
Каналы                                   : 2 канала
Частота                                  : 44,1 КГц
Битовая глубина                          : 16 бит
Размер потока                            : 44,7 Мбайт (99%)
Язык                                     : English
Дата кодирования                         : UTC 2018-08-27 13:19:11
Дата пометки                             : UTC 2014-05-28 09:22:52

Общее
Полное имя                               : /Users/Denis/Library/Containers/net.mediaarea.mediainfo.mac/Data/Music/iTunes/iTunes Media/Music/Ария/Герой асфальта_ 20 Лет (Live)/2-07 Игра с огнём.m4a
Формат                                   : MPEG-4
Профиль формата                          : Apple audio with iTunes info
Идентификатор кодека                     : M4A
Размер файла                             : 65,4 Мбайт
Продолжительность                        : 8 м. 56 с.
Режим общего битрейта                    : Переменный
Общий поток                              : 1022 Кбит/сек
Альбом                                   : Герой асфальта: 20 Лет (Live)
Альбом/Исполнитель                       : Ария
Часть/Положение                          : 2
Часть/Всего                              : 2
Трек                                     : Игра с огнём
Трек/Положение                           : 7
Трек/Всего                               : 8
Исполнитель                              : Ария
Жанр                                     : Heavy Metal
Дата записи                              : 2008
Дата пометки                             : UTC 2014-05-28 09:22:52
Программа кодирования                    : X Lossless Decoder 20140504, QuickTime 7.7.1
Обложка                                  : Yes
Примечание                               : ExactAudioCopy v0.99pb4
iTunes_CDDB_1                            : 680CFF08+249704+8+150+30565+53131+80823+102914+130863+170461+210715
iTunes_CDDB_TrackNumber                  : 7

Аудио
Идентификатор                            : 1
Формат                                   : ALAC
Идентификатор кодека                     : alac
Идентификатор кодека/Информация          : Apple Lossless Audio Codec
Продолжительность                        : 8 м. 56 с.
Duration_LastFrame                       : -32 мс.
Вид битрейта                             : Переменный
Битрейт                                  : 1013 Кбит/сек
Каналы                                   : 2 канала
Частота                                  : 44,1 КГц
Битовая глубина                          : 16 бит
Размер потока                            : 64,8 Мбайт (99%)
Язык                                     : English
Дата пометки                             : UTC 2014-05-28 09:22:52

Общее
Полное имя                               : /Users/Denis/Library/Containers/net.mediaarea.mediainfo.mac/Data/Music/iTunes/iTunes Media/Music/Ария/Герой асфальта_ 20 Лет (Live)/2-08 Штиль.m4a
Формат                                   : MPEG-4
Профиль формата                          : Apple audio with iTunes info
Идентификатор кодека                     : M4A
Размер файла                             : 57,9 Мбайт
Продолжительность                        : 8 м. 39 с.
Режим общего битрейта                    : Переменный
Общий поток                              : 935 Кбит/сек
Альбом                                   : Герой асфальта: 20 Лет (Live)
Альбом/Исполнитель                       : Ария
Часть/Положение                          : 2
Часть/Всего                              : 2
Трек                                     : Штиль
Трек/Положение                           : 8
Трек/Всего                               : 8
Исполнитель                              : Ария
Жанр                                     : Heavy Metal
Дата записи                              : 2008
Дата пометки                             : UTC 2014-05-28 09:22:52
Программа кодирования                    : X Lossless Decoder 20140504, QuickTime 7.7.1
Обложка                                  : Yes
Примечание                               : ExactAudioCopy v0.99pb4
iTunes_CDDB_1                            : 680CFF08+249704+8+150+30565+53131+80823+102914+130863+170461+210715
iTunes_CDDB_TrackNumber                  : 8

Аудио
Идентификатор                            : 1
Формат                                   : ALAC
Идентификатор кодека                     : alac
Идентификатор кодека/Информация          : Apple Lossless Audio Codec
Продолжительность                        : 8 м. 39 с.
Duration_LastFrame                       : -88 мс.
Вид битрейта                             : Переменный
Битрейт                                  : 925 Кбит/сек
Каналы                                   : 2 канала
Частота                                  : 44,1 КГц
Битовая глубина                          : 16 бит
Размер потока                            : 57,4 Мбайт (99%)
Язык                                     : English
Дата пометки                             : UTC 2014-05-28 09:22:52
Код:

-----------------------

DON'T MODIFY THIS FILE

-----------------------

PERFORMER: auCDtect Task Manager, ver. 1.6.0 RC1 build 1.6.0.1
Copyright (c) 2008-2010 y-soft. All rights reserved
http://y-soft.org

ANALYZER: auCDtect: CD records authenticity detector, version 0.8.2
Copyright (c) 2004 Oleg Berngardt. All rights reserved.
Copyright (c) 2004 Alexander Djourik. All rights reserved.

FILE: 2-08 Штиль.m4a
  Size: 60738499 Hash: 257A34854DF432258B9FA761FA405821 Accuracy: -m0
  Conclusion: CDDA 100%
  Signature: 4774CEAE488F8AF119A39B39B255A8E4129CC854
FILE: 2-07 Игра с огнём.m4a
  Size: 68557843 Hash: E0FAC3AD2E7408192071D907309174A0 Accuracy: -m0
  Conclusion: CDDA 100%
  Signature: 4B4E7B888E89BB4E54C464682C91DA85B7A8D04C
FILE: 2-06 Баллада о древнерусском воине.m4a
  Size: 68426400 Hash: 2F9916074709BC99A9C302462F6A1A93 Accuracy: -m0
  Conclusion: CDDA 100%
  Signature: E5A86765F9667E2A992758A81842AF7132A8CEDA
FILE: 2-05 Улица роз.m4a
  Size: 47439697 Hash: F89D47D267D570D76DFC1EFCAEC3D717 Accuracy: -m8
  Conclusion: CDDA 100%
  Signature: 8A3023088AC44F19766941B67E730CC25D94A39E
FILE: 2-04 1100.m4a
  Size: 38449510 Hash: FCF0F07C0884D096E683BF3FD1254AD8 Accuracy: -m0
  Conclusion: CDDA 100%
  Signature: E28FB187514397ED81107141E28B82F5EBD8333C
FILE: 2-03 Мёртвая зона.m4a
  Size: 47749837 Hash: 58F6DE6D0D9FF98578FD59B0B5B6790C Accuracy: -m0
  Conclusion: CDDA 100%
  Signature: F89D2DA494ED72A00752DC5F1A3DBC92A1A0582E
FILE: 2-02 Герой асфальта.m4a
  Size: 39628911 Hash: 07E883136B5DF21ED3AC19EAA05B779D Accuracy: -m0
  Conclusion: CDDA 100%
  Signature: D5D28F4ED0912ED9A1F8DCC9624D53587E545F1B
FILE: 2-01 На службе силы зла.m4a
  Size: 52357908 Hash: 37DEEC510468F37485E43380B740418D Accuracy: -m0
  Conclusion: CDDA 100%
  Signature: 0ADCB568CE5A1567AF67B005D98DB82AC9F861A0
FILE: 1-09 Кровь королей.m4a
  Size: 64496516 Hash: 9752FA8B773AD83CF5C824CC4CD881E2 Accuracy: -m0
  Conclusion: CDDA 100%
  Signature: 4EB1E5CF0FE46D5AE21716B2BCE8C7061E731719
FILE: 1-08 Осколок льда.m4a
  Size: 42370654 Hash: 7620B23F866D6613E1E296C4126E9A4B Accuracy: -m0
  Conclusion: CDDA 100%
  Signature: 0DBF36049CFDC9CFBB8F2C7AE019851F192D5B11
FILE: 1-07 Антихрист.m4a
  Size: 39560586 Hash: D585CFC1E61CAB5A4F3EFF84B3D599A6 Accuracy: -m0
  Conclusion: CDDA 100%
  Signature: 7123FA1A17D4BFD24D133E5159C43E0FDEC6EF88
FILE: 1-06 Крещение огнём.m4a
  Size: 45129921 Hash: F050C6B338B3E400AECC06B923CD5BCB Accuracy: -m0
  Conclusion: CDDA 100%
  Signature: 830FACA23234677450E6F400033A57931B9BF61C
FILE: 1-05 Меченый злом.m4a
  Size: 46363166 Hash: 4F1803FD703887BEF755B5A4F1896188 Accuracy: -m0
  Conclusion: CDDA 100%
  Signature: 689A2845C97CDFCE5FF724F0E431006A9322F87F
FILE: 1-04 Колизей.m4a
  Size: 47129114 Hash: B9A96EBC5C5FFE5135C2DA67E89CA6E6 Accuracy: -m0
  Conclusion: CDDA 100%
  Signature: D7C3D8A66972C988024E40DAA808F2CE3EF1A053
FILE: 1-03 Раскачаем этот мир.m4a
  Size: 49666617 Hash: 37F9D0177E58CA2A5696F350A75E56E1 Accuracy: -m0
  Conclusion: CDDA 100%
  Signature: 1E9D307D194C0F1F426B8DF6D17EF3B7A3086E27
FILE: 1-02 Последний закат.m4a
  Size: 37896587 Hash: 357C8AF230C2EBF83C4D1D156ABE93C8 Accuracy: -m0
  Conclusion: CDDA 100%
  Signature: CDCF69F81D07734C249E96A6CED7D3B67F2E2D3F
FILE: 1-01 Интро.m4a
  Size: 8008178 Hash: 43EA38206F5CB081F46CAF0D247F7260 Accuracy: -m0
  Conclusion: CDDA 100%
  Signature: 18F33DCB7BF7D924938400A7DA492C0E2A0CF7C7
Концертные альбомы в ALAC:
Сделано в России (1998 год)
В поисках новой жертвы (2003 год)
Живой огонь (2004 год)
Пляска ада (2007 год)
Герой асфальта : 20 лет (2008 год)
Эхо судного дня (Последний концерт А. Беркута - неофициальное издание) - Bootleg (2011 год)
В желтом круге арены (2012 год)


Время раздачи: с 20:00 до 03:00 постоянно / часто 24/7 - До первых 5 скачавших
[NNM-Club.me]_Ariya (2008) Geroi&#774; asfal'ta XX (Live).torrent
 Торрент: Платиновая раздача  Зарегистрирован
 
Скачать


Примагнититься
 Зарегистрирован:   28 Май 2014 17:25:13
 Размер:   767 MB  (
 Рейтинг:   3.9 (Голосов: 11)
 Поблагодарили:   25
 Проверка:   Оформление проверено модератором 28 Май 2014 19:40:01
Как cкачать  ·  Как раздать  ·  Правильно оформить  ·  Поднять ратио!  
_Abbat_
Стаж: 11 лет 1 мес.
Сообщений: 18
Ratio: 89.583
100%
russia.gif
Cecidit
Здравствуй!
Студийный альбом "Герой асфальта" есть в ALAC?
Показать сообщения:   
Начать новую тему   Ответить на тему    Торрент-трекер NNM-Club -> Аудио и Видео -> Музыка Lossless (ALAC) Часовой пояс: GMT + 3
Страница 1 из 1