Классический форум-трекер
canvas not supported
Нас вместе: 4 177 895

Ария - Живой огонь (Live) (2004) [ALAC|Tracks]<Heavy Metal>


 
 
RSS
Начать новую тему   Ответить на тему    Торрент-трекер NNM-Club -> Аудио и Видео -> Музыка Lossless (ALAC)
Автор Сообщение
Cecidit ®
Стаж: 7 лет 11 мес.
Сообщений: 129
Ratio: 39.772
Поблагодарили: 8820
100%
Откуда: Москва, МО Щелково
russia.gif
Ария - Живой огонь (Live) (2004)
Год: 2004
Жанр: Heavy Metal
Продолжительность: 02:01:59

Кодек: ALAC
Битрейт: Lossless
Тип раздачи: Tracks
Обложки: Вшиты
Кодирование: XLD + QuickTime + iTunes

«Живой огонь» — третий концертный альбом группы Ария, выпущенный в 2004 году. Альбом состоит из 20 треков, разбитых на 2 диска. Запись производилась в Москве, в ДС Лужники, 18 ноября 2003 года.

Состав:
Артур Беркут — вокал
Виталий Дубинин — бас-гитара, вокал
Владимир Холстинин — гитара
Сергей Попов — гитара
Максим Удалов — барабаны

Трeклист:
Продoлжительность: 00:58:00
Треклист:

01. Интро
02. Патриот
03. Битва
04. Раскачаем Этот мир
05. Колизей
06. Обман
07. Крещение Огнём
08. Бал У Князя Тьмы
09. Антихрист
10. Кровь За Кровь
11. Ангельская Пыль
Продoлжительность: 01:03:59
Треклист:

01. Палач
02. Бой Продолжается
03. Там Высоко...
04. Штиль (6:19)
05. Герой Асфальта
06. Осколок Льда
07. Баллада О Древнерусском Воине
08. Небо Тебя Найдёт
09. Улица Роз
Mediainfo, отчет и спектограммы
Код:

Общее
Полное имя                               : /Users/Denis/Library/Containers/net.mediaarea.mediainfo.mac/Data/Music/iTunes/iTunes Media/Music/Ария/Живой огонь (Live)/1-01 Интро.m4a
Формат                                   : MPEG-4
Профиль формата                          : Apple audio with iTunes info
Идентификатор кодека                     : M4A
Размер файла                             : 11,2 Мбайт
Продолжительность                        : 1 м. 42 с.
Режим общего битрейта                    : Переменный
Общий поток                              : 918 Кбит/сек
Альбом                                   : Живой огонь (Live)
Альбом/Исполнитель                       : Ария
Часть/Положение                          : 1
Часть/Всего                              : 2
Трек                                     : Интро
Трек/Положение                           : 1
Трек/Всего                               : 11
Исполнитель                              : Ария
Жанр                                     : Heavy Metal
Дата записи                              : 2004
Дата кодирования                         : UTC 2000-10-27 03:49:35
Дата пометки                             : UTC 2014-05-28 09:19:42
Программа кодирования                    : X Lossless Decoder 20140504, QuickTime 7.7.1
Обложка                                  : Yes
Примечание                               : ExactAudioCopy v0.99pb4
iTunes_CDDB_1                            : 8E0D980B+261197+11+150+7835+26218+49975+76283+104359+127247+152873+178586+200795+234765
iTunes_CDDB_TrackNumber                  : 1

Аудио
Идентификатор                            : 1
Формат                                   : ALAC
Идентификатор кодека                     : alac
Идентификатор кодека/Информация          : Apple Lossless Audio Codec
Продолжительность                        : 1 м. 42 с.
Duration_LastFrame                       : -73 мс.
Вид битрейта                             : Переменный
Битрейт                                  : 876 Кбит/сек
Каналы                                   : 2 канала
Частота                                  : 44,1 КГц
Битовая глубина                          : 16 бит
Размер потока                            : 10,7 Мбайт (96%)
Язык                                     : English
Дата кодирования                         : UTC 2000-10-27 03:49:35
Дата пометки                             : UTC 2014-05-28 09:19:42

Общее
Полное имя                               : /Users/Denis/Library/Containers/net.mediaarea.mediainfo.mac/Data/Music/iTunes/iTunes Media/Music/Ария/Живой огонь (Live)/1-02 Патриот.m4a
Формат                                   : MPEG-4
Профиль формата                          : Apple audio with iTunes info
Идентификатор кодека                     : M4A
Размер файла                             : 31,7 Мбайт
Продолжительность                        : 4 м. 5 с.
Режим общего битрейта                    : Переменный
Общий поток                              : 1087 Кбит/сек
Альбом                                   : Живой огонь (Live)
Альбом/Исполнитель                       : Ария
Часть/Положение                          : 1
Часть/Всего                              : 2
Трек                                     : Патриот
Трек/Положение                           : 2
Трек/Всего                               : 11
Исполнитель                              : Ария
Жанр                                     : Heavy Metal
Дата записи                              : 2004
Дата кодирования                         : UTC 2006-09-02 03:32:31
Дата пометки                             : UTC 2014-05-28 09:19:43
Программа кодирования                    : X Lossless Decoder 20140504, QuickTime 7.7.1
Обложка                                  : Yes
Примечание                               : ExactAudioCopy v0.99pb4
iTunes_CDDB_1                            : 8E0D980B+261197+11+150+7835+26218+49975+76283+104359+127247+152873+178586+200795+234765
iTunes_CDDB_TrackNumber                  : 2

Аудио
Идентификатор                            : 1
Формат                                   : ALAC
Идентификатор кодека                     : alac
Идентификатор кодека/Информация          : Apple Lossless Audio Codec
Продолжительность                        : 4 м. 5 с.
Duration_LastFrame                       : -3 мс.
Вид битрейта                             : Переменный
Битрейт                                  : 1070 Кбит/сек
Каналы                                   : 2 канала
Частота                                  : 44,1 КГц
Битовая глубина                          : 16 бит
Размер потока                            : 31,3 Мбайт (98%)
Язык                                     : English
Дата кодирования                         : UTC 2006-09-02 03:32:31
Дата пометки                             : UTC 2014-05-28 09:19:43

Общее
Полное имя                               : /Users/Denis/Library/Containers/net.mediaarea.mediainfo.mac/Data/Music/iTunes/iTunes Media/Music/Ария/Живой огонь (Live)/1-03 Битва.m4a
Формат                                   : MPEG-4
Профиль формата                          : Apple audio with iTunes info
Идентификатор кодека                     : M4A
Размер файла                             : 41,0 Мбайт
Продолжительность                        : 5 м. 16 с.
Режим общего битрейта                    : Переменный
Общий поток                              : 1086 Кбит/сек
Альбом                                   : Живой огонь (Live)
Альбом/Исполнитель                       : Ария
Часть/Положение                          : 1
Часть/Всего                              : 2
Трек                                     : Битва
Трек/Положение                           : 3
Трек/Всего                               : 11
Исполнитель                              : Ария
Жанр                                     : Heavy Metal
Дата записи                              : 2004
Дата кодирования                         : UTC 2011-06-15 18:34:55
Дата пометки                             : UTC 2014-05-28 09:19:45
Программа кодирования                    : X Lossless Decoder 20140504, QuickTime 7.7.1
Обложка                                  : Yes
Примечание                               : ExactAudioCopy v0.99pb4
iTunes_CDDB_1                            : 8E0D980B+261197+11+150+7835+26218+49975+76283+104359+127247+152873+178586+200795+234765
iTunes_CDDB_TrackNumber                  : 3

Аудио
Идентификатор                            : 1
Формат                                   : ALAC
Идентификатор кодека                     : alac
Идентификатор кодека/Информация          : Apple Lossless Audio Codec
Продолжительность                        : 5 м. 16 с.
Duration_LastFrame                       : -53 мс.
Вид битрейта                             : Переменный
Битрейт                                  : 1073 Кбит/сек
Каналы                                   : 2 канала
Частота                                  : 44,1 КГц
Битовая глубина                          : 16 бит
Размер потока                            : 40,5 Мбайт (99%)
Язык                                     : English
Дата кодирования                         : UTC 2011-06-15 18:34:55
Дата пометки                             : UTC 2014-05-28 09:19:45

Общее
Полное имя                               : /Users/Denis/Library/Containers/net.mediaarea.mediainfo.mac/Data/Music/iTunes/iTunes Media/Music/Ария/Живой огонь (Live)/1-04 Раскачаем этот мир.m4a
Формат                                   : MPEG-4
Профиль формата                          : Apple audio with iTunes info
Идентификатор кодека                     : M4A
Размер файла                             : 45,2 Мбайт
Продолжительность                        : 5 м. 50 с.
Режим общего битрейта                    : Переменный
Общий поток                              : 1081 Кбит/сек
Альбом                                   : Живой огонь (Live)
Альбом/Исполнитель                       : Ария
Часть/Положение                          : 1
Часть/Всего                              : 2
Трек                                     : Раскачаем этот мир
Трек/Положение                           : 4
Трек/Всего                               : 11
Исполнитель                              : Ария
Жанр                                     : Heavy Metal
Дата записи                              : 2004
Дата кодирования                         : UTC 2017-10-31 22:38:07
Дата пометки                             : UTC 2014-05-28 09:19:48
Программа кодирования                    : X Lossless Decoder 20140504, QuickTime 7.7.1
Обложка                                  : Yes
Примечание                               : ExactAudioCopy v0.99pb4
iTunes_CDDB_1                            : 8E0D980B+261197+11+150+7835+26218+49975+76283+104359+127247+152873+178586+200795+234765
iTunes_CDDB_TrackNumber                  : 4

Аудио
Идентификатор                            : 1
Формат                                   : ALAC
Идентификатор кодека                     : alac
Идентификатор кодека/Информация          : Apple Lossless Audio Codec
Продолжительность                        : 5 м. 50 с.
Duration_LastFrame                       : -34 мс.
Вид битрейта                             : Переменный
Битрейт                                  : 1069 Кбит/сек
Каналы                                   : 2 канала
Частота                                  : 44,1 КГц
Битовая глубина                          : 16 бит
Размер потока                            : 44,7 Мбайт (99%)
Язык                                     : English
Дата кодирования                         : UTC 2017-10-31 22:38:07
Дата пометки                             : UTC 2014-05-28 09:19:48

Общее
Полное имя                               : /Users/Denis/Library/Containers/net.mediaarea.mediainfo.mac/Data/Music/iTunes/iTunes Media/Music/Ария/Живой огонь (Live)/1-05 Колизей.m4a
Формат                                   : MPEG-4
Профиль формата                          : Apple audio with iTunes info
Идентификатор кодека                     : M4A
Размер файла                             : 48,0 Мбайт
Продолжительность                        : 6 м. 14 с.
Режим общего битрейта                    : Переменный
Общий поток                              : 1077 Кбит/сек
Альбом                                   : Живой огонь (Live)
Альбом/Исполнитель                       : Ария
Часть/Положение                          : 1
Часть/Всего                              : 2
Трек                                     : Колизей
Трек/Положение                           : 5
Трек/Всего                               : 11
Исполнитель                              : Ария
Жанр                                     : Heavy Metal
Дата записи                              : 2004
Дата кодирования                         : UTC 2024-03-19 02:41:19
Дата пометки                             : UTC 2014-05-28 09:19:50
Программа кодирования                    : X Lossless Decoder 20140504, QuickTime 7.7.1
Обложка                                  : Yes
Примечание                               : ExactAudioCopy v0.99pb4
iTunes_CDDB_1                            : 8E0D980B+261197+11+150+7835+26218+49975+76283+104359+127247+152873+178586+200795+234765
iTunes_CDDB_TrackNumber                  : 5

Аудио
Идентификатор                            : 1
Формат                                   : ALAC
Идентификатор кодека                     : alac
Идентификатор кодека/Информация          : Apple Lossless Audio Codec
Продолжительность                        : 6 м. 14 с.
Duration_LastFrame                       : -52 мс.
Вид битрейта                             : Переменный
Битрейт                                  : 1065 Кбит/сек
Каналы                                   : 2 канала
Частота                                  : 44,1 КГц
Битовая глубина                          : 16 бит
Размер потока                            : 47,5 Мбайт (99%)
Язык                                     : English
Дата кодирования                         : UTC 2024-03-19 02:41:19
Дата пометки                             : UTC 2014-05-28 09:19:50

Общее
Полное имя                               : /Users/Denis/Library/Containers/net.mediaarea.mediainfo.mac/Data/Music/iTunes/iTunes Media/Music/Ария/Живой огонь (Live)/1-06 Обман.m4a
Формат                                   : MPEG-4
Профиль формата                          : Apple audio with iTunes info
Идентификатор кодека                     : M4A
Размер файла                             : 38,5 Мбайт
Продолжительность                        : 5 м. 5 с.
Режим общего битрейта                    : Переменный
Общий поток                              : 1057 Кбит/сек
Альбом                                   : Живой огонь (Live)
Альбом/Исполнитель                       : Ария
Часть/Положение                          : 1
Часть/Всего                              : 2
Трек                                     : Обман
Трек/Положение                           : 6
Трек/Всего                               : 11
Исполнитель                              : Ария
Жанр                                     : Heavy Metal
Дата записи                              : 2004
Дата кодирования                         : UTC 2028-06-19 13:23:27
Дата пометки                             : UTC 2014-05-28 09:19:55
Программа кодирования                    : X Lossless Decoder 20140504, QuickTime 7.7.1
Обложка                                  : Yes
Примечание                               : ExactAudioCopy v0.99pb4
iTunes_CDDB_1                            : 8E0D980B+261197+11+150+7835+26218+49975+76283+104359+127247+152873+178586+200795+234765
iTunes_CDDB_TrackNumber                  : 6

Аудио
Идентификатор                            : 1
Формат                                   : ALAC
Идентификатор кодека                     : alac
Идентификатор кодека/Информация          : Apple Lossless Audio Codec
Продолжительность                        : 5 м. 5 с.
Duration_LastFrame                       : -30 мс.
Вид битрейта                             : Переменный
Битрейт                                  : 1044 Кбит/сек
Каналы                                   : 2 канала
Частота                                  : 44,1 КГц
Битовая глубина                          : 16 бит
Размер потока                            : 38,0 Мбайт (99%)
Язык                                     : English
Дата кодирования                         : UTC 2028-06-19 13:23:27
Дата пометки                             : UTC 2014-05-28 09:19:55

Общее
Полное имя                               : /Users/Denis/Library/Containers/net.mediaarea.mediainfo.mac/Data/Music/iTunes/iTunes Media/Music/Ария/Живой огонь (Live)/1-07 Крещение огнём.m4a
Формат                                   : MPEG-4
Профиль формата                          : Apple audio with iTunes info
Идентификатор кодека                     : M4A
Размер файла                             : 42,9 Мбайт
Продолжительность                        : 5 м. 41 с.
Режим общего битрейта                    : Переменный
Общий поток                              : 1054 Кбит/сек
Альбом                                   : Живой огонь (Live)
Альбом/Исполнитель                       : Ария
Часть/Положение                          : 1
Часть/Всего                              : 2
Трек                                     : Крещение огнём
Трек/Положение                           : 7
Трек/Всего                               : 11
Исполнитель                              : Ария
Жанр                                     : Heavy Metal
Дата записи                              : 2004
Дата кодирования                         : UTC 2035-05-18 21:46:55
Дата пометки                             : UTC 2014-05-28 09:19:57
Программа кодирования                    : X Lossless Decoder 20140504, QuickTime 7.7.1
Обложка                                  : Yes
Примечание                               : ExactAudioCopy v0.99pb4
iTunes_CDDB_1                            : 8E0D980B+261197+11+150+7835+26218+49975+76283+104359+127247+152873+178586+200795+234765
iTunes_CDDB_TrackNumber                  : 7

Аудио
Идентификатор                            : 1
Формат                                   : ALAC
Идентификатор кодека                     : alac
Идентификатор кодека/Информация          : Apple Lossless Audio Codec
Продолжительность                        : 5 м. 41 с.
Duration_LastFrame                       : -25 мс.
Вид битрейта                             : Переменный
Битрейт                                  : 1042 Кбит/сек
Каналы                                   : 2 канала
Частота                                  : 44,1 КГц
Битовая глубина                          : 16 бит
Размер потока                            : 42,4 Мбайт (99%)
Язык                                     : English
Дата кодирования                         : UTC 2035-05-18 21:46:55
Дата пометки                             : UTC 2014-05-28 09:19:57

Общее
Полное имя                               : /Users/Denis/Library/Containers/net.mediaarea.mediainfo.mac/Data/Music/iTunes/iTunes Media/Music/Ария/Живой огонь (Live)/1-08 Бал у князя тьмы.m4a
Формат                                   : MPEG-4
Профиль формата                          : Apple audio with iTunes info
Идентификатор кодека                     : M4A
Размер файла                             : 42,0 Мбайт
Продолжительность                        : 5 м. 42 с.
Режим общего битрейта                    : Переменный
Общий поток                              : 1027 Кбит/сек
Альбом                                   : Живой огонь (Live)
Альбом/Исполнитель                       : Ария
Часть/Положение                          : 1
Часть/Всего                              : 2
Трек                                     : Бал у князя тьмы
Трек/Положение                           : 8
Трек/Всего                               : 11
Исполнитель                              : Ария
Жанр                                     : Heavy Metal
Дата записи                              : 2004
Дата кодирования                         : UTC 2039-08-19 08:29:03
Дата пометки                             : UTC 2014-05-28 09:20:00
Программа кодирования                    : X Lossless Decoder 20140504, QuickTime 7.7.1
Обложка                                  : Yes
Примечание                               : ExactAudioCopy v0.99pb4
iTunes_CDDB_1                            : 8E0D980B+261197+11+150+7835+26218+49975+76283+104359+127247+152873+178586+200795+234765
iTunes_CDDB_TrackNumber                  : 8

Аудио
Идентификатор                            : 1
Формат                                   : ALAC
Идентификатор кодека                     : alac
Идентификатор кодека/Информация          : Apple Lossless Audio Codec
Продолжительность                        : 5 м. 42 с.
Duration_LastFrame                       : -72 мс.
Вид битрейта                             : Переменный
Битрейт                                  : 1014 Кбит/сек
Каналы                                   : 2 канала
Частота                                  : 44,1 КГц
Битовая глубина                          : 16 бит
Размер потока                            : 41,5 Мбайт (99%)
Язык                                     : English
Дата кодирования                         : UTC 2039-08-19 08:29:03
Дата пометки                             : UTC 2014-05-28 09:20:00

Общее
Полное имя                               : /Users/Denis/Library/Containers/net.mediaarea.mediainfo.mac/Data/Music/iTunes/iTunes Media/Music/Ария/Живой огонь (Live)/1-09 Антихрист.m4a
Формат                                   : MPEG-4
Профиль формата                          : Apple audio with iTunes info
Идентификатор кодека                     : M4A
Размер файла                             : 36,7 Мбайт
Продолжительность                        : 4 м. 56 с.
Режим общего битрейта                    : Переменный
Общий поток                              : 1040 Кбит/сек
Альбом                                   : Живой огонь (Live)
Альбом/Исполнитель                       : Ария
Часть/Положение                          : 1
Часть/Всего                              : 2
Трек                                     : Антихрист
Трек/Положение                           : 9
Трек/Всего                               : 11
Исполнитель                              : Ария
Жанр                                     : Heavy Metal
Дата записи                              : 2004
Дата пометки                             : UTC 2014-05-28 09:20:03
Программа кодирования                    : X Lossless Decoder 20140504, QuickTime 7.7.1
Обложка                                  : Yes
Примечание                               : ExactAudioCopy v0.99pb4
iTunes_CDDB_1                            : 8E0D980B+261197+11+150+7835+26218+49975+76283+104359+127247+152873+178586+200795+234765
iTunes_CDDB_TrackNumber                  : 9

Аудио
Идентификатор                            : 1
Формат                                   : ALAC
Идентификатор кодека                     : alac
Идентификатор кодека/Информация          : Apple Lossless Audio Codec
Продолжительность                        : 4 м. 56 с.
Duration_LastFrame                       : -74 мс.
Вид битрейта                             : Переменный
Битрейт                                  : 1025 Кбит/сек
Каналы                                   : 2 канала
Частота                                  : 44,1 КГц
Битовая глубина                          : 16 бит
Размер потока                            : 36,2 Мбайт (99%)
Язык                                     : English
Дата пометки                             : UTC 2014-05-28 09:20:03

Общее
Полное имя                               : /Users/Denis/Library/Containers/net.mediaarea.mediainfo.mac/Data/Music/iTunes/iTunes Media/Music/Ария/Живой огонь (Live)/1-10 Кровь за кровь.m4a
Формат                                   : MPEG-4
Профиль формата                          : Apple audio with iTunes info
Идентификатор кодека                     : M4A
Размер файла                             : 56,6 Мбайт
Продолжительность                        : 7 м. 32 с.
Режим общего битрейта                    : Переменный
Общий поток                              : 1049 Кбит/сек
Альбом                                   : Живой огонь (Live)
Альбом/Исполнитель                       : Ария
Часть/Положение                          : 1
Часть/Всего                              : 2
Трек                                     : Кровь за кровь
Трек/Положение                           : 10
Трек/Всего                               : 11
Исполнитель                              : Ария
Жанр                                     : Heavy Metal
Дата записи                              : 2004
Дата пометки                             : UTC 2014-05-28 09:20:06
Программа кодирования                    : X Lossless Decoder 20140504, QuickTime 7.7.1
Обложка                                  : Yes
Примечание                               : ExactAudioCopy v0.99pb4
iTunes_CDDB_1                            : 8E0D980B+261197+11+150+7835+26218+49975+76283+104359+127247+152873+178586+200795+234765
iTunes_CDDB_TrackNumber                  : 10

Аудио
Идентификатор                            : 1
Формат                                   : ALAC
Идентификатор кодека                     : alac
Идентификатор кодека/Информация          : Apple Lossless Audio Codec
Продолжительность                        : 7 м. 32 с.
Duration_LastFrame                       : -42 мс.
Вид битрейта                             : Переменный
Битрейт                                  : 1039 Кбит/сек
Каналы                                   : 2 канала
Частота                                  : 44,1 КГц
Битовая глубина                          : 16 бит
Размер потока                            : 56,1 Мбайт (99%)
Язык                                     : English
Дата пометки                             : UTC 2014-05-28 09:20:06

Общее
Полное имя                               : /Users/Denis/Library/Containers/net.mediaarea.mediainfo.mac/Data/Music/iTunes/iTunes Media/Music/Ария/Живой огонь (Live)/1-11 Ангельская пыль.m4a
Формат                                   : MPEG-4
Профиль формата                          : Apple audio with iTunes info
Идентификатор кодека                     : M4A
Размер файла                             : 43,0 Мбайт
Продолжительность                        : 5 м. 52 с.
Режим общего битрейта                    : Переменный
Общий поток                              : 1024 Кбит/сек
Альбом                                   : Живой огонь (Live)
Альбом/Исполнитель                       : Ария
Часть/Положение                          : 1
Часть/Всего                              : 2
Трек                                     : Ангельская пыль
Трек/Положение                           : 11
Трек/Всего                               : 11
Исполнитель                              : Ария
Жанр                                     : Heavy Metal
Дата записи                              : 2004
Дата пометки                             : UTC 2014-05-28 09:20:11
Программа кодирования                    : X Lossless Decoder 20140504, QuickTime 7.7.1
Обложка                                  : Yes
Примечание                               : ExactAudioCopy v0.99pb4
iTunes_CDDB_1                            : 8E0D980B+261197+11+150+7835+26218+49975+76283+104359+127247+152873+178586+200795+234765
iTunes_CDDB_TrackNumber                  : 11

Аудио
Идентификатор                            : 1
Формат                                   : ALAC
Идентификатор кодека                     : alac
Идентификатор кодека/Информация          : Apple Lossless Audio Codec
Продолжительность                        : 5 м. 52 с.
Duration_LastFrame                       : -52 мс.
Вид битрейта                             : Переменный
Битрейт                                  : 1012 Кбит/сек
Каналы                                   : 2 канала
Частота                                  : 44,1 КГц
Битовая глубина                          : 16 бит
Размер потока                            : 42,5 Мбайт (99%)
Язык                                     : English
Дата пометки                             : UTC 2014-05-28 09:20:11

Общее
Полное имя                               : /Users/Denis/Library/Containers/net.mediaarea.mediainfo.mac/Data/Music/iTunes/iTunes Media/Music/Ария/Живой огонь (Live)/2-01 Палач.m4a
Формат                                   : MPEG-4
Профиль формата                          : Apple audio with iTunes info
Идентификатор кодека                     : M4A
Размер файла                             : 62,9 Мбайт
Продолжительность                        : 8 м. 24 с.
Режим общего битрейта                    : Переменный
Общий поток                              : 1046 Кбит/сек
Альбом                                   : Живой огонь (Live)
Альбом/Исполнитель                       : Ария
Часть/Положение                          : 2
Часть/Всего                              : 2
Трек                                     : Палач
Трек/Положение                           : 1
Трек/Всего                               : 9
Исполнитель                              : Ария
Жанр                                     : Heavy Metal
Дата записи                              : 2004
Дата пометки                             : UTC 2014-05-28 09:20:18
Программа кодирования                    : X Lossless Decoder 20140504, QuickTime 7.7.1
Обложка                                  : Yes
Примечание                               : ExactAudioCopy v0.99pb4
iTunes_CDDB_1                            : 910EFF09+288092+9+150+38008+65826+89984+118421+142174+180894+221276+246693
iTunes_CDDB_TrackNumber                  : 1

Аудио
Идентификатор                            : 1
Формат                                   : ALAC
Идентификатор кодека                     : alac
Идентификатор кодека/Информация          : Apple Lossless Audio Codec
Продолжительность                        : 8 м. 24 с.
Duration_LastFrame                       : -28 мс.
Вид битрейта                             : Переменный
Битрейт                                  : 1037 Кбит/сек
Каналы                                   : 2 канала
Частота                                  : 44,1 КГц
Битовая глубина                          : 16 бит
Размер потока                            : 62,4 Мбайт (99%)
Язык                                     : English
Дата пометки                             : UTC 2014-05-28 09:20:18

Общее
Полное имя                               : /Users/Denis/Library/Containers/net.mediaarea.mediainfo.mac/Data/Music/iTunes/iTunes Media/Music/Ария/Живой огонь (Live)/2-02 Бой продолжается.m4a
Формат                                   : MPEG-4
Профиль формата                          : Apple audio with iTunes info
Идентификатор кодека                     : M4A
Размер файла                             : 46,3 Мбайт
Продолжительность                        : 6 м. 10 с.
Режим общего битрейта                    : Переменный
Общий поток                              : 1048 Кбит/сек
Альбом                                   : Живой огонь (Live)
Альбом/Исполнитель                       : Ария
Часть/Положение                          : 2
Часть/Всего                              : 2
Трек                                     : Бой продолжается
Трек/Положение                           : 2
Трек/Всего                               : 9
Исполнитель                              : Ария
Жанр                                     : Heavy Metal
Дата записи                              : 2004
Дата пометки                             : UTC 2014-05-28 09:20:22
Программа кодирования                    : X Lossless Decoder 20140504, QuickTime 7.7.1
Обложка                                  : Yes
Примечание                               : ExactAudioCopy v0.99pb4
iTunes_CDDB_1                            : 910EFF09+288092+9+150+38008+65826+89984+118421+142174+180894+221276+246693
iTunes_CDDB_TrackNumber                  : 2

Аудио
Идентификатор                            : 1
Формат                                   : ALAC
Идентификатор кодека                     : alac
Идентификатор кодека/Информация          : Apple Lossless Audio Codec
Продолжительность                        : 6 м. 10 с.
Duration_LastFrame                       : -55 мс.
Вид битрейта                             : Переменный
Битрейт                                  : 1036 Кбит/сек
Каналы                                   : 2 канала
Частота                                  : 44,1 КГц
Битовая глубина                          : 16 бит
Размер потока                            : 45,8 Мбайт (99%)
Язык                                     : English
Дата пометки                             : UTC 2014-05-28 09:20:22

Общее
Полное имя                               : /Users/Denis/Library/Containers/net.mediaarea.mediainfo.mac/Data/Music/iTunes/iTunes Media/Music/Ария/Живой огонь (Live)/2-03 Там высоко....m4a
Формат                                   : MPEG-4
Профиль формата                          : Apple audio with iTunes info
Идентификатор кодека                     : M4A
Размер файла                             : 39,4 Мбайт
Продолжительность                        : 5 м. 22 с.
Режим общего битрейта                    : Переменный
Общий поток                              : 1027 Кбит/сек
Альбом                                   : Живой огонь (Live)
Альбом/Исполнитель                       : Ария
Часть/Положение                          : 2
Часть/Всего                              : 2
Трек                                     : Там высоко...
Трек/Положение                           : 3
Трек/Всего                               : 9
Исполнитель                              : Ария
Жанр                                     : Heavy Metal
Дата записи                              : 2004
Дата пометки                             : UTC 2014-05-28 09:20:25
Программа кодирования                    : X Lossless Decoder 20140504, QuickTime 7.7.1
Обложка                                  : Yes
Примечание                               : ExactAudioCopy v0.99pb4
iTunes_CDDB_1                            : 910EFF09+288092+9+150+38008+65826+89984+118421+142174+180894+221276+246693
iTunes_CDDB_TrackNumber                  : 3

Аудио
Идентификатор                            : 1
Формат                                   : ALAC
Идентификатор кодека                     : alac
Идентификатор кодека/Информация          : Apple Lossless Audio Codec
Продолжительность                        : 5 м. 22 с.
Duration_LastFrame                       : -1 мс.
Вид битрейта                             : Переменный
Битрейт                                  : 1014 Кбит/сек
Каналы                                   : 2 канала
Частота                                  : 44,1 КГц
Битовая глубина                          : 16 бит
Размер потока                            : 38,9 Мбайт (99%)
Язык                                     : English
Дата пометки                             : UTC 2014-05-28 09:20:25

Общее
Полное имя                               : /Users/Denis/Library/Containers/net.mediaarea.mediainfo.mac/Data/Music/iTunes/iTunes Media/Music/Ария/Живой огонь (Live)/2-04 Штиль.m4a
Формат                                   : MPEG-4
Профиль формата                          : Apple audio with iTunes info
Идентификатор кодека                     : M4A
Размер файла                             : 46,0 Мбайт
Продолжительность                        : 6 м. 19 с.
Режим общего битрейта                    : Переменный
Общий поток                              : 1017 Кбит/сек
Альбом                                   : Живой огонь (Live)
Альбом/Исполнитель                       : Ария
Часть/Положение                          : 2
Часть/Всего                              : 2
Трек                                     : Штиль
Трек/Положение                           : 4
Трек/Всего                               : 9
Исполнитель                              : Ария
Жанр                                     : Heavy Metal
Дата записи                              : 2004
Дата пометки                             : UTC 2014-05-28 09:20:28
Программа кодирования                    : X Lossless Decoder 20140504, QuickTime 7.7.1
Обложка                                  : Yes
Примечание                               : ExactAudioCopy v0.99pb4
iTunes_CDDB_1                            : 910EFF09+288092+9+150+38008+65826+89984+118421+142174+180894+221276+246693
iTunes_CDDB_TrackNumber                  : 4

Аудио
Идентификатор                            : 1
Формат                                   : ALAC
Идентификатор кодека                     : alac
Идентификатор кодека/Информация          : Apple Lossless Audio Codec
Продолжительность                        : 6 м. 19 с.
Duration_LastFrame                       : -68 мс.
Вид битрейта                             : Переменный
Битрейт                                  : 1005 Кбит/сек
Каналы                                   : 2 канала
Частота                                  : 44,1 КГц
Битовая глубина                          : 16 бит
Размер потока                            : 45,4 Мбайт (99%)
Язык                                     : English
Дата пометки                             : UTC 2014-05-28 09:20:28

Общее
Полное имя                               : /Users/Denis/Library/Containers/net.mediaarea.mediainfo.mac/Data/Music/iTunes/iTunes Media/Music/Ария/Живой огонь (Live)/2-05 Герой асфальта.m4a
Формат                                   : MPEG-4
Профиль формата                          : Apple audio with iTunes info
Идентификатор кодека                     : M4A
Размер файла                             : 40,7 Мбайт
Продолжительность                        : 5 м. 16 с.
Режим общего битрейта                    : Переменный
Общий поток                              : 1079 Кбит/сек
Альбом                                   : Живой огонь (Live)
Альбом/Исполнитель                       : Ария
Часть/Положение                          : 2
Часть/Всего                              : 2
Трек                                     : Герой асфальта
Трек/Положение                           : 5
Трек/Всего                               : 9
Исполнитель                              : Ария
Жанр                                     : Heavy Metal
Дата записи                              : 2004
Дата пометки                             : UTC 2014-05-28 09:20:31
Программа кодирования                    : X Lossless Decoder 20140504, QuickTime 7.7.1
Обложка                                  : Yes
Примечание                               : ExactAudioCopy v0.99pb4
iTunes_CDDB_1                            : 910EFF09+288092+9+150+38008+65826+89984+118421+142174+180894+221276+246693
iTunes_CDDB_TrackNumber                  : 5

Аудио
Идентификатор                            : 1
Формат                                   : ALAC
Идентификатор кодека                     : alac
Идентификатор кодека/Информация          : Apple Lossless Audio Codec
Продолжительность                        : 5 м. 16 с.
Duration_LastFrame                       : -14 мс.
Вид битрейта                             : Переменный
Битрейт                                  : 1065 Кбит/сек
Каналы                                   : 2 канала
Частота                                  : 44,1 КГц
Битовая глубина                          : 16 бит
Размер потока                            : 40,2 Мбайт (99%)
Язык                                     : English
Дата пометки                             : UTC 2014-05-28 09:20:31

Общее
Полное имя                               : /Users/Denis/Library/Containers/net.mediaarea.mediainfo.mac/Data/Music/iTunes/iTunes Media/Music/Ария/Живой огонь (Live)/2-06 Осколок льда.m4a
Формат                                   : MPEG-4
Профиль формата                          : Apple audio with iTunes info
Идентификатор кодека                     : M4A
Размер файла                             : 63,2 Мбайт
Продолжительность                        : 8 м. 36 с.
Режим общего битрейта                    : Переменный
Общий поток                              : 1028 Кбит/сек
Альбом                                   : Живой огонь (Live)
Альбом/Исполнитель                       : Ария
Часть/Положение                          : 2
Часть/Всего                              : 2
Трек                                     : Осколок льда
Трек/Положение                           : 6
Трек/Всего                               : 9
Исполнитель                              : Ария
Жанр                                     : Heavy Metal
Дата записи                              : 2004
Дата кодирования                         : UTC 1973-09-17 11:00:31
Дата пометки                             : UTC 2014-05-28 09:20:36
Программа кодирования                    : X Lossless Decoder 20140504, QuickTime 7.7.1
Обложка                                  : Yes
Примечание                               : ExactAudioCopy v0.99pb4
iTunes_CDDB_1                            : 910EFF09+288092+9+150+38008+65826+89984+118421+142174+180894+221276+246693
iTunes_CDDB_TrackNumber                  : 6

Аудио
Идентификатор                            : 1
Формат                                   : ALAC
Идентификатор кодека                     : alac
Идентификатор кодека/Информация          : Apple Lossless Audio Codec
Продолжительность                        : 8 м. 36 с.
Duration_LastFrame                       : -52 мс.
Вид битрейта                             : Переменный
Битрейт                                  : 1019 Кбит/сек
Каналы                                   : 2 канала
Частота                                  : 44,1 КГц
Битовая глубина                          : 16 бит
Размер потока                            : 62,7 Мбайт (99%)
Язык                                     : English
Дата кодирования                         : UTC 1973-09-17 11:00:31
Дата пометки                             : UTC 2014-05-28 09:20:36

Общее
Полное имя                               : /Users/Denis/Library/Containers/net.mediaarea.mediainfo.mac/Data/Music/iTunes/iTunes Media/Music/Ария/Живой огонь (Live)/2-07 Баллада о древнерусском воине.m4a
Формат                                   : MPEG-4
Профиль формата                          : Apple audio with iTunes info
Идентификатор кодека                     : M4A
Размер файла                             : 66,8 Мбайт
Продолжительность                        : 8 м. 58 с.
Режим общего битрейта                    : Переменный
Общий поток                              : 1041 Кбит/сек
Альбом                                   : Живой огонь (Live)
Альбом/Исполнитель                       : Ария
Часть/Положение                          : 2
Часть/Всего                              : 2
Трек                                     : Баллада о древнерусском воине
Трек/Положение                           : 7
Трек/Всего                               : 9
Исполнитель                              : Ария
Жанр                                     : Heavy Metal
Дата записи                              : 2004
Дата кодирования                         : UTC 1981-09-08 04:04:31
Дата пометки                             : UTC 2014-05-28 09:20:41
Программа кодирования                    : X Lossless Decoder 20140504, QuickTime 7.7.1
Обложка                                  : Yes
Примечание                               : ExactAudioCopy v0.99pb4
iTunes_CDDB_1                            : 910EFF09+288092+9+150+38008+65826+89984+118421+142174+180894+221276+246693
iTunes_CDDB_TrackNumber                  : 7

Аудио
Идентификатор                            : 1
Формат                                   : ALAC
Идентификатор кодека                     : alac
Идентификатор кодека/Информация          : Apple Lossless Audio Codec
Продолжительность                        : 8 м. 58 с.
Duration_LastFrame                       : -91 мс.
Вид битрейта                             : Переменный
Битрейт                                  : 1032 Кбит/сек
Каналы                                   : 2 канала
Частота                                  : 44,1 КГц
Битовая глубина                          : 16 бит
Размер потока                            : 66,3 Мбайт (99%)
Язык                                     : English
Дата кодирования                         : UTC 1981-09-08 04:04:31
Дата пометки                             : UTC 2014-05-28 09:20:41

Общее
Полное имя                               : /Users/Denis/Library/Containers/net.mediaarea.mediainfo.mac/Data/Music/iTunes/iTunes Media/Music/Ария/Живой огонь (Live)/2-08 Небо тебя найдёт.m4a
Формат                                   : MPEG-4
Профиль формата                          : Apple audio with iTunes info
Идентификатор кодека                     : M4A
Размер файла                             : 43,4 Мбайт
Продолжительность                        : 5 м. 38 с.
Режим общего битрейта                    : Переменный
Общий поток                              : 1074 Кбит/сек
Альбом                                   : Живой огонь (Live)
Альбом/Исполнитель                       : Ария
Часть/Положение                          : 2
Часть/Всего                              : 2
Трек                                     : Небо тебя найдёт
Трек/Положение                           : 8
Трек/Всего                               : 9
Исполнитель                              : Ария
Жанр                                     : Heavy Metal
Дата записи                              : 2004
Дата кодирования                         : UTC 1989-08-29 21:08:31
Дата пометки                             : UTC 2014-05-28 09:20:44
Программа кодирования                    : X Lossless Decoder 20140504, QuickTime 7.7.1
Обложка                                  : Yes
Примечание                               : ExactAudioCopy v0.99pb4
iTunes_CDDB_1                            : 910EFF09+288092+9+150+38008+65826+89984+118421+142174+180894+221276+246693
iTunes_CDDB_TrackNumber                  : 8

Аудио
Идентификатор                            : 1
Формат                                   : ALAC
Идентификатор кодека                     : alac
Идентификатор кодека/Информация          : Apple Lossless Audio Codec
Продолжительность                        : 5 м. 38 с.
Duration_LastFrame                       : -25 мс.
Вид битрейта                             : Переменный
Битрейт                                  : 1061 Кбит/сек
Каналы                                   : 2 канала
Частота                                  : 44,1 КГц
Битовая глубина                          : 16 бит
Размер потока                            : 42,9 Мбайт (99%)
Язык                                     : English
Дата кодирования                         : UTC 1989-08-29 21:08:31
Дата пометки                             : UTC 2014-05-28 09:20:44

Общее
Полное имя                               : /Users/Denis/Library/Containers/net.mediaarea.mediainfo.mac/Data/Music/iTunes/iTunes Media/Music/Ария/Живой огонь (Live)/2-09 Улица роз.m4a
Формат                                   : MPEG-4
Профиль формата                          : Apple audio with iTunes info
Идентификатор кодека                     : M4A
Размер файла                             : 60,8 Мбайт
Продолжительность                        : 9 м. 11 с.
Режим общего битрейта                    : Переменный
Общий поток                              : 924 Кбит/сек
Альбом                                   : Живой огонь (Live)
Альбом/Исполнитель                       : Ария
Часть/Положение                          : 2
Часть/Всего                              : 2
Трек                                     : Улица роз
Трек/Положение                           : 9
Трек/Всего                               : 9
Исполнитель                              : Ария
Жанр                                     : Heavy Metal
Дата записи                              : 2004
Дата кодирования                         : UTC 1999-03-26 03:13:19
Дата пометки                             : UTC 2014-05-28 09:20:49
Программа кодирования                    : X Lossless Decoder 20140504, QuickTime 7.7.1
Обложка                                  : Yes
Примечание                               : ExactAudioCopy v0.99pb4
iTunes_CDDB_1                            : 910EFF09+288092+9+150+38008+65826+89984+118421+142174+180894+221276+246693
iTunes_CDDB_TrackNumber                  : 9

Аудио
Идентификатор                            : 1
Формат                                   : ALAC
Идентификатор кодека                     : alac
Идентификатор кодека/Информация          : Apple Lossless Audio Codec
Продолжительность                        : 9 м. 11 с.
Duration_LastFrame                       : -91 мс.
Вид битрейта                             : Переменный
Битрейт                                  : 916 Кбит/сек
Каналы                                   : 2 канала
Частота                                  : 44,1 КГц
Битовая глубина                          : 16 бит
Размер потока                            : 60,3 Мбайт (99%)
Язык                                     : English
Дата кодирования                         : UTC 1999-03-26 03:13:19
Дата пометки                             : UTC 2014-05-28 09:20:49
Код:

-----------------------

DON'T MODIFY THIS FILE

-----------------------

PERFORMER: auCDtect Task Manager, ver. 1.6.0 RC1 build 1.6.0.1
Copyright (c) 2008-2010 y-soft. All rights reserved
http://y-soft.org

ANALYZER: auCDtect: CD records authenticity detector, version 0.8.2
Copyright (c) 2004 Oleg Berngardt. All rights reserved.
Copyright (c) 2004 Alexander Djourik. All rights reserved.

FILE: 2-09 Улица роз.m4a
  Size: 63761153 Hash: C6AB0990C0531642BA2BF61C23AA781F Accuracy: -m0
  Conclusion: CDDA 100%
  Signature: A0E68D4E1F4CA07F11B43E9460B5B130ABDB3E4C
FILE: 2-08 Небо тебя найдёт.m4a
  Size: 45481307 Hash: 6F68789EE29EEDC9040D7CD58A892CC3 Accuracy: -m0
  Conclusion: CDDA 99%
  Signature: 1C5E6B847BD98C6B26331146C8DD78AFC8EE3E55
FILE: 2-07 Баллада о древнерусском воине.m4a
  Size: 70035637 Hash: 132A67FF918C24001E2B3B12BEEFCFC7 Accuracy: -m0
  Conclusion: CDDA 100%
  Signature: 2FFC3111DD450251940737C6884FADA481EF3057
FILE: 2-06 Осколок льда.m4a
  Size: 66318212 Hash: 46207C95E1CF80FBD468A6D9231E3596 Accuracy: -m0
  Conclusion: CDDA 100%
  Signature: 235C14D6DD3D89BB0C39A34FDF0DEAD275A64988
FILE: 2-05 Герой асфальта.m4a
  Size: 42717997 Hash: 5FD1E7FD4B1DCAA91C7C52253DB26835 Accuracy: -m0
  Conclusion: CDDA 100%
  Signature: 3B02407562A586F48A6B6F01C3C3ABA31EE6E1BC
FILE: 2-04 Штиль.m4a
  Size: 48191838 Hash: 811B8B8ADA7C37E9C7D4B3DE26862CB0 Accuracy: -m8
  Conclusion: CDDA 100%
  Signature: FD8D18CD9AE8D78E263852E935D9EFA65F0B7250
FILE: 2-03 Там высоко....m4a
  Size: 41353075 Hash: 4CDA4FE0856BC2F4E203B40E6BDDFB51 Accuracy: -m0
  Conclusion: CDDA 100%
  Signature: B9B81D93D32A08DFD7A390C2C716DF613A095512
FILE: 2-02 Бой продолжается.m4a
  Size: 48591167 Hash: 4D8ECB805E72B81DEFE832C8BAA9BFD5 Accuracy: -m0
  Conclusion: CDDA 99%
  Signature: 5F83986C5C3B1F884DB96B5CF0877AE0528C19BE
FILE: 2-01 Палач.m4a
  Size: 65997760 Hash: 4FE794B957AE3350120C7E71C6FB5709 Accuracy: -m8
  Conclusion: CDDA 100%
  Signature: BAAE1632709577E37A064516FBC7F9D4CB6B44B0
FILE: 1-11 Ангельская пыль.m4a
  Size: 45113225 Hash: D48B5EB4FB747D1DF3CF3A506339691D Accuracy: -m0
  Conclusion: CDDA 100%
  Signature: 93E81521863CF3B08BB04DC80C10FCF4393E278B
FILE: 1-10 Кровь за кровь.m4a
  Size: 59381428 Hash: D63275560A7B0C98FFB1B6DCFADE5EBE Accuracy: -m8
  Conclusion: CDDA 100%
  Signature: 91A21B4C9311963250492714789D9970D12C5471
FILE: 1-09 Антихрист.m4a
  Size: 38480747 Hash: ADCE14654EAD8B8AD8211C3BF9761AD7 Accuracy: -m0
  Conclusion: CDDA 100%
  Signature: BD2F6EE82C56B873330791FA6C4C383739592595
FILE: 1-08 Бал у князя тьмы.m4a
  Size: 44023239 Hash: 4C832174A9450E29F6EE9956173011A7 Accuracy: -m0
  Conclusion: CDDA 100%
  Signature: EC068BA2EC900CCABC61470F0330A17C828635E5
FILE: 1-07 Крещение огнём.m4a
  Size: 45030911 Hash: BF528808574CE744D528DA7D9C9CB8ED Accuracy: -m0
  Conclusion: CDDA 100%
  Signature: 3271BD90851100F09DB80F8238D81FD504861710
FILE: 1-06 Обман.m4a
  Size: 40337987 Hash: 1A5A0B1360255AE88F7CF08CE8CAC58C Accuracy: -m0
  Conclusion: CDDA 100%
  Signature: 9089EBF47DFD0D52509B95FD3F0F5413FC4BAC46
FILE: 1-05 Колизей.m4a
  Size: 50380531 Hash: B1291A6515507D781FE876934D5EA58F Accuracy: -m8
  Conclusion: CDDA 100%
  Signature: 25F55CE0712BC6764218E43DCA42AC103650BD34
FILE: 1-04 Раскачаем этот мир.m4a
  Size: 47402253 Hash: 184EC8832339A10B033410AB8979DB08 Accuracy: -m8
  Conclusion: CDDA 100%
  Signature: F467CD86DC0C60FB958271227798EF0678CDD8E3
FILE: 1-03 Битва.m4a
  Size: 43013660 Hash: DF0AE0A55E97A4FDBAE24C0075DB3EF3 Accuracy: -m0
  Conclusion: CDDA 100%
  Signature: FB890D10B8BD9E68972DA46D52FE5D3D3E150399
FILE: 1-02 Патриот.m4a
  Size: 33288862 Hash: 7599BBBD4AF16DE2E6FD59ACF1AD00F2 Accuracy: -m0
  Conclusion: CDDA 100%
  Signature: 74677C64FFE2A591D09E6132E3B871E9DE5D3D33
FILE: 1-01 Интро.m4a
  Size: 11754389 Hash: 064D4D14362F678191D874091181AA31 Accuracy: -m0
  Conclusion: CDDA 100%
  Signature: 065ED5BD9B634C36E8C633F5CE0266756A08279C
Концертные альбомы в ALAC:
Сделано в России (1998 год)
В поисках новой жертвы (2003 год)
Живой огонь (2004 год)
Пляска ада (2007 год)
Герой асфальта : 20 лет (2008 год)
Эхо судного дня (Последний концерт А. Беркута - неофициальное издание) - Bootleg (2011 год)
В желтом круге арены (2012 год)


Время раздачи: с 20:00 до 03:00 постоянно / часто 24/7 - До первых 5 скачавших
[NNM-Club.me]_Ariya (2004) ZHivoi&#774; ogon' (Live).torrent
 Торрент: Платиновая раздача  Зарегистрирован
 
Скачать


Примагнититься
 Зарегистрирован:   28 Май 2014 17:59:20
 Размер:   907 MB  (
 Рейтинг:   4.2 (Голосов: 15)
 Поблагодарили:   35
 Проверка:   Оформление проверено модератором 28 Май 2014 19:40:44
Как cкачать  ·  Как раздать  ·  Правильно оформить  ·  Поднять ратио!  
Показать сообщения:   
Начать новую тему   Ответить на тему    Торрент-трекер NNM-Club -> Аудио и Видео -> Музыка Lossless (ALAC) Часовой пояс: GMT + 3
Страница 1 из 1