Классический форум-трекер
canvas not supported
Нас вместе: 4 177 890

Ария - Пляска ада (Live) (2007) [ALAC|Tracks]<Heavy Metal>


 
 
RSS
Начать новую тему   Ответить на тему    Торрент-трекер NNM-Club -> Аудио и Видео -> Музыка Lossless (ALAC)
Автор Сообщение
Cecidit ®
Стаж: 7 лет 11 мес.
Сообщений: 129
Ratio: 39.772
Поблагодарили: 8820
100%
Откуда: Москва, МО Щелково
russia.gif
Ария - Пляска ада (Live) (2007)
Год: 2007
Жанр: Heavy Metal
Продолжительность: 01:38:08

Кодек: ALAC
Битрейт: Lossless
Тип раздачи: Tracks
Обложки: Вшиты
Кодирование: XLD + QuickTime + iTunes

«Пляска ада» — четвёртый концертный альбом группы Ария, выпущенный в 2007 году. Альбом, выпущенный в формате концертного CD на двух дисках, состоит из 17 треков, и представляет собой запись концерта в Москве, на МСА «ЛУЖНИКИ», 10 ноября 2006 года. Название альбома — строчка из песни «Последний закат»

Состав:
Артур Беркут — вокал
Виталий Дубинин — бас-гитара, вокал
Владимир Холстинин — гитара
Сергей Попов — гитара
Максим Удалов — барабаны

Трeклист:
Продoлжительность: 00:47:57
Треклист:

01. Интро
02. Последний Закат
03. Колизей
04. Мессия
05. Крещение Огнём
06. Страж Империи
07. Кровь Королей
08. Викинг
09. Бал У Князя Тьмы
Продoлжительность: 00:50:10
Треклист:

01. Чужой
02. Свет Былой Любви
03. Штиль
04. Ночь Короче Дня
05. Патриот
06. Баллада О древнерусском Воине
07. Улица Роз
08. Небо Тебя Найдёт
09. Оутро
Mediainfo, отчет и спектограммы
Код:

Общее
Полное имя                               : /Users/Denis/Library/Containers/net.mediaarea.mediainfo.mac/Data/Music/iTunes/iTunes Media/Music/Ария/Пляска ада (Live)/1-01 Интро.m4a
Формат                                   : MPEG-4
Профиль формата                          : Apple audio with iTunes info
Идентификатор кодека                     : M4A
Размер файла                             : 14,1 Мбайт
Продолжительность                        : 2 м. 3 с.
Режим общего битрейта                    : Переменный
Общий поток                              : 959 Кбит/сек
Альбом                                   : Пляска ада (Live)
Альбом/Исполнитель                       : Ария
Часть/Положение                          : 1
Часть/Всего                              : 2
Трек                                     : Интро
Трек/Положение                           : 1
Трек/Всего                               : 9
Исполнитель                              : Ария
Жанр                                     : Heavy Metal
Дата записи                              : 2007
Дата кодирования                         : UTC 1985-09-16 10:00:47
Дата пометки                             : UTC 2014-05-28 09:22:02
Программа кодирования                    : X Lossless Decoder 20140504, QuickTime 7.7.1
Обложка                                  : Yes
Примечание                               : ExactAudioCopy v0.99pb4
iTunes_CDDB_1                            : 610B3D09+215948+9+150+9417+31145+59567+79514+105878+126344+164526+189009
iTunes_CDDB_TrackNumber                  : 1

Аудио
Идентификатор                            : 1
Формат                                   : ALAC
Идентификатор кодека                     : alac
Идентификатор кодека/Информация          : Apple Lossless Audio Codec
Продолжительность                        : 2 м. 3 с.
Duration_LastFrame                       : -63 мс.
Вид битрейта                             : Переменный
Битрейт                                  : 920 Кбит/сек
Каналы                                   : 2 канала
Частота                                  : 44,1 КГц
Битовая глубина                          : 16 бит
Размер потока                            : 13,6 Мбайт (96%)
Язык                                     : English
Дата кодирования                         : UTC 1985-09-16 10:00:47
Дата пометки                             : UTC 2014-05-28 09:22:02

Общее
Полное имя                               : /Users/Denis/Library/Containers/net.mediaarea.mediainfo.mac/Data/Music/iTunes/iTunes Media/Music/Ария/Пляска ада (Live)/1-02 Последний закат.m4a
Формат                                   : MPEG-4
Профиль формата                          : Apple audio with iTunes info
Идентификатор кодека                     : M4A
Размер файла                             : 37,7 Мбайт
Продолжительность                        : 4 м. 49 с.
Режим общего битрейта                    : Переменный
Общий поток                              : 1092 Кбит/сек
Альбом                                   : Пляска ада (Live)
Альбом/Исполнитель                       : Ария
Часть/Положение                          : 1
Часть/Всего                              : 2
Трек                                     : Последний закат
Трек/Положение                           : 2
Трек/Всего                               : 9
Исполнитель                              : Ария
Жанр                                     : Heavy Metal
Дата записи                              : 2007
Дата кодирования                         : UTC 1993-09-07 03:04:47
Дата пометки                             : UTC 2014-05-28 09:22:02
Программа кодирования                    : X Lossless Decoder 20140504, QuickTime 7.7.1
Обложка                                  : Yes
Примечание                               : ExactAudioCopy v0.99pb4
iTunes_CDDB_1                            : 610B3D09+215948+9+150+9417+31145+59567+79514+105878+126344+164526+189009
iTunes_CDDB_TrackNumber                  : 2

Аудио
Идентификатор                            : 1
Формат                                   : ALAC
Идентификатор кодека                     : alac
Идентификатор кодека/Информация          : Apple Lossless Audio Codec
Продолжительность                        : 4 м. 49 с.
Duration_LastFrame                       : -78 мс.
Вид битрейта                             : Переменный
Битрейт                                  : 1075 Кбит/сек
Каналы                                   : 2 канала
Частота                                  : 44,1 КГц
Битовая глубина                          : 16 бит
Размер потока                            : 37,1 Мбайт (99%)
Язык                                     : English
Дата кодирования                         : UTC 1993-09-07 03:04:47
Дата пометки                             : UTC 2014-05-28 09:22:02

Общее
Полное имя                               : /Users/Denis/Library/Containers/net.mediaarea.mediainfo.mac/Data/Music/iTunes/iTunes Media/Music/Ария/Пляска ада (Live)/1-03 Колизей.m4a
Формат                                   : MPEG-4
Профиль формата                          : Apple audio with iTunes info
Идентификатор кодека                     : M4A
Размер файла                             : 49,4 Мбайт
Продолжительность                        : 6 м. 18 с.
Режим общего битрейта                    : Переменный
Общий поток                              : 1094 Кбит/сек
Альбом                                   : Пляска ада (Live)
Альбом/Исполнитель                       : Ария
Часть/Положение                          : 1
Часть/Всего                              : 2
Трек                                     : Колизей
Трек/Положение                           : 3
Трек/Всего                               : 9
Исполнитель                              : Ария
Жанр                                     : Heavy Metal
Дата записи                              : 2007
Дата кодирования                         : UTC 2003-04-03 09:09:35
Дата пометки                             : UTC 2014-05-28 09:22:02
Программа кодирования                    : X Lossless Decoder 20140504, QuickTime 7.7.1
Обложка                                  : Yes
Примечание                               : ExactAudioCopy v0.99pb4
iTunes_CDDB_1                            : 610B3D09+215948+9+150+9417+31145+59567+79514+105878+126344+164526+189009
iTunes_CDDB_TrackNumber                  : 3

Аудио
Идентификатор                            : 1
Формат                                   : ALAC
Идентификатор кодека                     : alac
Идентификатор кодека/Информация          : Apple Lossless Audio Codec
Продолжительность                        : 6 м. 18 с.
Duration_LastFrame                       : -83 мс.
Вид битрейта                             : Переменный
Битрейт                                  : 1081 Кбит/сек
Каналы                                   : 2 канала
Частота                                  : 44,1 КГц
Битовая глубина                          : 16 бит
Размер потока                            : 48,8 Мбайт (99%)
Язык                                     : English
Дата кодирования                         : UTC 2003-04-03 09:09:35
Дата пометки                             : UTC 2014-05-28 09:22:02

Общее
Полное имя                               : /Users/Denis/Library/Containers/net.mediaarea.mediainfo.mac/Data/Music/iTunes/iTunes Media/Music/Ария/Пляска ада (Live)/1-04 Мессия.m4a
Формат                                   : MPEG-4
Профиль формата                          : Apple audio with iTunes info
Идентификатор кодека                     : M4A
Размер файла                             : 35,3 Мбайт
Продолжительность                        : 4 м. 25 с.
Режим общего битрейта                    : Переменный
Общий поток                              : 1114 Кбит/сек
Альбом                                   : Пляска ада (Live)
Альбом/Исполнитель                       : Ария
Часть/Положение                          : 1
Часть/Всего                              : 2
Трек                                     : Мессия
Трек/Положение                           : 4
Трек/Всего                               : 9
Исполнитель                              : Ария
Жанр                                     : Heavy Metal
Дата записи                              : 2007
Дата кодирования                         : UTC 2009-08-19 13:12:47
Дата пометки                             : UTC 2014-05-28 09:22:02
Программа кодирования                    : X Lossless Decoder 20140504, QuickTime 7.7.1
Обложка                                  : Yes
Примечание                               : ExactAudioCopy v0.99pb4
iTunes_CDDB_1                            : 610B3D09+215948+9+150+9417+31145+59567+79514+105878+126344+164526+189009
iTunes_CDDB_TrackNumber                  : 4

Аудио
Идентификатор                            : 1
Формат                                   : ALAC
Идентификатор кодека                     : alac
Идентификатор кодека/Информация          : Apple Lossless Audio Codec
Продолжительность                        : 4 м. 25 с.
Duration_LastFrame                       : -48 мс.
Вид битрейта                             : Переменный
Битрейт                                  : 1096 Кбит/сек
Каналы                                   : 2 канала
Частота                                  : 44,1 КГц
Битовая глубина                          : 16 бит
Размер потока                            : 34,8 Мбайт (98%)
Язык                                     : English
Дата кодирования                         : UTC 2009-08-19 13:12:47
Дата пометки                             : UTC 2014-05-28 09:22:02

Общее
Полное имя                               : /Users/Denis/Library/Containers/net.mediaarea.mediainfo.mac/Data/Music/iTunes/iTunes Media/Music/Ария/Пляска ада (Live)/1-05 Крещение огнём.m4a
Формат                                   : MPEG-4
Профиль формата                          : Apple audio with iTunes info
Идентификатор кодека                     : M4A
Размер файла                             : 44,7 Мбайт
Продолжительность                        : 5 м. 51 с.
Режим общего битрейта                    : Переменный
Общий поток                              : 1067 Кбит/сек
Альбом                                   : Пляска ада (Live)
Альбом/Исполнитель                       : Ария
Часть/Положение                          : 1
Часть/Всего                              : 2
Трек                                     : Крещение огнём
Трек/Положение                           : 5
Трек/Всего                               : 9
Исполнитель                              : Ария
Жанр                                     : Heavy Metal
Дата записи                              : 2007
Дата кодирования                         : UTC 2023-06-16 05:59:43
Дата пометки                             : UTC 2014-05-28 09:22:02
Программа кодирования                    : X Lossless Decoder 20140504, QuickTime 7.7.1
Обложка                                  : Yes
Примечание                               : ExactAudioCopy v0.99pb4
iTunes_CDDB_1                            : 610B3D09+215948+9+150+9417+31145+59567+79514+105878+126344+164526+189009
iTunes_CDDB_TrackNumber                  : 5

Аудио
Идентификатор                            : 1
Формат                                   : ALAC
Идентификатор кодека                     : alac
Идентификатор кодека/Информация          : Apple Lossless Audio Codec
Продолжительность                        : 5 м. 51 с.
Duration_LastFrame                       : -30 мс.
Вид битрейта                             : Переменный
Битрейт                                  : 1053 Кбит/сек
Каналы                                   : 2 канала
Частота                                  : 44,1 КГц
Битовая глубина                          : 16 бит
Размер потока                            : 44,1 Мбайт (99%)
Язык                                     : English
Дата кодирования                         : UTC 2023-06-16 05:59:43
Дата пометки                             : UTC 2014-05-28 09:22:02

Общее
Полное имя                               : /Users/Denis/Library/Containers/net.mediaarea.mediainfo.mac/Data/Music/iTunes/iTunes Media/Music/Ария/Пляска ада (Live)/1-06 Страж империи.m4a
Формат                                   : MPEG-4
Профиль формата                          : Apple audio with iTunes info
Идентификатор кодека                     : M4A
Размер файла                             : 34,6 Мбайт
Продолжительность                        : 4 м. 32 с.
Режим общего битрейта                    : Переменный
Общий поток                              : 1063 Кбит/сек
Альбом                                   : Пляска ада (Live)
Альбом/Исполнитель                       : Ария
Часть/Положение                          : 1
Часть/Всего                              : 2
Трек                                     : Страж империи
Трек/Положение                           : 6
Трек/Всего                               : 9
Исполнитель                              : Ария
Жанр                                     : Heavy Metal
Дата записи                              : 2007
Дата кодирования                         : UTC 2026-02-11 03:41:03
Дата пометки                             : UTC 2014-05-28 09:22:02
Программа кодирования                    : X Lossless Decoder 20140504, QuickTime 7.7.1
Обложка                                  : Yes
Примечание                               : ExactAudioCopy v0.99pb4
iTunes_CDDB_1                            : 610B3D09+215948+9+150+9417+31145+59567+79514+105878+126344+164526+189009
iTunes_CDDB_TrackNumber                  : 6

Аудио
Идентификатор                            : 1
Формат                                   : ALAC
Идентификатор кодека                     : alac
Идентификатор кодека/Информация          : Apple Lossless Audio Codec
Продолжительность                        : 4 м. 32 с.
Duration_LastFrame                       : -1 мс.
Вид битрейта                             : Переменный
Битрейт                                  : 1046 Кбит/сек
Каналы                                   : 2 канала
Частота                                  : 44,1 КГц
Битовая глубина                          : 16 бит
Размер потока                            : 34,0 Мбайт (98%)
Язык                                     : English
Дата кодирования                         : UTC 2026-02-11 03:41:03
Дата пометки                             : UTC 2014-05-28 09:22:02

Общее
Полное имя                               : /Users/Denis/Library/Containers/net.mediaarea.mediainfo.mac/Data/Music/iTunes/iTunes Media/Music/Ария/Пляска ада (Live)/1-07 Кровь королей.m4a
Формат                                   : MPEG-4
Профиль формата                          : Apple audio with iTunes info
Идентификатор кодека                     : M4A
Размер файла                             : 63,0 Мбайт
Продолжительность                        : 8 м. 29 с.
Режим общего битрейта                    : Переменный
Общий поток                              : 1037 Кбит/сек
Альбом                                   : Пляска ада (Live)
Альбом/Исполнитель                       : Ария
Часть/Положение                          : 1
Часть/Всего                              : 2
Трек                                     : Кровь королей
Трек/Положение                           : 7
Трек/Всего                               : 9
Исполнитель                              : Ария
Жанр                                     : Heavy Metal
Дата записи                              : 2007
Дата пометки                             : UTC 2014-05-28 09:22:02
Программа кодирования                    : X Lossless Decoder 20140504, QuickTime 7.7.1
Обложка                                  : Yes
Примечание                               : ExactAudioCopy v0.99pb4
iTunes_CDDB_1                            : 610B3D09+215948+9+150+9417+31145+59567+79514+105878+126344+164526+189009
iTunes_CDDB_TrackNumber                  : 7

Аудио
Идентификатор                            : 1
Формат                                   : ALAC
Идентификатор кодека                     : alac
Идентификатор кодека/Информация          : Apple Lossless Audio Codec
Продолжительность                        : 8 м. 29 с.
Duration_LastFrame                       : -74 мс.
Вид битрейта                             : Переменный
Битрейт                                  : 1028 Кбит/сек
Каналы                                   : 2 канала
Частота                                  : 44,1 КГц
Битовая глубина                          : 16 бит
Размер потока                            : 62,4 Мбайт (99%)
Язык                                     : English
Дата пометки                             : UTC 2014-05-28 09:22:02

Общее
Полное имя                               : /Users/Denis/Library/Containers/net.mediaarea.mediainfo.mac/Data/Music/iTunes/iTunes Media/Music/Ария/Пляска ада (Live)/1-08 Викинг.m4a
Формат                                   : MPEG-4
Профиль формата                          : Apple audio with iTunes info
Идентификатор кодека                     : M4A
Размер файла                             : 41,0 Мбайт
Продолжительность                        : 5 м. 26 с.
Режим общего битрейта                    : Переменный
Общий поток                              : 1053 Кбит/сек
Альбом                                   : Пляска ада (Live)
Альбом/Исполнитель                       : Ария
Часть/Положение                          : 1
Часть/Всего                              : 2
Трек                                     : Викинг
Трек/Положение                           : 8
Трек/Всего                               : 9
Исполнитель                              : Ария
Жанр                                     : Heavy Metal
Дата записи                              : 2007
Дата пометки                             : UTC 2014-05-28 09:22:02
Программа кодирования                    : X Lossless Decoder 20140504, QuickTime 7.7.1
Обложка                                  : Yes
Примечание                               : ExactAudioCopy v0.99pb4
iTunes_CDDB_1                            : 610B3D09+215948+9+150+9417+31145+59567+79514+105878+126344+164526+189009
iTunes_CDDB_TrackNumber                  : 8

Аудио
Идентификатор                            : 1
Формат                                   : ALAC
Идентификатор кодека                     : alac
Идентификатор кодека/Информация          : Apple Lossless Audio Codec
Продолжительность                        : 5 м. 26 с.
Duration_LastFrame                       : -33 мс.
Вид битрейта                             : Переменный
Битрейт                                  : 1038 Кбит/сек
Каналы                                   : 2 канала
Частота                                  : 44,1 КГц
Битовая глубина                          : 16 бит
Размер потока                            : 40,4 Мбайт (99%)
Язык                                     : English
Дата пометки                             : UTC 2014-05-28 09:22:02

Общее
Полное имя                               : /Users/Denis/Library/Containers/net.mediaarea.mediainfo.mac/Data/Music/iTunes/iTunes Media/Music/Ария/Пляска ада (Live)/1-09 Бал у князя тьмы.m4a
Формат                                   : MPEG-4
Профиль формата                          : Apple audio with iTunes info
Идентификатор кодека                     : M4A
Размер файла                             : 43,4 Мбайт
Продолжительность                        : 5 м. 59 с.
Режим общего битрейта                    : Переменный
Общий поток                              : 1014 Кбит/сек
Альбом                                   : Пляска ада (Live)
Альбом/Исполнитель                       : Ария
Часть/Положение                          : 1
Часть/Всего                              : 2
Трек                                     : Бал у князя тьмы
Трек/Положение                           : 9
Трек/Всего                               : 9
Исполнитель                              : Ария
Жанр                                     : Heavy Metal
Дата записи                              : 2007
Дата пометки                             : UTC 2014-05-28 09:22:03
Программа кодирования                    : X Lossless Decoder 20140504, QuickTime 7.7.1
Обложка                                  : Yes
Примечание                               : ExactAudioCopy v0.99pb4
iTunes_CDDB_1                            : 610B3D09+215948+9+150+9417+31145+59567+79514+105878+126344+164526+189009
iTunes_CDDB_TrackNumber                  : 9

Аудио
Идентификатор                            : 1
Формат                                   : ALAC
Идентификатор кодека                     : alac
Идентификатор кодека/Информация          : Apple Lossless Audio Codec
Продолжительность                        : 5 м. 59 с.
Duration_LastFrame                       : -72 мс.
Вид битрейта                             : Переменный
Битрейт                                  : 1000 Кбит/сек
Каналы                                   : 2 канала
Частота                                  : 44,1 КГц
Битовая глубина                          : 16 бит
Размер потока                            : 42,8 Мбайт (99%)
Язык                                     : English
Дата пометки                             : UTC 2014-05-28 09:22:03

Общее
Полное имя                               : /Users/Denis/Library/Containers/net.mediaarea.mediainfo.mac/Data/Music/iTunes/iTunes Media/Music/Ария/Пляска ада (Live)/2-01 Чужой.m4a
Формат                                   : MPEG-4
Профиль формата                          : Apple audio with iTunes info
Идентификатор кодека                     : M4A
Размер файла                             : 47,3 Мбайт
Продолжительность                        : 6 м. 27 с.
Режим общего битрейта                    : Переменный
Общий поток                              : 1025 Кбит/сек
Альбом                                   : Пляска ада (Live)
Альбом/Исполнитель                       : Ария
Часть/Положение                          : 2
Часть/Всего                              : 2
Трек                                     : Чужой
Трек/Положение                           : 1
Трек/Всего                               : 9
Исполнитель                              : Ария
Жанр                                     : Heavy Metal
Дата записи                              : 2007
Дата пометки                             : UTC 2014-05-28 09:22:03
Программа кодирования                    : X Lossless Decoder 20140504, QuickTime 7.7.1
Обложка                                  : Yes
Примечание                               : ExactAudioCopy v0.99pb4
iTunes_CDDB_1                            : 810BC209+225961+9+150+29212+48926+75536+106726+127068+164045+191769+222954
iTunes_CDDB_TrackNumber                  : 1

Аудио
Идентификатор                            : 1
Формат                                   : ALAC
Идентификатор кодека                     : alac
Идентификатор кодека/Информация          : Apple Lossless Audio Codec
Продолжительность                        : 6 м. 27 с.
Duration_LastFrame                       : -1 мс.
Вид битрейта                             : Переменный
Битрейт                                  : 1012 Кбит/сек
Каналы                                   : 2 канала
Частота                                  : 44,1 КГц
Битовая глубина                          : 16 бит
Размер потока                            : 46,8 Мбайт (99%)
Язык                                     : English
Дата пометки                             : UTC 2014-05-28 09:22:03

Общее
Полное имя                               : /Users/Denis/Library/Containers/net.mediaarea.mediainfo.mac/Data/Music/iTunes/iTunes Media/Music/Ария/Пляска ада (Live)/2-02 Свет былой любви.m4a
Формат                                   : MPEG-4
Профиль формата                          : Apple audio with iTunes info
Идентификатор кодека                     : M4A
Размер файла                             : 32,0 Мбайт
Продолжительность                        : 4 м. 22 с.
Режим общего битрейта                    : Переменный
Общий поток                              : 1022 Кбит/сек
Альбом                                   : Пляска ада (Live)
Альбом/Исполнитель                       : Ария
Часть/Положение                          : 2
Часть/Всего                              : 2
Трек                                     : Свет былой любви
Трек/Положение                           : 2
Трек/Всего                               : 9
Исполнитель                              : Ария
Жанр                                     : Heavy Metal
Дата записи                              : 2007
Дата пометки                             : UTC 2014-05-28 09:22:03
Программа кодирования                    : X Lossless Decoder 20140504, QuickTime 7.7.1
Обложка                                  : Yes
Примечание                               : ExactAudioCopy v0.99pb4
iTunes_CDDB_1                            : 810BC209+225961+9+150+29212+48926+75536+106726+127068+164045+191769+222954
iTunes_CDDB_TrackNumber                  : 2

Аудио
Идентификатор                            : 1
Формат                                   : ALAC
Идентификатор кодека                     : alac
Идентификатор кодека/Информация          : Apple Lossless Audio Codec
Продолжительность                        : 4 м. 22 с.
Duration_LastFrame                       : -89 мс.
Вид битрейта                             : Переменный
Битрейт                                  : 1004 Кбит/сек
Каналы                                   : 2 канала
Частота                                  : 44,1 КГц
Битовая глубина                          : 16 бит
Размер потока                            : 31,5 Мбайт (98%)
Язык                                     : English
Дата пометки                             : UTC 2014-05-28 09:22:03

Общее
Полное имя                               : /Users/Denis/Library/Containers/net.mediaarea.mediainfo.mac/Data/Music/iTunes/iTunes Media/Music/Ария/Пляска ада (Live)/2-03 Штиль.m4a
Формат                                   : MPEG-4
Профиль формата                          : Apple audio with iTunes info
Идентификатор кодека                     : M4A
Размер файла                             : 43,9 Мбайт
Продолжительность                        : 5 м. 54 с.
Режим общего битрейта                    : Переменный
Общий поток                              : 1038 Кбит/сек
Альбом                                   : Пляска ада (Live)
Альбом/Исполнитель                       : Ария
Часть/Положение                          : 2
Часть/Всего                              : 2
Трек                                     : Штиль
Трек/Положение                           : 3
Трек/Всего                               : 9
Исполнитель                              : Ария
Жанр                                     : Heavy Metal
Дата записи                              : 2007
Дата пометки                             : UTC 2014-05-28 09:22:03
Программа кодирования                    : X Lossless Decoder 20140504, QuickTime 7.7.1
Обложка                                  : Yes
Примечание                               : ExactAudioCopy v0.99pb4
iTunes_CDDB_1                            : 810BC209+225961+9+150+29212+48926+75536+106726+127068+164045+191769+222954
iTunes_CDDB_TrackNumber                  : 3

Аудио
Идентификатор                            : 1
Формат                                   : ALAC
Идентификатор кодека                     : alac
Идентификатор кодека/Информация          : Apple Lossless Audio Codec
Продолжительность                        : 5 м. 54 с.
Duration_LastFrame                       : -1 мс.
Вид битрейта                             : Переменный
Битрейт                                  : 1024 Кбит/сек
Каналы                                   : 2 канала
Частота                                  : 44,1 КГц
Битовая глубина                          : 16 бит
Размер потока                            : 43,3 Мбайт (99%)
Язык                                     : English
Дата пометки                             : UTC 2014-05-28 09:22:03

Общее
Полное имя                               : /Users/Denis/Library/Containers/net.mediaarea.mediainfo.mac/Data/Music/iTunes/iTunes Media/Music/Ария/Пляска ада (Live)/2-04 Ночь короче дня.m4a
Формат                                   : MPEG-4
Профиль формата                          : Apple audio with iTunes info
Идентификатор кодека                     : M4A
Размер файла                             : 53,7 Мбайт
Продолжительность                        : 6 м. 55 с.
Режим общего битрейта                    : Переменный
Общий поток                              : 1084 Кбит/сек
Альбом                                   : Пляска ада (Live)
Альбом/Исполнитель                       : Ария
Часть/Положение                          : 2
Часть/Всего                              : 2
Трек                                     : Ночь короче дня
Трек/Положение                           : 4
Трек/Всего                               : 9
Исполнитель                              : Ария
Жанр                                     : Heavy Metal
Дата записи                              : 2007
Дата пометки                             : UTC 2014-05-28 09:22:03
Программа кодирования                    : X Lossless Decoder 20140504, QuickTime 7.7.1
Обложка                                  : Yes
Примечание                               : ExactAudioCopy v0.99pb4
iTunes_CDDB_1                            : 810BC209+225961+9+150+29212+48926+75536+106726+127068+164045+191769+222954
iTunes_CDDB_TrackNumber                  : 4

Аудио
Идентификатор                            : 1
Формат                                   : ALAC
Идентификатор кодека                     : alac
Идентификатор кодека/Информация          : Apple Lossless Audio Codec
Продолжительность                        : 6 м. 55 с.
Duration_LastFrame                       : -49 мс.
Вид битрейта                             : Переменный
Битрейт                                  : 1072 Кбит/сек
Каналы                                   : 2 канала
Частота                                  : 44,1 КГц
Битовая глубина                          : 16 бит
Размер потока                            : 53,1 Мбайт (99%)
Язык                                     : English
Дата пометки                             : UTC 2014-05-28 09:22:03

Общее
Полное имя                               : /Users/Denis/Library/Containers/net.mediaarea.mediainfo.mac/Data/Music/iTunes/iTunes Media/Music/Ария/Пляска ада (Live)/2-05 Патриот.m4a
Формат                                   : MPEG-4
Профиль формата                          : Apple audio with iTunes info
Идентификатор кодека                     : M4A
Размер файла                             : 34,9 Мбайт
Продолжительность                        : 4 м. 31 с.
Режим общего битрейта                    : Переменный
Общий поток                              : 1080 Кбит/сек
Альбом                                   : Пляска ада (Live)
Альбом/Исполнитель                       : Ария
Часть/Положение                          : 2
Часть/Всего                              : 2
Трек                                     : Патриот
Трек/Положение                           : 5
Трек/Всего                               : 9
Исполнитель                              : Ария
Жанр                                     : Heavy Metal
Дата записи                              : 2007
Дата пометки                             : UTC 2014-05-28 09:22:03
Программа кодирования                    : X Lossless Decoder 20140504, QuickTime 7.7.1
Обложка                                  : Yes
Примечание                               : ExactAudioCopy v0.99pb4
iTunes_CDDB_1                            : 810BC209+225961+9+150+29212+48926+75536+106726+127068+164045+191769+222954
iTunes_CDDB_TrackNumber                  : 5

Аудио
Идентификатор                            : 1
Формат                                   : ALAC
Идентификатор кодека                     : alac
Идентификатор кодека/Информация          : Apple Lossless Audio Codec
Продолжительность                        : 4 м. 31 с.
Duration_LastFrame                       : -75 мс.
Вид битрейта                             : Переменный
Битрейт                                  : 1063 Кбит/сек
Каналы                                   : 2 канала
Частота                                  : 44,1 КГц
Битовая глубина                          : 16 бит
Размер потока                            : 34,4 Мбайт (98%)
Язык                                     : English
Дата пометки                             : UTC 2014-05-28 09:22:03

Общее
Полное имя                               : /Users/Denis/Library/Containers/net.mediaarea.mediainfo.mac/Data/Music/iTunes/iTunes Media/Music/Ария/Пляска ада (Live)/2-06 Баллада о древнерусском воине.m4a
Формат                                   : MPEG-4
Профиль формата                          : Apple audio with iTunes info
Идентификатор кодека                     : M4A
Размер файла                             : 62,9 Мбайт
Продолжительность                        : 8 м. 13 с.
Режим общего битрейта                    : Переменный
Общий поток                              : 1070 Кбит/сек
Альбом                                   : Пляска ада (Live)
Альбом/Исполнитель                       : Ария
Часть/Положение                          : 2
Часть/Всего                              : 2
Трек                                     : Баллада о древнерусском воине
Трек/Положение                           : 6
Трек/Всего                               : 9
Исполнитель                              : Ария
Жанр                                     : Heavy Metal
Дата записи                              : 2007
Дата кодирования                         : UTC 1988-05-17 08:31:11
Дата пометки                             : UTC 2014-05-28 09:22:03
Программа кодирования                    : X Lossless Decoder 20140504, QuickTime 7.7.1
Обложка                                  : Yes
Примечание                               : ExactAudioCopy v0.99pb4
iTunes_CDDB_1                            : 810BC209+225961+9+150+29212+48926+75536+106726+127068+164045+191769+222954
iTunes_CDDB_TrackNumber                  : 6

Аудио
Идентификатор                            : 1
Формат                                   : ALAC
Идентификатор кодека                     : alac
Идентификатор кодека/Информация          : Apple Lossless Audio Codec
Продолжительность                        : 8 м. 13 с.
Duration_LastFrame                       : -72 мс.
Вид битрейта                             : Переменный
Битрейт                                  : 1060 Кбит/сек
Каналы                                   : 2 канала
Частота                                  : 44,1 КГц
Битовая глубина                          : 16 бит
Размер потока                            : 62,3 Мбайт (99%)
Язык                                     : English
Дата кодирования                         : UTC 1988-05-17 08:31:11
Дата пометки                             : UTC 2014-05-28 09:22:03

Общее
Полное имя                               : /Users/Denis/Library/Containers/net.mediaarea.mediainfo.mac/Data/Music/iTunes/iTunes Media/Music/Ария/Пляска ада (Live)/2-07 Улица роз.m4a
Формат                                   : MPEG-4
Профиль формата                          : Apple audio with iTunes info
Идентификатор кодека                     : M4A
Размер файла                             : 47,0 Мбайт
Продолжительность                        : 6 м. 9 с.
Режим общего битрейта                    : Переменный
Общий поток                              : 1068 Кбит/сек
Альбом                                   : Пляска ада (Live)
Альбом/Исполнитель                       : Ария
Часть/Положение                          : 2
Часть/Всего                              : 2
Трек                                     : Улица роз
Трек/Положение                           : 7
Трек/Всего                               : 9
Исполнитель                              : Ария
Жанр                                     : Heavy Metal
Дата записи                              : 2007
Дата кодирования                         : UTC 1988-05-17 08:31:11
Дата пометки                             : UTC 2014-05-28 09:22:03
Программа кодирования                    : X Lossless Decoder 20140504, QuickTime 7.7.1
Обложка                                  : Yes
Примечание                               : ExactAudioCopy v0.99pb4
iTunes_CDDB_1                            : 810BC209+225961+9+150+29212+48926+75536+106726+127068+164045+191769+222954
iTunes_CDDB_TrackNumber                  : 7

Аудио
Идентификатор                            : 1
Формат                                   : ALAC
Идентификатор кодека                     : alac
Идентификатор кодека/Информация          : Apple Lossless Audio Codec
Продолжительность                        : 6 м. 9 с.
Duration_LastFrame                       : -8 мс.
Вид битрейта                             : Переменный
Битрейт                                  : 1054 Кбит/сек
Каналы                                   : 2 канала
Частота                                  : 44,1 КГц
Битовая глубина                          : 16 бит
Размер потока                            : 46,5 Мбайт (99%)
Язык                                     : English
Дата кодирования                         : UTC 1988-05-17 08:31:11
Дата пометки                             : UTC 2014-05-28 09:22:03

Общее
Полное имя                               : /Users/Denis/Library/Containers/net.mediaarea.mediainfo.mac/Data/Music/iTunes/iTunes Media/Music/Ария/Пляска ада (Live)/2-08 Небо тебя найдёт.m4a
Формат                                   : MPEG-4
Профиль формата                          : Apple audio with iTunes info
Идентификатор кодека                     : M4A
Размер файла                             : 52,9 Мбайт
Продолжительность                        : 6 м. 55 с.
Режим общего битрейта                    : Переменный
Общий поток                              : 1068 Кбит/сек
Альбом                                   : Пляска ада (Live)
Альбом/Исполнитель                       : Ария
Часть/Положение                          : 2
Часть/Всего                              : 2
Трек                                     : Небо тебя найдёт
Трек/Положение                           : 8
Трек/Всего                               : 9
Исполнитель                              : Ария
Жанр                                     : Heavy Metal
Дата записи                              : 2007
Дата кодирования                         : UTC 2008-01-18 01:01:03
Дата пометки                             : UTC 2014-05-28 09:22:03
Программа кодирования                    : X Lossless Decoder 20140504, QuickTime 7.7.1
Обложка                                  : Yes
Примечание                               : ExactAudioCopy v0.99pb4
iTunes_CDDB_1                            : 810BC209+225961+9+150+29212+48926+75536+106726+127068+164045+191769+222954
iTunes_CDDB_TrackNumber                  : 8

Аудио
Идентификатор                            : 1
Формат                                   : ALAC
Идентификатор кодека                     : alac
Идентификатор кодека/Информация          : Apple Lossless Audio Codec
Продолжительность                        : 6 м. 55 с.
Duration_LastFrame                       : -23 мс.
Вид битрейта                             : Переменный
Битрейт                                  : 1056 Кбит/сек
Каналы                                   : 2 канала
Частота                                  : 44,1 КГц
Битовая глубина                          : 16 бит
Размер потока                            : 52,4 Мбайт (99%)
Язык                                     : English
Дата кодирования                         : UTC 2008-01-18 01:01:03
Дата пометки                             : UTC 2014-05-28 09:22:03

Общее
Полное имя                               : /Users/Denis/Library/Containers/net.mediaarea.mediainfo.mac/Data/Music/iTunes/iTunes Media/Music/Ария/Пляска ада (Live)/2-09 Оутро.m4a
Формат                                   : MPEG-4
Профиль формата                          : Apple audio with iTunes info
Идентификатор кодека                     : M4A
Размер файла                             : 4,55 Мбайт
Продолжительность                        : 40 с.
Режим общего битрейта                    : Переменный
Общий поток                              : 953 Кбит/сек
Альбом                                   : Пляска ада (Live)
Альбом/Исполнитель                       : Ария
Часть/Положение                          : 2
Часть/Всего                              : 2
Трек                                     : Оутро
Трек/Положение                           : 9
Трек/Всего                               : 9
Исполнитель                              : Ария
Жанр                                     : Heavy Metal
Дата записи                              : 2007
Дата кодирования                         : UTC 1998-06-23 18:56:15
Дата пометки                             : UTC 2014-05-28 09:22:03
Программа кодирования                    : X Lossless Decoder 20140504, QuickTime 7.7.1
Обложка                                  : Yes
Примечание                               : ExactAudioCopy v0.99pb4
iTunes_CDDB_1                            : 810BC209+225961+9+150+29212+48926+75536+106726+127068+164045+191769+222954
iTunes_CDDB_TrackNumber                  : 9

Аудио
Идентификатор                            : 1
Формат                                   : ALAC
Идентификатор кодека                     : alac
Идентификатор кодека/Информация          : Apple Lossless Audio Codec
Продолжительность                        : 40 с.
Duration_LastFrame                       : -31 мс.
Вид битрейта                             : Переменный
Битрейт                                  : 835 Кбит/сек
Каналы                                   : 2 канала
Частота                                  : 44,1 КГц
Битовая глубина                          : 16 бит
Размер потока                            : 3,99 Мбайт (88%)
Язык                                     : English
Дата кодирования                         : UTC 1998-06-23 18:56:15
Дата пометки                             : UTC 2014-05-28 09:22:03
Код:

-----------------------

DON'T MODIFY THIS FILE

-----------------------

PERFORMER: auCDtect Task Manager, ver. 1.6.0 RC1 build 1.6.0.1
Copyright (c) 2008-2010 y-soft. All rights reserved
http://y-soft.org

ANALYZER: auCDtect: CD records authenticity detector, version 0.8.2
Copyright (c) 2004 Oleg Berngardt. All rights reserved.
Copyright (c) 2004 Alexander Djourik. All rights reserved.

FILE: 2-09 Оутро.m4a
  Size: 4775919 Hash: 2184B09CD9027A210037B2C2717A0B98 Accuracy: -m8
  Conclusion: CDDA 100%
  Signature: F38E06AF27A71B7EF267098F09D6AA3422840139
FILE: 2-08 Небо тебя найдёт.m4a
  Size: 55517798 Hash: 3923251D3A5ECB1AE8F57D726224A47B Accuracy: -m0
  Conclusion: CDDA 100%
  Signature: 15C07ED146146B4C5F92C9A48A8E5A901B1DA242
FILE: 2-07 Улица роз.m4a
  Size: 49331438 Hash: 30DDCA43EDA1AD472170863C3B065937 Accuracy: -m0
  Conclusion: CDDA 100%
  Signature: C8EB66F6E50B822D7C88B39B7219C74D001B5EB7
FILE: 2-06 Баллада о древнерусском воине.m4a
  Size: 65967195 Hash: 283C5DD6E38202F0D865506B7425A4F2 Accuracy: -m0
  Conclusion: CDDA 100%
  Signature: ABE28C27CE4650E984321403584610F43663B8C7
FILE: 2-05 Патриот.m4a
  Size: 36626031 Hash: 92A2D0459C29D48BB6D20F07ECEA7024 Accuracy: -m0
  Conclusion: CDDA 100%
  Signature: 69C912920759080A5AC077EC0FF058175B1219CE
FILE: 2-04 Ночь короче дня.m4a
  Size: 56332123 Hash: FB734F17556BFCCB140AA7C0CE546FC3 Accuracy: -m0
  Conclusion: CDDA 100%
  Signature: 7230CCE92CF01E5AE9396F1BF1EA97D448E7D359
FILE: 2-03 Штиль.m4a
  Size: 46015991 Hash: 53D44F96F05313E455FF5BFE59FA9563 Accuracy: -m0
  Conclusion: CDDA 100%
  Signature: 345A86AF12F08CF02E91C7815BA8765E510E4611
FILE: 2-02 Свет былой любви.m4a
  Size: 33574175 Hash: D7E037D36768C9D4CA57E001B9C6E2BA Accuracy: -m0
  Conclusion: CDDA 100%
  Signature: B7A32A1ECCE54C4DCE095CCC0D8DA912B3510C77
FILE: 2-01 Чужой.m4a
  Size: 49645710 Hash: C462B757C573C3B28025AD1B6184F5FD Accuracy: -m0
  Conclusion: CDDA 100%
  Signature: E56C16E9679CAD5D0201EF3D0B0AEEEA926F0896
FILE: 1-09 Бал у князя тьмы.m4a
  Size: 45515932 Hash: D43BC479CB64C2EF0753BC516CD427D5 Accuracy: -m0
  Conclusion: CDDA 100%
  Signature: 7EAF04577E95AD5CEE18291CA28D8DE9EC1A6521
FILE: 1-08 Викинг.m4a
  Size: 42985014 Hash: F7BC714F4463712E892ADB04600D68FB Accuracy: -m0
  Conclusion: CDDA 100%
  Signature: 7CED712AC4EDAABA23B47979ABA3CD0902826047
FILE: 1-07 Кровь королей.m4a
  Size: 66015945 Hash: D76198D0CC853F3FC3A8D581599E434D Accuracy: -m0
  Conclusion: CDDA 100%
  Signature: D05C59B9705AEFD1753F4D0A4747AFA30279E55C
FILE: 1-06 Страж империи.m4a
  Size: 36254829 Hash: 59FFB4ADB3143E1720345DC339D0444C Accuracy: -m0
  Conclusion: CDDA 100%
  Signature: 75A4CB34C51F27FE4E48A434654BB9DB7BA7FCE3
FILE: 1-05 Крещение огнём.m4a
  Size: 46866292 Hash: 3AB5B630BEE4EBB1EB49EA6E48FF54B8 Accuracy: -m0
  Conclusion: CDDA 100%
  Signature: C28925F38A2240736F9249B60B131269008F4022
FILE: 1-04 Мессия.m4a
  Size: 37033290 Hash: 3CBEF337ED51265F123FEAEB0982D839 Accuracy: -m0
  Conclusion: CDDA 100%
  Signature: 73F0A581D54E33D128B75FA29ED4C4E8FE8E6309
FILE: 1-03 Колизей.m4a
  Size: 51806788 Hash: F07E34E3C8FF50BF41974B8E665B769A Accuracy: -m0
  Conclusion: CDDA 100%
  Signature: 83A01F537715375CC7A063C6630947C6897C68B5
FILE: 1-02 Последний закат.m4a
  Size: 39530118 Hash: 6CCDA681BF38D6429B8717B052B12B65 Accuracy: -m0
  Conclusion: CDDA 100%
  Signature: 50F3BAE92310BB302FCE40D41F6297FC71C136C2
FILE: 1-01 Интро.m4a
  Size: 14805835 Hash: 81BB165BA8D597ECAE2B9781B3F86C56 Accuracy: -m0
  Conclusion: CDDA 100%
  Signature: 45E2E3285C954D8A7115ABC5FDC4B4F9ECCD49D0
Концертные альбомы в ALAC:
Сделано в России (1998 год)
В поисках новой жертвы (2003 год)
Живой огонь (2004 год)
Пляска ада (2007 год)
Герой асфальта : 20 лет (2008 год)
Эхо судного дня (Последний концерт А. Беркута - неофициальное издание) - Bootleg (2011 год)
В желтом круге арены (2012 год)


Время раздачи: с 20:00 до 03:00 постоянно / часто 24/7 - До первых 5 скачавших
[NNM-Club.me]_Ariya (2007) Plyaska ada (Live).torrent
 Торрент:   Зарегистрирован
 
Зарегистрируйтесь и скачайте торрент!
16 KB
Free Leech
Примагнититься
 Зарегистрирован:   28 Май 2014 17:44:13
 Размер:   743 MB  (
 Рейтинг:    (Голосов: 9)
 Поблагодарили:   15
 Проверка:   Оформление проверено модератором 28 Май 2014 19:40:32
Как cкачать  ·  Как раздать  ·  Правильно оформить  ·  Поднять ратио!  
Показать сообщения:   
Начать новую тему   Ответить на тему    Торрент-трекер NNM-Club -> Аудио и Видео -> Музыка Lossless (ALAC) Часовой пояс: GMT + 3
Страница 1 из 1