Классический форум-трекер
canvas not supported
Нас вместе: 4 205 950

Yuuhei Satellite - 28 альбомов (2010-2014) Touhou Vocal /Doujin/ [FLAC|Lossless] <J-Pop, J-Rock, Electronic>


 
 
RSS
Начать новую тему   Ответить на тему    Торрент-трекер NNM-Club -> East Asian Music -> Doujin Music (Lossless)
Автор Сообщение
ElSwanko ®
Куратор Аниме
Модератор Музыки
Стаж: 16 лет
Сообщений: 17894
Ratio: 1026.529
Поблагодарили: 77678
100%
Откуда: ур-пространство преконтинуума
roody.gif

Yuuhei Satellite |


Кодек: FLAC
Битрейт: lossless
Страна: Япония
Тип издания: Doujin
Формат: Touhou Vocal
Жанр: J-Pop, J-Rock, Electronic
Исполнители: senya, Autobahn, deitarabotchi, Iceon, kamase-tora, HiZuMi


Yuuhei Satellite | Yuuhei Katharsis

Трeклист:

[04:02] 01. senya -
[04:54] 02. senya -
[05:04] 03. senya -

Прoдолжительность: 00:00:14:01
Код:

[CUETools log; Date: 30.01.2015 23:32:46; Version: 2.1.5]
[CTDB TOCID: mrXhmaBcmoHvNV2DyBiWVdK.OkQ-] disk not present in database.
[AccurateRip ID: 0001db52-00064168-1d034903] disk not present in database.

Track Peak [ CRC32  ] [W/O NULL]
 --   97,9 [8DAD4A63] [2F8D8417]
 01   97,4 [35C6AF6A] [0C5FE20B]
 02   97,0 [3C9FE87D] [B21E1C4A]
 03   97,9 [032C2CED] [D13FF90A]
Код:

-----------------------

DON'T MODIFY THIS FILE

-----------------------

PERFORMER: auCDtect Task Manager, ver. 1.6.0 RC1 build 1.6.0.1
Copyright (c) 2008-2010 y-soft. All rights reserved
http://y-soft.org

ANALYZER: auCDtect: CD records authenticity detector, version 0.8.2
Copyright (c) 2004 Oleg Berngardt. All rights reserved.
Copyright (c) 2004 Alexander Djourik. All rights reserved.

FILE: 01. senya — .flac
  Size: 32413209 Hash: 0AB40ED5C670FD896B9CB6302FD11989 Accuracy: -m0
  Conclusion: CDDA 100%
  Signature: 5561879864EA1A2D45EBB943CBA480ABD53D6A4B
FILE: 02. senya — .flac
  Size: 42223407 Hash: C64C2CC44D45AB9B8806C2202BE510EE Accuracy: -m0
  Conclusion: CDDA 100%
  Signature: 924F96B0AE0BFF5770A9BA23E9C0A4C0C2E9E5CC
FILE: 03. senya — .flac
  Size: 43712302 Hash: 6C4ADF5CF479EBDB973B34AA8A48DF06 Accuracy: -m0
  Conclusion: CDDA 100%
  Signature: 01C268D6D27B1EE091C170467B58CE8708B2B8E5
Трeклист:

[03:40] 01. senya - ‰
[04:04] 02. senya -
[03:58] 03. senya -
[05:09] 04. senya -
[04:55] 05. senya - -Solo Version-
[03:53] 06. senya -

Прoдолжительность: 00:00:25:42
Код:

[CUETools log; Date: 30.01.2015 23:32:51; Version: 2.1.5]
[CTDB TOCID: DKV0taWgGoczKWmsjQ4dzUvmMtw-] found.
Track | CTDB Status
  1   | ( 0/11) No match
  2   | ( 0/11) No match
  3   | ( 0/11) No match
  4   | ( 0/11) No match
  5   | ( 0/11) No match
  6   | ( 0/11) No match
[AccurateRip ID: 000602d9-002074e1-2f060606] found.
Track   [  CRC   |   V2   ] Status
 01     [2d5e13b5|b3b1eff0] (0+0/3) No match
 02     [602a5cee|1b6f5919] (0+0/3) No match
 03     [6c589982|ec1c0402] (0+0/3) No match
 04     [85ab8b18|ea0ce28f] (0+0/3) No match
 05     [436bea8b|57f3a8c0] (0+0/3) No match
 06     [d6cace48|353c0fa7] (0+0/3) No match

Track Peak [ CRC32  ] [W/O NULL]
 --   97,9 [A10DF224] [6EEBD1D1]
 01   97,9 [79FBFE84] [E6AA0DBA]
 02   97,9 [917E2CED] [B2BC4FB7]
 03   97,9 [0CE7FA54] [CFB40EFE]
 04   97,9 [A6D0A671] [42CEE6CD]
 05   97,9 [8E715C47] [369B76D1]
 06   97,9 [6D0371C3] [D547365F]
Код:

-----------------------

DON'T MODIFY THIS FILE

-----------------------

PERFORMER: auCDtect Task Manager, ver. 1.6.0 RC1 build 1.6.0.1
Copyright (c) 2008-2010 y-soft. All rights reserved
http://y-soft.org

ANALYZER: auCDtect: CD records authenticity detector, version 0.8.2
Copyright (c) 2004 Oleg Berngardt. All rights reserved.
Copyright (c) 2004 Alexander Djourik. All rights reserved.

FILE: 01. senya — ‰.flac
  Size: 29398897 Hash: 7A5C0E8244A3C076E6B0FEA25FDE73D6 Accuracy: -m0
  Conclusion: CDDA 100%
  Signature: CA8CB3E85AE46A0B1AF5A94F43666555CFD00412
FILE: 02. senya — .flac
  Size: 31977593 Hash: 94FC99E3D14C721C53191187921F9C6D Accuracy: -m0
  Conclusion: CDDA 99%
  Signature: 9851D916F47716164D4FD52E212F6D67DAC4071C
FILE: 03. senya — .flac
  Size: 33329487 Hash: 493C46F17037B4D0E0263ECAA6B49E70 Accuracy: -m0
  Conclusion: CDDA 100%
  Signature: FF8BBD0B2A09B29BF73E38D3BAF1DEE793F65300
FILE: 04. senya — .flac
  Size: 41982210 Hash: 6A759B10BC4C7A10147AA621C72DD8F8 Accuracy: -m0
  Conclusion: CDDA 100%
  Signature: 34F7D01643A36558E4EF8AEB3EB2BD26E528C45C
FILE: 05. senya —  -Solo Version-.flac
  Size: 40942337 Hash: 68E480EDFA99E7E47027C3CB40053250 Accuracy: -m0
  Conclusion: CDDA 99%
  Signature: 93068AC2892210E8CB6EE4AEB64FD71996394E2B
FILE: 06. senya — .flac
  Size: 31686805 Hash: 389794A781E03F193419DF1AD9002444 Accuracy: -m0
  Conclusion: CDDA 100%
  Signature: 5E2935DC5161AD9B3C36356823886A11A7687B0D
Трeклист:

[03:15] 01. senya - ‰‰-Autobahn Remix-

Прoдолжительность: 00:00:03:15
Код:

-----------------------

DON'T MODIFY THIS FILE

-----------------------

PERFORMER: auCDtect Task Manager, ver. 1.6.0 RC1 build 1.6.0.1
Copyright (c) 2008-2010 y-soft. All rights reserved
http://y-soft.org

ANALYZER: auCDtect: CD records authenticity detector, version 0.8.2
Copyright (c) 2004 Oleg Berngardt. All rights reserved.
Copyright (c) 2004 Alexander Djourik. All rights reserved.

FILE: 01. senya — ‰‰-Autobahn Remix-.flac
  Size: 26685907 Hash: 0CF464D9379BDE9478EFC11A59714393 Accuracy: -m0
  Conclusion: CDDA 100%
  Signature: 860F8DED065BBD99BE0A7510E2735660A5202FEA
Трeклист:

[03:08] 01. senya - Little devil
[04:06] 02. senya -
[05:17] 03. senya - IRON RAIN
[04:08] 04. senya - philosophy
[04:56] 05. senya -
[04:41] 06. senya - Opposite World

Прoдолжительность: 00:00:26:18
Код:

[CUETools log; Date: 30.01.2015 23:32:56; Version: 2.1.5]
[CTDB TOCID: xnEWlEQcy3eCnHjlFsNXxuyovak-] found.
Track | CTDB Status
  1   | (0/9) No match
  2   | (0/9) No match
  3   | (0/9) No match
  4   | (0/9) No match
  5   | (0/9) No match
  6   | (0/9) No match
[AccurateRip ID: 00060259-0020a38e-40062a06] found.
Track   [  CRC   |   V2   ] Status
 01     [773bfc19|7d39e709] (0+0/4) No match
 02     [ad437f89|a7792499] (0+0/5) No match
 03     [8916df5b|8b38c2cb] (0+0/5) No match
 04     [fa109b70|133071b2] (0+0/5) No match
 05     [5e0842d9|1096fda1] (0+0/5) No match
 06     [a8221f97|50fd428a] (0+0/5) No match

Track Peak [ CRC32  ] [W/O NULL]
 --   97,9 [DA7B35AD] [0C106254]
 01   97,9 [DF452590] [3EB5E2FF]
 02   97,9 [FED875A5] [64E31D17]
 03   97,9 [B20C7486] [A92AA5C3]
 04   97,9 [96C8281E] [A8A69E81]
 05   97,9 [24AA072C] [88CF0519]
 06   97,9 [CCEF3933] [A3B152F0]
Код:

-----------------------

DON'T MODIFY THIS FILE

-----------------------

PERFORMER: auCDtect Task Manager, ver. 1.6.0 RC1 build 1.6.0.1
Copyright (c) 2008-2010 y-soft. All rights reserved
http://y-soft.org

ANALYZER: auCDtect: CD records authenticity detector, version 0.8.2
Copyright (c) 2004 Oleg Berngardt. All rights reserved.
Copyright (c) 2004 Alexander Djourik. All rights reserved.

FILE: 01. senya — Little devil.flac
  Size: 27184391 Hash: A03CC3EBA67E59BB63A3CB725F64B3F6 Accuracy: -m0
  Conclusion: CDDA 100%
  Signature: AFEC33AF1130349FD7F8989D77A74A6A23D1BD68
FILE: 02. senya — .flac
  Size: 33353748 Hash: F311A4F77234AB4CA5755659CD5AAE95 Accuracy: -m0
  Conclusion: CDDA 100%
  Signature: F2535942C2D1DAA88D4313E58E9560A45F3B7BAC
FILE: 03. senya — IRON RAIN.flac
  Size: 41157603 Hash: 0B9026DF7EB533C549C95775C0F9D0D4 Accuracy: -m0
  Conclusion: CDDA 100%
  Signature: 27E87D58F2DF66AEA388AE30BF4A39633310FE2D
FILE: 04. senya — philosophy.flac
  Size: 32218418 Hash: 43631FD852F7C41A29C53E627ED6FD76 Accuracy: -m0
  Conclusion: CDDA 100%
  Signature: EA95540D6C54261BC67940B7A7DC004C5D74727E
FILE: 05. senya — .flac
  Size: 39908400 Hash: 6652309E2C2D77A825A9D91A957F0F81 Accuracy: -m0
  Conclusion: CDDA 100%
  Signature: 656F45B2DB5F5E116ED4C677A40851350A448EDC
FILE: 06. senya — Opposite World.flac
  Size: 33669745 Hash: EC386E8B1F68C9EC8DB5952F477D7311 Accuracy: -m0
  Conclusion: CDDA 100%
  Signature: 2760ADA0CACEEB5FCF11681413FDC653E46E1C04
Трeклист:

[04:34] 01. senya -
[05:40] 02. senya -
[03:36] 03. senya -
[03:19] 04. senya -
[04:55] 05. senya -
[03:58] 06. senya -
[03:08] 07. senya -

Прoдолжительность: 00:00:29:14
Код:

[CUETools log; Date: 30.01.2015 23:33:05; Version: 2.1.5]
[CTDB TOCID: PuHCC00j4qsQzFoDmwcTJXI2CSQ-] found.
Track | CTDB Status
  1   | (0/7) No match
  2   | (0/7) No match
  3   | (0/7) No match
  4   | (0/7) No match
  5   | (0/7) No match
  6   | (0/7) No match
  7   | (0/7) No match
[AccurateRip ID: 000878c7-00322ec0-5806da07] found.
Track   [  CRC   |   V2   ] Status
 01     [fe1fec22|d352b2a4] (0+0/2) No match
 02     [1c015d90|6455f135] (0+0/2) No match
 03     [df4896f2|f6a69453] (0+0/2) No match
 04     [0b22b218|f94c100f] (0+0/2) No match
 05     [3b3dba8e|2fe15dac] (0+0/2) No match
 06     [3d98cc47|ee0c808d] (0+0/2) No match
 07     [74b2f28c|fda1e0c7] (0+0/2) No match

Track Peak [ CRC32  ] [W/O NULL]
 --   97,9 [AD72AD6D] [2970CBA4]
 01   96,8 [BC97B1B9] [A8F9394C]
 02   96,8 [BA2D1919] [5415365D]
 03   97,9 [E2A98C2A] [60D2A946]
 04   96,8 [A4B226AA] [6DB79CCD]
 05   96,8 [AFA7FC12] [2F8977DD]
 06   97,9 [2E167C43] [E4BFDDDF]
 07   97,9 [3AA3E726] [3FEC553F]
Код:

-----------------------

DON'T MODIFY THIS FILE

-----------------------

PERFORMER: auCDtect Task Manager, ver. 1.6.0 RC1 build 1.6.0.1
Copyright (c) 2008-2010 y-soft. All rights reserved
http://y-soft.org

ANALYZER: auCDtect: CD records authenticity detector, version 0.8.2
Copyright (c) 2004 Oleg Berngardt. All rights reserved.
Copyright (c) 2004 Alexander Djourik. All rights reserved.

FILE: 01. senya — .flac
  Size: 34695412 Hash: 31124B864267AE5E7267EE7ACCC552ED Accuracy: -m0
  Conclusion: CDDA 100%
  Signature: A5DC75FC4B6679F9BC0F63F3F4339648049AE12E
FILE: 02. senya — .flac
  Size: 46205745 Hash: DB055CB91B7D033DA9DA7C9A06439B0F Accuracy: -m0
  Conclusion: CDDA 100%
  Signature: 98E443EA9871A5E5F38DB316321DE89FC3DCFB9F
FILE: 03. senya — .flac
  Size: 28882402 Hash: CBCD107646A98AF521FBF3E72E502608 Accuracy: -m0
  Conclusion: CDDA 100%
  Signature: CE10D2A9F04B5B94FAC855CFBDE4367085E88596
FILE: 04. senya — .flac
  Size: 28589226 Hash: 6960D005B1E42C82E55E89B283C2CE16 Accuracy: -m0
  Conclusion: CDDA 100%
  Signature: 256EEDFA03B5CF401DBB1C8BD70CC0CB13303100
FILE: 05. senya — .flac
  Size: 41737384 Hash: CB1851C545C212352D5D1605C4CA5818 Accuracy: -m0
  Conclusion: CDDA 100%
  Signature: 8C57DF0326F8DAFD3C9A68E1C68BA69FAB9A3057
FILE: 06. senya — .flac
  Size: 31722150 Hash: 6967847F6CD562064A2CDBD31428CE46 Accuracy: -m0
  Conclusion: CDDA 100%
  Signature: 180550A2395CC4A0F3235421AA07A7D1DBF1ADAD
FILE: 07. senya — .flac
  Size: 28440040 Hash: ED7E890E4AAB7AF3BDB1B01BFC7A77E2 Accuracy: -m0
  Conclusion: CDDA 100%
  Signature: E26AA28F3C901F0D4F1BD397B81E2B7DE211E352
Трeклист:

[04:51] 01. senya -
[04:21] 02. senya -
[04:01] 03. senya - ‰(Autobahn Remix)
[04:51] 04. Iceon - (Instrumental)
[04:21] 05. ‰- (Instrumental)

Прoдолжительность: 00:00:22:25
Код:

[CUETools log; Date: 30.01.2015 23:33:10; Version: 2.1.5]
[CTDB TOCID: wWcjGU8EPU.C2.qrKi19ogC1IAs-] found.
Track | CTDB Status
  1   | (0/1) No match
  2   | (0/1) No match
  3   | (0/1) No match
  4   | (0/1) No match
  5   | (0/1) No match
[AccurateRip ID: 0004a742-0015a2ac-42054105] found.
Track   [  CRC   |   V2   ] Status
 01     [903e2d71|0c182b80] (0+0/1) No match
 02     [5b504c38|43f042a0] (0+0/1) No match
 03     [b5821824|da30da79] (0+0/1) No match
 04     [671a493a|3bf0bcec] (0+0/1) No match
 05     [4339d725|34bca2d0] (0+0/1) No match

Track Peak [ CRC32  ] [W/O NULL]
 --   97,9 [5D88B956] [582C7121]
 01   97,9 [77C0B167] [47A5257F]
 02   97,9 [A621B56C] [217EC342]
 03   97,9 [31BE5F6E] [1235C509]
 04   97,9 [3EA0FDCC] [123B7C7A]
 05   97,9 [39532D18] [B4044EAF]
Код:

-----------------------

DON'T MODIFY THIS FILE

-----------------------

PERFORMER: auCDtect Task Manager, ver. 1.6.0 RC1 build 1.6.0.1
Copyright (c) 2008-2010 y-soft. All rights reserved
http://y-soft.org

ANALYZER: auCDtect: CD records authenticity detector, version 0.8.2
Copyright (c) 2004 Oleg Berngardt. All rights reserved.
Copyright (c) 2004 Alexander Djourik. All rights reserved.

FILE: 01. senya — .flac
  Size: 38184822 Hash: A98319E5CCBA3036194D74A7B82BE3AD Accuracy: -m0
  Conclusion: CDDA 100%
  Signature: B1D7EE0C29CDC6EFBE76F33AA1E8CFB36D0D2B4E
FILE: 02. senya — .flac
  Size: 36570001 Hash: 9A29A73ED0C845F0E6DE7695CBDCE7AA Accuracy: -m0
  Conclusion: CDDA 100%
  Signature: 62BDD42E249097F325FACF59857C28E33FD275D7
FILE: 03. senya — ‰(Autobahn Remix).flac
  Size: 33332864 Hash: EBEAF9F6AFB10BE3710302E08158DB88 Accuracy: -m0
  Conclusion: CDDA 100%
  Signature: 62CE73F61C12BB11BA1E0073F2EAE10E86E4F96B
FILE: 04. Iceon —  (Instrumental).flac
  Size: 37732078 Hash: F20019B62F3D9FB9C77B15668C4780A7 Accuracy: -m0
  Conclusion: CDDA 100%
  Signature: AE6814E7CF5C8856CD6313EE68D7EAEE1C370946
FILE: 05. ‰—  (Instrumental).flac
  Size: 36090480 Hash: 40E7469DF93AC0B6414C2E0B3858B0C1 Accuracy: -m0
  Conclusion: CDDA 100%
  Signature: D75B8E54AA752BF222ECCC14D543439749355046
Трeклист:

[03:53] 01. senya -
[04:11] 02. senya -
[04:32] 03. senya -
[04:25] 04. senya -
[03:36] 05. senya -
[03:44] 06. senya - Labyrinth

Прoдолжительность: 00:00:24:24
Код:

[CUETools log; Date: 30.01.2015 23:33:15; Version: 2.1.5]
[CTDB TOCID: OiWg0pbAf7Sz6got2bS6_YRD2rc-] found.
Track | CTDB Status
  1   | (6/6) Accurately ripped
  2   | (6/6) Accurately ripped
  3   | (6/6) Accurately ripped
  4   | (6/6) Accurately ripped
  5   | (6/6) Accurately ripped
  6   | (6/6) Accurately ripped
[AccurateRip ID: 0005f459-001fc2d5-4405b806] found.
Track   [  CRC   |   V2   ] Status
 01     [c4934353|8bf9de9f] (0+2/2) Accurately ripped
 02     [e200d45e|def25fa3] (0+2/2) Accurately ripped
 03     [8d11cf75|060da1a1] (0+2/2) Accurately ripped
 04     [fb3a587b|49e20a25] (0+2/2) Accurately ripped
 05     [988429ff|7a225016] (0+2/2) Accurately ripped
 06     [ad05e7fe|603f2089] (0+2/2) Accurately ripped

Track Peak [ CRC32  ] [W/O NULL]
 --   98,2 [B1985B72] [96D2C75D]
 01   98,2 [00F97237] [DA61F18E]
 02   98,2 [373DDF82] [6A03FFAE]
 03   98,2 [D6FA162C] [2532D5B7]
 04   98,2 [AFD48F3B] [187272F1]
 05   98,2 [AC6F699D] [1946140D]
 06   98,2 [DC6EDFD4] [866FEDE5]
Код:

-----------------------

DON'T MODIFY THIS FILE

-----------------------

PERFORMER: auCDtect Task Manager, ver. 1.6.0 RC1 build 1.6.0.1
Copyright (c) 2008-2010 y-soft. All rights reserved
http://y-soft.org

ANALYZER: auCDtect: CD records authenticity detector, version 0.8.2
Copyright (c) 2004 Oleg Berngardt. All rights reserved.
Copyright (c) 2004 Alexander Djourik. All rights reserved.

FILE: 01. senya — .flac
  Size: 30221162 Hash: 5424A15F3505FDB66EB93DC7DB9F5E31 Accuracy: -m0
  Conclusion: CDDA 100%
  Signature: E8B063BE7AF31E824A51B28FB8CC264BE3703543
FILE: 02. senya — .flac
  Size: 33346229 Hash: 90541A616D336700554FA3A3AE1F7A4A Accuracy: -m0
  Conclusion: CDDA 99%
  Signature: 528CDDB4CDDE1F404F828DDC9C6B8DF4A225CB81
FILE: 03. senya — .flac
  Size: 39964708 Hash: 8BE50145129C109392E981791302330E Accuracy: -m0
  Conclusion: CDDA 100%
  Signature: D19EA85B4B3D8D3DC0A5A0D68ACA01A57C8AD40A
FILE: 04. senya — .flac
  Size: 38408043 Hash: 4DAEDE965E6A320BB0151C0044B81E60 Accuracy: -m0
  Conclusion: CDDA 100%
  Signature: 28C810D851B4A42C59753790CF683EC5D26A42C4
FILE: 05. senya — .flac
  Size: 30460450 Hash: 0872BC468338B04654C4B0C9573A2F6D Accuracy: -m0
  Conclusion: CDDA 100%
  Signature: F6EAAEFB122ECD98C8DABD4DBF52D3D09E111B68
FILE: 06. senya — Labyrinth.flac
  Size: 32643153 Hash: FEDBCB861D7C4C923A724C228EE96DE5 Accuracy: -m0
  Conclusion: CDDA 99%
  Signature: B7751F97E4DDC40ED822971496F96E4BE640669B
Трeклист:

[00:35] 01. Iceon -
[01:37] 02. senya - ‰‰(OPver.1.2)
[01:18] 03. Iceon -
[00:06] 04. Iceon -
[01:38] 05. Iceon -
[01:27] 06. Iceon -
[00:31] 07. Iceon -
[00:53] 08. Iceon -
[00:06] 09. Iceon -
[01:45] 10. Iceon -
[01:19] 11. Iceon -
[01:37] 12. senya - ‰‰(OPver.)
[02:30] 13. Iceon -
[01:39] 14. senya - Opposite World (EDver.)
[01:04] 15. Iceon -

Прoдолжительность: 00:00:18:12
Код:

[CUETools log; Date: 30.01.2015 23:33:19; Version: 2.1.5]
[CTDB TOCID: hHw4Wtzn1zQg.XZET02HlFFdRzk-] found.
Track | CTDB Status
  1   | (0/1) No match
  2   | (0/1) No match
  3   | (0/1) No match
  4   | (0/1) No match
  5   | (0/1) No match
  6   | (0/1) No match
  7   | (0/1) No match
  8   | (0/1) No match
  9   | (0/1) No match
 10   | (0/1) No match
 11   | (0/1) No match
 12   | (0/1) No match
 13   | (0/1) No match
 14   | (0/1) No match
 15   | (0/1) No match
[AccurateRip ID: 0008fb68-0067e9b5-a204440f] found.
Track   [  CRC   |   V2   ] Status
 01     [e7658291|346ef6fd] (0+0/1) No match
 02     [c7ca2a6f|b572990b] (0+0/1) No match
 03     [ab10e27e|172ea8f2] (0+0/1) No match
 04     [8c8db245|f1f327f2] (0+0/1) No match
 05     [8d621da7|3ee3d648] (0+0/1) No match
 06     [71fe83d3|d17fdc14] (0+0/1) No match
 07     [38b686cd|455c19a9] (0+0/1) No match
 08     [dcc545c3|d573cfd9] (0+0/1) No match
 09     [b0a1cf6b|8738ec05] (0+0/1) No match
 10     [88b79d8d|1431138c] (0+0/1) No match
 11     [1121d609|62c5834f] (0+0/1) No match
 12     [7a5d1e1b|187079bf] (0+0/1) No match
 13     [76e860e3|c02ecbe0] (0+0/1) No match
 14     [4332f17a|d59b788a] (0+0/1) No match
 15     [6371df13|c60a0072] (0+0/1) No match

Track Peak [ CRC32  ] [W/O NULL]
 --   97,9 [21EFBB3D] [DF3E28CE]
 01   92,8 [B0457F06] [65D5EC27]
 02   97,9 [68383CA2] [F75FAEA6]
 03   92,7 [D493CE97] [92BE54FE]
 04   25,5 [47D4B470] [CA6E502F]
 05   92,5 [D29DA096] [B735ABB5]
 06   97,8 [34397ABC] [A644E826]
 07   93,0 [661768EE] [BDD8FA9F]
 08   96,9 [3B8A86F2] [B2F2A1BD]
 09   65,7 [64EF596C] [FA123371]
 10   88,2 [808B18BE] [145F1B12]
 11   97,9 [CD8B9CC4] [E3707669]
 12   97,9 [CC1224FB] [1D9A72E9]
 13   89,4 [2E4CD33C] [2B6DC3C6]
 14   97,9 [125D2A3B] [66C000A8]
 15   55,4 [0A67D9D6] [F6F5912C]
Код:

-----------------------

DON'T MODIFY THIS FILE

-----------------------

PERFORMER: auCDtect Task Manager, ver. 1.6.0 RC1 build 1.6.0.1
Copyright (c) 2008-2010 y-soft. All rights reserved
http://y-soft.org

ANALYZER: auCDtect: CD records authenticity detector, version 0.8.2
Copyright (c) 2004 Oleg Berngardt. All rights reserved.
Copyright (c) 2004 Alexander Djourik. All rights reserved.

FILE: 01. Iceon — .flac
  Size: 3481669 Hash: C5A82260127C65B4CB768D1315BAF48F Accuracy: -m0
  Conclusion: CDDA 100%
  Signature: 4AE369AF7ABB650DFF4183D8420AE9EE7DB4EB81
FILE: 02. senya — ‰‰(OPver.1.2).flac
  Size: 11963386 Hash: 297672E6E33EA285A6E417B4B177769E Accuracy: -m0
  Conclusion: CDDA 100%
  Signature: 5B2A696A5FCA2A496DD64DDAB8125E63A2CC01A6
FILE: 03. Iceon — .flac
  Size: 6270246 Hash: 9056A771184D52FB95D00DBC1EDF6778 Accuracy: -m0
  Conclusion: CDDA 100%
  Signature: 9D8DFB2EAFFCF45D9767A73EEFD40A0CD90C9F0A
FILE: 04. Iceon — .flac
  Size: 500653 Hash: 55D963DC417FC781D70DDBE4EB679FE7 Accuracy: -m0
  Conclusion: CDDA 42%
  Signature: C250F6B2E51954C2895813F53F0FD10B9A28D22E
FILE: 05. Iceon — .flac
  Size: 10009330 Hash: 2A778B63F866EA68E6040CACEAB61F8F Accuracy: -m0
  Conclusion: CDDA 100%
  Signature: 6448AA057F81AC4B5934AB15012BE5C76A516E4E
FILE: 06. Iceon — .flac
  Size: 9196005 Hash: ACB8FA3AEAA1E9F053CFDCAC96ED2BA0 Accuracy: -m0
  Conclusion: CDDA 100%
  Signature: CACD5B97EDD325104EC564397563DD8429834E6D
FILE: 07. Iceon — .flac
  Size: 3960772 Hash: 3039DAA5A013CC99E0D86A155D27B626 Accuracy: -m0
  Conclusion: CDDA 100%
  Signature: C1E3AEC9EDDEE41CD57CD4C8F1373E5171166381
FILE: 08. Iceon — .flac
  Size: 4886127 Hash: 895BEB914A0BFA3913B3B396837A9E2D Accuracy: -m0
  Conclusion: CDDA 100%
  Signature: E271D989EE01CC1D5C724AAF73E6CA730A222FEF
FILE: 09. Iceon — .flac
  Size: 400997 Hash: 4DA1BB9FFE67571E940728FCAE76D683 Accuracy: -m0
  Conclusion: CDDA 100%
  Signature: 6480B0C97F29F28CAED2F409594B626CB3CBFE43
FILE: 10. Iceon — .flac
  Size: 9365612 Hash: B742FEDE501D97C7957EEECD0E3285C3 Accuracy: -m0
  Conclusion: CDDA 100%
  Signature: 26AB48DD8314C58FCB51357DA5134BD27D5C5D7F
FILE: 11. Iceon — .flac
  Size: 9745635 Hash: 1041A6CC3F661816776B1CD38BA0CA82 Accuracy: -m0
  Conclusion: CDDA 100%
  Signature: B339A8DC9741FE737EEC0014506145A06ECB502B
FILE: 12. senya — ‰‰(OPver.).flac
  Size: 12024094 Hash: 018E30019CEE9AFDA7E00B664D3CDAE0 Accuracy: -m0
  Conclusion: CDDA 100%
  Signature: CFC97DBD7E485674CC93AF8DBA2190AABBA34A9E
FILE: 13. Iceon — .flac
  Size: 12413960 Hash: 6614A5C51E77CC0A316554FD42AFBDE9 Accuracy: -m0
  Conclusion: CDDA 100%
  Signature: 5522394115C6EC9BCBF9907404D1C0BA2D01B4EF
FILE: 14. senya — Opposite World (EDver.).flac
  Size: 11509587 Hash: A651C3A6C03D044CCF4BC3FF055469ED Accuracy: -m0
  Conclusion: CDDA 100%
  Signature: 91F13900B4A1DDF24C7D6FA324E5F1AA2F4C9D37
FILE: 15. Iceon — .flac
  Size: 4779656 Hash: 40E9616D28B73525A080E20B19007205 Accuracy: -m0
  Conclusion: CDDA 100%
  Signature: 51B447436A19806A9424BE438FC00946243356A7
Трeклист:

[04:06] 01. senya -
[03:29] 02. senya -
[04:06] 03. Iceon - ‰(Instrumental)
[03:29] 04. Autobahn - (Instrumental)

Прoдолжительность: 00:00:15:12
Код:

[CUETools log; Date: 30.01.2015 23:33:23; Version: 2.1.5]
[CTDB TOCID: nBpScclsU4pPZi7vUoG.0FugPYg-] disk not present in database.
[AccurateRip ID: 0002a6d6-000a9085-2c039004] found.
Track   [  CRC   |   V2   ] Status
 01     [a99349b7|a92f2312] (0+1/1) Accurately ripped
 02     [31985fe1|2e6df415] (0+1/1) Accurately ripped
 03     [805efc72|fefbb840] (0+1/1) Accurately ripped
 04     [400f9bfe|ac7cd835] (0+1/1) Accurately ripped

Track Peak [ CRC32  ] [W/O NULL]
 --   98,8 [F80B34A0] [17307C07]
 01   88,1 [BF101C65] [87DF7D74]
 02   98,8 [19EEED9C] [6217FCC6]
 03   88,1 [315223A8] [3386F54F]
 04   98,8 [DD11F35A] [142D596D]
Код:

-----------------------

DON'T MODIFY THIS FILE

-----------------------

PERFORMER: auCDtect Task Manager, ver. 1.6.0 RC1 build 1.6.0.1
Copyright (c) 2008-2010 y-soft. All rights reserved
http://y-soft.org

ANALYZER: auCDtect: CD records authenticity detector, version 0.8.2
Copyright (c) 2004 Oleg Berngardt. All rights reserved.
Copyright (c) 2004 Alexander Djourik. All rights reserved.

FILE: 01. senya — .flac
  Size: 36468463 Hash: 846BF66F322280DAAC70363D34CC7FE3 Accuracy: -m0
  Conclusion: CDDA 100%
  Signature: B2CDBFC7EEC272F44820D0E17E1D20F25952409E
FILE: 02. senya — .flac
  Size: 28622362 Hash: 9BF6A538D01A6ECC9EE5E9CB93270270 Accuracy: -m0
  Conclusion: CDDA 99%
  Signature: 195291BA93E696E4CF603E07DC24FDFDD0156F9B
FILE: 03. Iceon — ‰(Instrumental).flac
  Size: 36631717 Hash: 39FC4FBAD658D51C1A1A94DE2B36ED0B Accuracy: -m0
  Conclusion: CDDA 100%
  Signature: F3A51A526B2A440FC620C79C6B22BCDE4B3CFA80
FILE: 04. Autobahn —  (Instrumental).flac
  Size: 28262001 Hash: 51A40352C4CFE7608F3E38C59664C7CB Accuracy: -m0
  Conclusion: CDDA 100%
  Signature: 404E4F811BED0F4B52E3615E8F115FCA60D9E953
Трeклист:

[04:34] 01. senya -
[04:41] 02. senya -
[03:36] 03. senya - Agape
[03:42] 04. senya -
[04:26] 05. senya -
[05:50] 06. senya - ‰(EUROBEAT Remix)

Прoдолжительность: 00:00:26:51
Код:

[CUETools log; Date: 30.01.2015 23:33:29; Version: 2.1.5]
[CTDB TOCID: m3MjKoE9vY_B4axvuKzjuP6pGz0-] found.
Track | CTDB Status
  1   | (14/15) Accurately ripped
  2   | (15/15) Accurately ripped
  3   | (15/15) Accurately ripped
  4   | (15/15) Accurately ripped
  5   | (15/15) Accurately ripped
  6   | (15/15) Accurately ripped
[AccurateRip ID: 00064342-002158e1-5a064b06] found.
Track   [  CRC   |   V2   ] Status
 01     [296d6128|40df6943] (0+4/4) Accurately ripped
 02     [939a5168|08882ea4] (0+5/5) Accurately ripped
 03     [34793ed2|2ed376d3] (0+5/5) Accurately ripped
 04     [55e9e2cf|2c86c99c] (0+5/5) Accurately ripped
 05     [4047c618|1b37d9a7] (0+5/5) Accurately ripped
 06     [87c2a514|42444dc9] (0+5/5) Accurately ripped

Track Peak [ CRC32  ] [W/O NULL]
 --   98,2 [8E79EE2E] [A6054E11]
 01   97,1 [01719B97] [C438C958]
 02   98,2 [BA2A27CE] [A61BE4D5]
 03   97,1 [24AFE937] [01444A6A]
 04   98,2 [DE388A10] [D0B64990]
 05   97,1 [8873D7C8] [83ED7517]
 06   98,2 [5265D414] [65A3787E]
Код:

-----------------------

DON'T MODIFY THIS FILE

-----------------------

PERFORMER: auCDtect Task Manager, ver. 1.6.0 RC1 build 1.6.0.1
Copyright (c) 2008-2010 y-soft. All rights reserved
http://y-soft.org

ANALYZER: auCDtect: CD records authenticity detector, version 0.8.2
Copyright (c) 2004 Oleg Berngardt. All rights reserved.
Copyright (c) 2004 Alexander Djourik. All rights reserved.

FILE: 01. senya — .flac
  Size: 36789416 Hash: F6933681AAEBD2113E6C9D21192F5DB6 Accuracy: -m0
  Conclusion: CDDA 99%
  Signature: 23508DE628367B1F86088A4599F38FE9ACA559F2
FILE: 02. senya — .flac
  Size: 40982119 Hash: 54E1D90197959F1541C97B211350B8D0 Accuracy: -m0
  Conclusion: CDDA 100%
  Signature: 45E7D812DF3CE6BC6C1469A6E69F6945F4217202
FILE: 03. senya — Agape.flac
  Size: 30017880 Hash: AD7F98C17724C979CE4F968955B8229A Accuracy: -m0
  Conclusion: CDDA 100%
  Signature: 5C0BC7CB8A7BD80EA4DAADC2C6445849C2BC9AA4
FILE: 04. senya — .flac
  Size: 28674854 Hash: 7D0D9C4DC983CAB4CFEBCDDB082C16C6 Accuracy: -m0
  Conclusion: CDDA 100%
  Signature: F6CFC156F88CA7FFFBD03B5A18DECD8220F616F3
FILE: 05. senya — .flac
  Size: 36425115 Hash: A7E3206AE6D0F255F776AAA3BCAF75AC Accuracy: -m0
  Conclusion: CDDA 99%
  Signature: AF21E586528FCA05B59FAA7B1920DEE98B063657
FILE: 06. senya — ‰(EUROBEAT Remix).flac
  Size: 50956999 Hash: 3DB2350EC48FB57437E5C16173BA6B95 Accuracy: -m0
  Conclusion: CDDA 100%
  Signature: 7992915823107512B90D1BBF7BDE1824A5FFAAE5
Трeклист:

[05:18] 01. senya -
[04:11] 02. senya -
[05:18] 03. Iceon - ‰(instrumental)
[04:11] 04. HiZuMi - (instrumental)

Прoдолжительность: 00:00:19:00
Код:

[CUETools log; Date: 30.01.2015 23:33:33; Version: 2.1.5]
[CTDB TOCID: dAVuV8hQQKGOoRZhEyY322.jGaQ-] found.
Track | CTDB Status
  1   | (0/3) No match
  2   | (0/3) No match
  3   | (0/3) No match
  4   | (0/3) No match
[AccurateRip ID: 0003572a-000d48de-27047404] found.
Track   [  CRC   |   V2   ] Status
 01     [536c7c55|01cdeca9] (0+0/2) No match
 02     [07a745b4|11f6ac99] (0+0/2) No match
 03     [f48ff35a|84bd3001] (0+0/2) No match
 04     [76a34ccf|1efe731a] (0+0/2) No match

Track Peak [ CRC32  ] [W/O NULL]
 --   97,9 [31A7DED0] [48B12E66]
 01   97,9 [33E73C9C] [D8BD758B]
 02   97,9 [2F0F0336] [1E41A49B]
 03   97,9 [8AE355DF] [ECCF7343]
 04   97,9 [13FC26FB] [EA14DD49]
Код:

-----------------------

DON'T MODIFY THIS FILE

-----------------------

PERFORMER: auCDtect Task Manager, ver. 1.6.0 RC1 build 1.6.0.1
Copyright (c) 2008-2010 y-soft. All rights reserved
http://y-soft.org

ANALYZER: auCDtect: CD records authenticity detector, version 0.8.2
Copyright (c) 2004 Oleg Berngardt. All rights reserved.
Copyright (c) 2004 Alexander Djourik. All rights reserved.

FILE: 01. senya — .flac
  Size: 39082375 Hash: 8DB1C179AF8A93CD5154DD469EE5BEB1 Accuracy: -m0
  Conclusion: CDDA 100%
  Signature: 2CB27747429F385ED66D261B15373453DCC62375
FILE: 02. senya — .flac
  Size: 32064483 Hash: B85F3BC5B324390661CF137B4D5EF2DA Accuracy: -m0
  Conclusion: CDDA 100%
  Signature: F08CC9FF012A68A9C34B0DA2FEC880960571B84F
FILE: 03. Iceon — ‰(instrumental).flac
  Size: 38179803 Hash: 926BCAE218A4EFFBDB21830F688B7C2F Accuracy: -m0
  Conclusion: CDDA 100%
  Signature: B23E6AF41923C01F164C9A3984CC8E3A25BA8A0A
FILE: 04. HiZuMi —  (instrumental).flac
  Size: 31694942 Hash: FE7C7A66FD6D733B62F0952E8678C01C Accuracy: -m0
  Conclusion: CDDA 100%
  Signature: C4FB341D2CEEBED285D938A5628DB485A02A4673
Трeклист:

[03:27] 01. senya -
[03:25] 02. Autobahn - ‰(instrumental)

Прoдолжительность: 00:00:06:53
Код:

[CUETools log; Date: 30.01.2015 23:33:35; Version: 2.1.5]
[CTDB TOCID: pesCuwiHpg4U_vxKJ7l.Eq5oOW0-] found.
Track | CTDB Status
  1   | (1/1) Accurately ripped
  2   | (1/1) Accurately ripped
[AccurateRip ID: 0000b628-0001e58f-0d019d02] found.
Track   [  CRC   |   V2   ] Status
 01     [85586dd0|f469b7e4] (0+0/1) No match
 02     [66b61bc8|8ef5d99d] (0+0/1) No match
Offsetted by -114:
 01     [c12a6f07] (0/1) No match (V2 was not tested)
 02     [80679166] (0/1) No match (V2 was not tested)

Track Peak [ CRC32  ] [W/O NULL]
 --   98,2 [F3B7C78F] [04F3A8CE]
 01   98,2 [60405169] [B6902882]
 02   98,2 [B046C9ED] [7222CD96]
Код:

-----------------------

DON'T MODIFY THIS FILE

-----------------------

PERFORMER: auCDtect Task Manager, ver. 1.6.0 RC1 build 1.6.0.1
Copyright (c) 2008-2010 y-soft. All rights reserved
http://y-soft.org

ANALYZER: auCDtect: CD records authenticity detector, version 0.8.2
Copyright (c) 2004 Oleg Berngardt. All rights reserved.
Copyright (c) 2004 Alexander Djourik. All rights reserved.

FILE: 01. senya — .flac
  Size: 29944101 Hash: 1764FCF06054867DCDC157EDE619181E Accuracy: -m0
  Conclusion: CDDA 100%
  Signature: BFCAF86BB18F74600792B1F4F3687E32CADAC14E
FILE: 02. Autobahn — ‰(instrumental).flac
  Size: 29995261 Hash: B54FC6D7CB187469D3C7524B4D819A1E Accuracy: -m0
  Conclusion: CDDA 100%
  Signature: 2BB7CF4B6B070B27D3355211B79F35CACFEB9BC3
Трeклист:

[05:46] 01. senya -
[04:58] 02. senya - Ref-Rain
[05:46] 03. Iceon - (instrumental)
[04:13] 04. ‰- Ref-Rain (instrumental)

Прoдолжительность: 00:00:20:45
Код:

[CUETools log; Date: 30.01.2015 23:33:40; Version: 2.1.5]
[CTDB TOCID: r0oKMDs0Bh6y7WkzskkDcn.NgaE-] found.
Track | CTDB Status
  1   | (1/1) Accurately ripped
  2   | (1/1) Accurately ripped
  3   | (1/1) Accurately ripped
  4   | (1/1) Accurately ripped
[AccurateRip ID: 0003b218-000ead09-3804dd04] found.
Track   [  CRC   |   V2   ] Status
 01     [4fe04830|c0f8082f] (0+0/2) No match
 02     [bceecedd|0f102eb9] (0+0/2) No match
 03     [caaea7d8|8ea677c0] (0+0/2) No match
 04     [be1ad6d0|c59b0e86] (0+0/2) No match
Offsetted by 6:
 01     [204e51b6] (2/2) Accurately ripped
 02     [73b463d9] (2/2) Accurately ripped
 03     [53a4ec9c] (1/2) Accurately ripped
 04     [a7788201] (1/2) Accurately ripped

Track Peak [ CRC32  ] [W/O NULL]
 --   98,2 [C5411C33] [2F91FB61]
 01   98,2 [754C21B2] [AB347F2F]
 02   98,2 [E0D24C9E] [ABDEC702]
 03   98,2 [1E19C936] [1E54A775]
 04   98,2 [B5F89D0B] [2D26BF7A]
Код:

-----------------------

DON'T MODIFY THIS FILE

-----------------------

PERFORMER: auCDtect Task Manager, ver. 1.6.0 RC1 build 1.6.0.1
Copyright (c) 2008-2010 y-soft. All rights reserved
http://y-soft.org

ANALYZER: auCDtect: CD records authenticity detector, version 0.8.2
Copyright (c) 2004 Oleg Berngardt. All rights reserved.
Copyright (c) 2004 Alexander Djourik. All rights reserved.

FILE: 01. senya — .flac
  Size: 45614783 Hash: 0DF23118301D879D5F726125E828D7F7 Accuracy: -m0
  Conclusion: CDDA 100%
  Signature: 2AEEB38704C7FCC16E044808FDDECB266FD42B28
FILE: 02. senya — Ref-Rain.flac
  Size: 40280064 Hash: FFB160BC0EB15612D25A8DE7F6546765 Accuracy: -m0
  Conclusion: CDDA 100%
  Signature: B01E56AE73CF4DE844F09E9AC363212271D95931
FILE: 03. Iceon —  (instrumental).flac
  Size: 44799749 Hash: 039722993177B5099E41995D49598738 Accuracy: -m0
  Conclusion: CDDA 100%
  Signature: 3DA01362C65D798C392553E4127CAA4772776769
FILE: 04. ‰— Ref-Rain (instrumental).flac
  Size: 35880694 Hash: 681FCC01A129C96FF68BA9E1E487092C Accuracy: -m0
  Conclusion: CDDA 100%
  Signature: 9DD37629EFA2A83019B8858111E2BB17B62F4D37
Трeклист:

[03:54] 01. senya -
[03:26] 02. senya -
[04:24] 03. senya - ‰(Hard Trance Remix)
[03:54] 04. Iceon, HiZuMi - ‰(Instrumental)
[03:26] 05. Autobahn - ‰(Instrumental)

Прoдолжительность: 00:00:19:06
Код:

[CUETools log; Date: 30.01.2015 23:33:45; Version: 2.1.5]
[CTDB TOCID: 18mlXMwmtFH3xAOwFpfPzIKBE2E-] found.
Track | CTDB Status
  1   | (1/1) Accurately ripped
  2   | (1/1) Accurately ripped
  3   | (1/1) Accurately ripped
  4   | (1/1) Accurately ripped
  5   | (1/1) Accurately ripped
[AccurateRip ID: 0003f804-00128889-35047a05] found.
Track   [  CRC   |   V2   ] Status
 01     [d08395e9|d91aa4e4] (0+0/2) No match
 02     [a192da50|d4273b10] (0+0/2) No match
 03     [00ecd122|2e12607e] (0+0/2) No match
 04     [443e3476|c90304b9] (0+0/2) No match
 05     [8f381308|92ce90c0] (0+0/2) No match
Offsetted by 6:
 01     [152feca4] (0/2) No match (V2 was not tested)
 02     [f3f1cd0a] (0/2) No match (V2 was not tested)
 03     [2de25f60] (0/2) No match (V2 was not tested)
 04     [ced4d44a] (0/2) No match (V2 was not tested)
 05     [34e65f4a] (0/2) No match (V2 was not tested)

Track Peak [ CRC32  ] [W/O NULL]
 --   98,2 [C930CE59] [B2048A53]
 01   98,2 [DC7647E1] [55B06915]
 02   98,2 [B6002174] [98F65920]
 03   98,2 [5A9701DC] [5F4884B8]
 04   98,2 [5EB75633] [BCE2D524]
 05   98,2 [8D61462D] [2637A177]
Код:

-----------------------

DON'T MODIFY THIS FILE

-----------------------

PERFORMER: auCDtect Task Manager, ver. 1.6.0 RC1 build 1.6.0.1
Copyright (c) 2008-2010 y-soft. All rights reserved
http://y-soft.org

ANALYZER: auCDtect: CD records authenticity detector, version 0.8.2
Copyright (c) 2004 Oleg Berngardt. All rights reserved.
Copyright (c) 2004 Alexander Djourik. All rights reserved.

FILE: 01. senya — .flac
  Size: 31868090 Hash: 190ABBD0FBD3B20FAE0C2714731630FC Accuracy: -m0
  Conclusion: CDDA 99%
  Signature: 1A878B96FD16169133FA162515AF1CC5269C42C3
FILE: 02. senya — .flac
  Size: 28582618 Hash: 2D56A27CAB4BD88D525FB6B37F31AB48 Accuracy: -m0
  Conclusion: CDDA 100%
  Signature: BFD84C9AFCF182CE3687780E6D301C2C8F2C32B5
FILE: 03. senya — ‰(Hard Trance Remix).flac
  Size: 36441512 Hash: F8F1C0C3D5A8C460AF5BE2B041A74AA8 Accuracy: -m0
  Conclusion: CDDA 100%
  Signature: D8A742AA30B0B2CB4940613FFD88578C7FB6236A
FILE: 04. Iceon, HiZuMi — ‰(Instrumental).flac
  Size: 31405901 Hash: CBFDE3C477B68039C5E277D8FAD97D14 Accuracy: -m0
  Conclusion: CDDA 100%
  Signature: 19C4633134C24250A8191A71FDA1C745B8271E98
FILE: 05. Autobahn — ‰(Instrumental).flac
  Size: 28662763 Hash: 050D849258424E709876C102250E4D3E Accuracy: -m0
  Conclusion: CDDA 100%
  Signature: A3785B6010A4B530312EEB2F5A74DA5CABA2BEC1
Трeклист:

[03:05] 01. senya -
[03:06] 02. senya - Little Ringo
[03:48] 03. senya - ‰‰(Loud mix)
[04:37] 04. senya - ‰(Acoustic+ mix)
[06:21] 05. Iceon - ‰Type:Iceon
[10:40] 06. ‰- ‰Type:
[07:30] 07. Autobahn - ‰Type:Autobahn
[01:41] 08. senya - (PV ver.)
[03:09] 09. senya - (PV ver.)

Прoдолжительность: 00:00:44:00
Код:

[CUETools log; Date: 30.01.2015 23:33:54; Version: 2.1.5]
[CTDB TOCID: HDQywvEtFK4QZ__e_P8JO_ZvJM0-] found.
Track | CTDB Status
  1   | (5/5) Accurately ripped
  2   | (5/5) Accurately ripped
  3   | (5/5) Accurately ripped
  4   | (5/5) Accurately ripped
  5   | (5/5) Accurately ripped
  6   | (5/5) Accurately ripped
  7   | (5/5) Accurately ripped
  8   | (5/5) Accurately ripped
  9   | (5/5) Accurately ripped
[AccurateRip ID: 000e74cc-006e4895-6b0a5009] found.
Track   [  CRC   |   V2   ] Status
 01     [b07deb7c|570edcae] (0+0/1) No match
 02     [98c6b13a|4013ec64] (0+0/1) No match
 03     [0a63d616|0dbdb74a] (0+0/1) No match
 04     [df2da654|756110c2] (0+0/1) No match
 05     [30905fa7|557e153d] (0+0/1) No match
 06     [fc8c25c3|d1981c1a] (0+0/1) No match
 07     [8aa04c14|8b18b860] (0+0/1) No match
 08     [9a455bd3|ea070b08] (0+0/1) No match
 09     [8facfb3e|6c231467] (0+0/1) No match
Offsetted by 60:
 01     [5c642ff4] (0/1) No match (V2 was not tested)
 02     [a912b9be] (0/1) No match (V2 was not tested)
 03     [c651c290] (0/1) No match (V2 was not tested)
 04     [9e388789] (0/1) No match (V2 was not tested)
 05     [37aeb883] (0/1) No match (V2 was not tested)
 06     [b6dca3cd] (0/1) No match (V2 was not tested)
 07     [1a5edca2] (0/1) No match (V2 was not tested)
 08     [140ae713] (0/1) No match (V2 was not tested)
 09     [9b5dbc46] (0/1) No match (V2 was not tested)

Track Peak [ CRC32  ] [W/O NULL]
 --   98,2 [5670F47E] [658DBD26]
 01   98,2 [61616200] [F5D26CA3]
 02   98,2 [3B9E4174] [99B840DA]
 03   98,2 [E5AD338D] [A057EEA3]
 04   98,2 [C19A9A10] [01BF4E5D]
 05   98,2 [BF55CD52] [F77C5203]
 06   98,2 [C1C0545D] [42DB8420]
 07   98,2 [B96A45EF] [ECE35B44]
 08   97,1 [7BFAD0C5] [479DBBEC]
 09   98,2 [2BB24D94] [6BB58DC3]
Код:

-----------------------

DON'T MODIFY THIS FILE

-----------------------

PERFORMER: auCDtect Task Manager, ver. 1.6.0 RC1 build 1.6.0.1
Copyright (c) 2008-2010 y-soft. All rights reserved
http://y-soft.org

ANALYZER: auCDtect: CD records authenticity detector, version 0.8.2
Copyright (c) 2004 Oleg Berngardt. All rights reserved.
Copyright (c) 2004 Alexander Djourik. All rights reserved.

FILE: 01. senya — .flac
  Size: 24462373 Hash: 8E2F71B7CDD7B541EAA11ECCA2F544D9 Accuracy: -m0
  Conclusion: CDDA 100%
  Signature: 9AF92DEC6D2707E42121FAB6B222FF0D1AC22F39
FILE: 02. senya — Little Ringo.flac
  Size: 27667935 Hash: 04F2AF5FBAF8EDBF75BBE52F72021ED6 Accuracy: -m0
  Conclusion: CDDA 100%
  Signature: 2202EC3173EDEEE94DC1B46BF6CCE3A37C9F3E1B
FILE: 03. senya — ‰‰(Loud mix).flac
  Size: 31245870 Hash: 71E9545EA9C7B2F49A89B3219E196C81 Accuracy: -m0
  Conclusion: CDDA 100%
  Signature: 3E62FA48371ED0CC10EC120FCC65553AF6183C95
FILE: 04. senya — ‰(Acoustic+ mix).flac
  Size: 36075198 Hash: F65473A33646423B02EAEE1355C8AAF1 Accuracy: -m0
  Conclusion: CDDA 100%
  Signature: E2DA2EE59400DBB9D0A4491F4D241E271FC451CA
FILE: 05. Iceon — ‰TypeIceon.flac
  Size: 51852236 Hash: 2C620EB992EC339EC667695A092DDF90 Accuracy: -m0
  Conclusion: CDDA 100%
  Signature: 7CB2A6734E56C11816B47723E5AE99FBFAAC3A03
FILE: 06. ‰— ‰Type.flac
  Size: 86340876 Hash: D2C2D6F494408107DC98294EA85E1E8B Accuracy: -m0
  Conclusion: CDDA 100%
  Signature: F7454340ABC149DE7E351DCE137AF0F2BA4D4AC2
FILE: 07. Autobahn — ‰TypeAutobahn.flac
  Size: 60551951 Hash: 69C28C83A66081D5340556D52D7C12E2 Accuracy: -m0
  Conclusion: CDDA 100%
  Signature: 239EFDA9B57DCEFA2365264FC6138C6B44625843
FILE: 08. senya —  (PV ver.).flac
  Size: 12927939 Hash: A59ED7342C4D459FEF7A3AE1316A9EA6 Accuracy: -m0
  Conclusion: CDDA 100%
  Signature: 3376B5C6D81430F91CB8EA6758AB9EE041062C38
FILE: 09. senya —  (PV ver.).flac
  Size: 24886641 Hash: E638D55AE0F380A10B29654BF12708E9 Accuracy: -m0
  Conclusion: CDDA 100%
  Signature: 9B60D952874D192FABEC957087C7EF9F0B26212D
Трeклист:

[04:13] 01. senya -
[04:26] 02. foolen+komine -
[03:44] 03. komine -
[03:39] 04. ‰-
[05:09] 05. G.K -
[04:58] 06. foolen -
[04:01] 07. komine -
[06:05] 08. senya -
[05:22] 09. senya -

Прoдолжительность: 00:00:41:40
Код:

[CUETools log; Date: 30.01.2015 23:34:01; Version: 2.1.5]
[CTDB TOCID: 2budjBI2tYthreZvDHSSd.ibnS0-] found.
Track | CTDB Status
  1   | (3/3) Accurately ripped
  2   | (3/3) Accurately ripped
  3   | (3/3) Accurately ripped
  4   | (3/3) Accurately ripped
  5   | (3/3) Accurately ripped
  6   | (3/3) Accurately ripped
  7   | (3/3) Accurately ripped
  8   | (3/3) Accurately ripped
  9   | (3/3) Accurately ripped
[AccurateRip ID: 000d8565-00643ebd-7b09c409] found.
Track   [  CRC   |   V2   ] Status
 01     [ddb98f84|32a2f79c] (0+0/2) No match
 02     [e62c0499|060e5155] (0+0/2) No match
 03     [ec679f86|08eeb99f] (0+0/2) No match
 04     [123f2b5d|c53dc474] (0+0/2) No match
 05     [88aff263|41191830] (0+0/2) No match
 06     [d51ed740|194edf9e] (0+0/2) No match
 07     [2d0e9139|0a2e84c4] (0+0/2) No match
 08     [ee38677b|5bebe753] (0+0/2) No match
 09     [c3e8f5e0|2c769b64] (0+0/2) No match
Offsetted by 6:
 01     [d2b43eac] (1/2) Accurately ripped
 02     [d86915eb] (1/2) Accurately ripped
 03     [35da3cf4] (1/2) Accurately ripped
 04     [c464908f] (1/2) Accurately ripped
 05     [1f5a47d0] (1/2) Accurately ripped
 06     [6904aef5] (1/2) Accurately ripped
 07     [7db788e7] (1/2) Accurately ripped
 08     [c7903681] (1/2) Accurately ripped
 09     [892c921c] (1/2) Accurately ripped

Track Peak [ CRC32  ] [W/O NULL]
 --   98,8 [1DCB6755] [C08474C9]
 01   98,2 [CD2E311E] [C7C42AE8]
 02   98,2 [6E559E2A] [43C1DD33]
 03   98,2 [5F62D14E] [187DFF08]
 04   98,2 [1F0EE651] [5C9F79D3]
 05   98,8 [9F987F59] [F4172266]
 06   98,2 [2FD74104] [2F168493]
 07   98,2 [F7E94C64] [3D092CCD]
 08   98,2 [F4C082A2] [C250C306]
 09   98,2 [BC865B36] [7F295724]
Код:

-----------------------

DON'T MODIFY THIS FILE

-----------------------

PERFORMER: auCDtect Task Manager, ver. 1.6.0 RC1 build 1.6.0.1
Copyright (c) 2008-2010 y-soft. All rights reserved
http://y-soft.org

ANALYZER: auCDtect: CD records authenticity detector, version 0.8.2
Copyright (c) 2004 Oleg Berngardt. All rights reserved.
Copyright (c) 2004 Alexander Djourik. All rights reserved.

FILE: 01. senya — .flac
  Size: 34172631 Hash: C3EE7A425738F8257C362FE831794C7C Accuracy: -m0
  Conclusion: CDDA 100%
  Signature: 61FCF4341B67B4A72FD65415EB760BAA3580E7DB
FILE: 02. foolen+komine — .flac
  Size: 30293695 Hash: D72360DECE1E177E8C2A65E38DB70B3E Accuracy: -m0
  Conclusion: CDDA 100%
  Signature: 82425D66BBDCACAF991AA3C8342B0F1AD4103B52
FILE: 03. komine — .flac
  Size: 29378236 Hash: 92FEBF5B503EAA49B642B3153CBA84F2 Accuracy: -m0
  Conclusion: CDDA 99%
  Signature: F0337FBD9EF8DBE42F136060886ACF78553B8C1A
FILE: 04. ‰— .flac
  Size: 30264344 Hash: 42AC6AA52DE07B5724BC92E282EB258C Accuracy: -m0
  Conclusion: CDDA 100%
  Signature: F81662672B1EC8635120C5CD5964873E6398CD41
FILE: 05. G.K — .flac
  Size: 41723192 Hash: 16192F4EBE21538B31AD1E8B553043C7 Accuracy: -m0
  Conclusion: CDDA 100%
  Signature: 6DB6598835DAC032D7230D52A422A2EB801C467D
FILE: 06. foolen — .flac
  Size: 38181846 Hash: 7A2B6FF1AD2DC30D5EBDB873ED6E2609 Accuracy: -m0
  Conclusion: CDDA 100%
  Signature: EC3877199155D9A8A01C5267A2206D6B5E369E12
FILE: 07. komine — .flac
  Size: 27636489 Hash: 513E915FF8702C99B00749F711B30117 Accuracy: -m0
  Conclusion: CDDA 100%
  Signature: 5F8461CBC8E97D77291117D2D8F681D7397908D4
FILE: 08. senya — .flac
  Size: 44980947 Hash: 164C1B89BC31D524504B762D571CF2CC Accuracy: -m0
  Conclusion: CDDA 100%
  Signature: 2D03EB46166A8A27F6C31A59562F93E412EA02A7
FILE: 09. senya — .flac
  Size: 33252232 Hash: 8A298D3101EFC5E9120BC1714905687A Accuracy: -m0
  Conclusion: CDDA 100%
  Signature: 893257E198C234BE0353AF125BF19485413F7394
Трeклист:

[02:11] 01. senya - (short ver.)
[02:11] 02. Iceon - (short ver.) (Instrumental)

Прoдолжительность: 00:00:04:22
Код:

[CUETools log; Date: 30.01.2015 23:34:03; Version: 2.1.5]
[CTDB TOCID: 4t_VevQmmgKb.X.ozSHacEa2EIQ-] disk not present in database.
[AccurateRip ID: 0000738c-00013417-09010602] disk not present in database.

Track Peak [ CRC32  ] [W/O NULL]
 --   98,2 [CCF01585] [EF67D90E]
 01   98,2 [7C46BAE7] [58421245]
 02   98,2 [66491247] [63C8D325]
Код:

-----------------------

DON'T MODIFY THIS FILE

-----------------------

PERFORMER: auCDtect Task Manager, ver. 1.6.0 RC1 build 1.6.0.1
Copyright (c) 2008-2010 y-soft. All rights reserved
http://y-soft.org

ANALYZER: auCDtect: CD records authenticity detector, version 0.8.2
Copyright (c) 2004 Oleg Berngardt. All rights reserved.
Copyright (c) 2004 Alexander Djourik. All rights reserved.

FILE: 01. senya —  (short ver.).flac
  Size: 16717288 Hash: 088AE14B30C14F72931122C3EDC42E52 Accuracy: -m0
  Conclusion: CDDA 100%
  Signature: B6EB6C39EF815C9040D2C7C1A2941441A193A23D
FILE: 02. Iceon —  (short ver.) (Instrumental).flac
  Size: 16578873 Hash: 2FC11F79EA2344CEEABDC8DF6559E8E8 Accuracy: -m0
  Conclusion: CDDA 100%
  Signature: C911566BE2F7DBE003BB0B35E209E7B21BDA5527
Трeклист:

[04:28] 01. senya -
[03:32] 02. senya -
[04:24] 03. senya -
[03:54] 04. senya -
[06:09] 05. senya - (Autobahn Remix)
[04:40] 06. senya -

Прoдолжительность: 00:00:27:09
Код:

[CUETools log; Date: 30.01.2015 23:34:08; Version: 2.1.5]
[CTDB TOCID: RFBnawotoW.MB_0RUqMSW_dBswg-] found.
Track | CTDB Status
  1   | (0/8) No match
  2   | (0/8) No match
  3   | (0/8) No match
  4   | (0/8) No match
  5   | (0/8) No match
  6   | (0/8) No match
[AccurateRip ID: 00063d5c-00219969-46065d06] found.
Track   [  CRC   |   V2   ] Status
 01     [b73f362f|eae2ee56] (0+0/3) No match
 02     [e1857c0b|b5712118] (0+0/3) No match
 03     [3001be4f|9dc5898c] (0+0/2) No match
 04     [2b994f59|1d1a0720] (0+0/2) No match
 05     [4ced0577|77c14602] (0+0/2) No match
 06     [f42553d4|e6a3469b] (0+0/2) No match

Track Peak [ CRC32  ] [W/O NULL]
 --   97,9 [581D14EF] [5B27CAA1]
 01   96,8 [B487DAF7] [F1CEB6E3]
 02   96,8 [FBAEE2A3] [11DB6039]
 03   97,9 [92A1D1A1] [E16046C2]
 04   96,8 [BBFCA000] [C79835FC]
 05   96,8 [0433B9EA] [2FEFF7CF]
 06   96,8 [63FAAACA] [BBB06A11]
Код:

-----------------------

DON'T MODIFY THIS FILE

-----------------------

PERFORMER: auCDtect Task Manager, ver. 1.6.0 RC1 build 1.6.0.1
Copyright (c) 2008-2010 y-soft. All rights reserved
http://y-soft.org

ANALYZER: auCDtect: CD records authenticity detector, version 0.8.2
Copyright (c) 2004 Oleg Berngardt. All rights reserved.
Copyright (c) 2004 Alexander Djourik. All rights reserved.

FILE: 01. senya — .flac
  Size: 32996344 Hash: 199931BC0FDEE2C0C410C7AADD239FAE Accuracy: -m0
  Conclusion: CDDA 100%
  Signature: 1118474ADC832837DCF60D3EECF835FA8AF2333C
FILE: 02. senya — .flac
  Size: 26664313 Hash: B7778E2EB7858C180C3DB404DDDB316D Accuracy: -m0
  Conclusion: CDDA 100%
  Signature: 5317F00A94C1968651E703629723F6AFBF3EACAE
FILE: 03. senya — .flac
  Size: 36821379 Hash: D9DD4F08060EA994A5BE522B3B35155D Accuracy: -m0
  Conclusion: CDDA 100%
  Signature: E5F91F4B2C037BB54F4B2BCCD8E9CC305D6C5C61
FILE: 04. senya — .flac
  Size: 25925006 Hash: 283316685FF6864B15E1668DC1848DE3 Accuracy: -m0
  Conclusion: CDDA 100%
  Signature: 9506C05D3A7F579C0BAA8B2860AD3C86EF91922D
FILE: 05. senya —  (Autobahn Remix).flac
  Size: 52640589 Hash: 8CA77E6E82E2CEF525F6B5670574E15F Accuracy: -m0
  Conclusion: CDDA 100%
  Signature: A4B94D678BDDFE12075DF7FE2F1964575BC0D633
FILE: 06. senya — .flac
  Size: 35949436 Hash: 98CB3474772014889CDE50A0E54EF02C Accuracy: -m0
  Conclusion: CDDA 100%
  Signature: 2D232D1D4EEB5E0530856504094B0E84CE30B8C2
Трeклист:

[03:36] 01. senya -
[04:51] 02. senya -
[05:28] 03. senya - ‰(Drum 'n' Bass Remix)
[03:35] 04. Autobahn - ‰(Instrumental)
[04:51] 05. ‰- ‰(Instrumental)

Прoдолжительность: 00:00:22:24
Код:

[CUETools log; Date: 30.01.2015 23:34:13; Version: 2.1.5]
[CTDB TOCID: 4YiyhKx_h5tG9jCMZfdS0WAC_Ck-] found.
Track | CTDB Status
  1   | (0/3) No match
  2   | (0/3) No match
  3   | (0/3) No match
  4   | (0/3) No match
  5   | (0/3) No match
[AccurateRip ID: 0004878b-001552e5-38054005] found.
Track   [  CRC   |   V2   ] Status
 01     [b262809c|6f5ab281] (0+0/3) No match
 02     [d2d2aaf2|4055701c] (0+0/3) No match
 03     [bf8a6a4a|7513d96a] (0+0/3) No match
 04     [e8b06125|3684cbae] (0+0/3) No match
 05     [97dcff98|1ed76a2c] (0+0/3) No match

Track Peak [ CRC32  ] [W/O NULL]
 --   97,9 [5E475213] [E02630BB]
 01   97,9 [F1861C6E] [1D8AA9FC]
 02   97,9 [BBF8DF72] [A71B745E]
 03   97,9 [992261AC] [73D428B1]
 04   97,9 [4E95EF09] [B7C7BF9D]
 05   97,9 [3E21330E] [BE4F0E2C]
Код:

-----------------------

DON'T MODIFY THIS FILE

-----------------------

PERFORMER: auCDtect Task Manager, ver. 1.6.0 RC1 build 1.6.0.1
Copyright (c) 2008-2010 y-soft. All rights reserved
http://y-soft.org

ANALYZER: auCDtect: CD records authenticity detector, version 0.8.2
Copyright (c) 2004 Oleg Berngardt. All rights reserved.
Copyright (c) 2004 Alexander Djourik. All rights reserved.

FILE: 01. senya — .flac
  Size: 28896335 Hash: 5816FDB7C1DB65D3D16CAF2CDD2F2100 Accuracy: -m0
  Conclusion: CDDA 100%
  Signature: 25BC5C5F2587DDE3445165AA3980B22BDED4632D
FILE: 02. senya — .flac
  Size: 38497882 Hash: 2D20BAC4010BF78658B0830ADAB7F90E Accuracy: -m0
  Conclusion: CDDA 100%
  Signature: 4675FB433E70E728E281AE1262715382C78056F2
FILE: 03. senya — ‰(Drum 'n' Bass Remix).flac
  Size: 44442014 Hash: CC600068C49AF2A4849790FDE5F59BC7 Accuracy: -m0
  Conclusion: CDDA 100%
  Signature: 92A2E9DA18A9D285C9C5F4BC075CE891022A44CB
FILE: 04. Autobahn — ‰(Instrumental).flac
  Size: 28371893 Hash: A0D02BD634F6588E029AC07948660994 Accuracy: -m0
  Conclusion: CDDA 100%
  Signature: B0BC0184C22C441847FC088E69BF37D00DC6C927
FILE: 05. ‰— ‰(Instrumental).flac
  Size: 36961456 Hash: F050ED06A4E0A4445CA5503059CE15A6 Accuracy: -m0
  Conclusion: CDDA 100%
  Signature: 2B48B123A6FAF9B386618C116B0D9820E29811FD
Трeклист:

[04:10] 01. ‰-
[07:44] 02. Alstroemeria Records - Romantic Children (Club Mix)
[03:29] 03. ALiCE'S EMOTiON - Mami Mami Zone
[06:31] 04. IOSYS -
[05:42] 05. EastNewSound - EastNewSound 2013
[09:57] 06. ‰- ‰ 2012
[04:58] 07. Sound CYCLONE -
[03:16] 08. MAXION - florere
[08:01] 09. NEETs -
[05:25] 10. Liz Triangle -

Прoдолжительность: 00:00:59:17
Код:

[CUETools log; Date: 30.01.2015 23:34:26; Version: 2.1.5]
[CTDB TOCID: b6.0yHG8bBQPgcXWhKsM_jr9Hlk-] found.
Track | CTDB Status
  1   | (0/2) No match
  2   | (0/2) No match
  3   | (0/2) No match
  4   | (0/2) No match
  5   | (0/2) No match
  6   | (0/2) No match
  7   | (0/2) No match
  8   | (0/2) No match
  9   | (0/2) No match
 10   | (0/2) No match
[AccurateRip ID: 0015fc9a-00b1b592-7f0de50a] disk not present in database.

Track Peak [ CRC32  ] [W/O NULL]
 --   97,9 [70D7CC31] [28C4E0F2]
 01   97,5 [C9FC687B] [0A128264]
 02   97,3 [5FDD4C66] [61DA82FD]
 03   97,2 [C75F0C1A] [2094E643]
 04   97,3 [BAAAAA3B] [A0928897]
 05   97,4 [F318C281] [5887178F]
 06   97,6 [B0FE33A3] [498AA4D7]
 07   97,1 [35E30093] [FB122B79]
 08   96,9 [FFAF1345] [23225185]
 09   97,9 [EF82BBC2] [2CAF46B2]
 10   97,1 [5626FDD4] [42A0EA20]
Код:

-----------------------

DON'T MODIFY THIS FILE

-----------------------

PERFORMER: auCDtect Task Manager, ver. 1.6.0 RC1 build 1.6.0.1
Copyright (c) 2008-2010 y-soft. All rights reserved
http://y-soft.org

ANALYZER: auCDtect: CD records authenticity detector, version 0.8.2
Copyright (c) 2004 Oleg Berngardt. All rights reserved.
Copyright (c) 2004 Alexander Djourik. All rights reserved.

FILE: 01. ‰— .flac
  Size: 34383948 Hash: F0C634B8DA45CB53C5B12A51E081206D Accuracy: -m0
  Conclusion: CDDA 100%
  Signature: 9CCF2FABA30B835034E4B1A833FF03012C2069F8
FILE: 02. Alstroemeria Records — Romantic Children (Club Mix).flac
  Size: 62930453 Hash: 72496985B24693EE559D90FDB51EC1AF Accuracy: -m0
  Conclusion: CDDA 100%
  Signature: D161555EC779E537EC6A38FAA78A00F8A928EC7B
FILE: 03. ALiCE'S EMOTiON — Mami Mami Zone.flac
  Size: 29080558 Hash: B4BC785CF826A0270DAFC863CEE15A13 Accuracy: -m0
  Conclusion: CDDA 100%
  Signature: 13A987EAFF77DF21678ED25B2E20A4461A4E53DF
FILE: 04. IOSYS — .flac
  Size: 51234457 Hash: D5A124D665D400E0E9114854510EF4DA Accuracy: -m0
  Conclusion: CDDA 100%
  Signature: C431C68192DDDC57225F29C7FDD8BAF7E087F369
FILE: 05. EastNewSound — EastNewSound  2013 .flac
  Size: 48156756 Hash: 7699E45C71C74837FCFE20B349E51D14 Accuracy: -m0
  Conclusion: CDDA 100%
  Signature: C9C8780CFD43D675058BD1971C5269124FD84D95
FILE: 06. ‰— ‰ 2012 .flac
  Size: 76244956 Hash: 248015753FFAEABF4F94E2919BE3534A Accuracy: -m0
  Conclusion: CDDA 100%
  Signature: 0C515650B4F656A97852D5898605F5A00753C685
FILE: 07. Sound CYCLONE — .flac
  Size: 35107657 Hash: 87A91D856E4DF45168778D3753BE2440 Accuracy: -m0
  Conclusion: CDDA 100%
  Signature: 277F61259D974BE4FF7697503141A9141C489512
FILE: 08. MAXION — florere.flac
  Size: 24455422 Hash: A1F4344D265E9145053A443943D8AB6C Accuracy: -m0
  Conclusion: CDDA 100%
  Signature: 9AE67C3AC510B1F857C5FB078913B73AF95FDA29
FILE: 09. NEETs — .flac
  Size: 65642172 Hash: 7ED762019613FC95209F5D45C2FF9BDA Accuracy: -m0
  Conclusion: CDDA 100%
  Signature: 01DEEBBCDEB2968D0C874F2C541967752EA84C6B
FILE: 10. Liz Triangle — .flac
  Size: 42481573 Hash: DEDE337B360E37BAEECD74F9B69B85A6 Accuracy: -m0
  Conclusion: CDDA 99%
  Signature: 168BF0A30D09CA6113E5A1909CACCC7E0A528150
Трeклист:

[02:58] 01. ichigo & senya -
[04:18] 02. senya -
[03:46] 03. senya -
[02:58] 04. ‰- (instrumental)
[04:18] 05. ‰- (instrumental)
[03:46] 06. ‰- (instrumental)

Прoдолжительность: 00:00:22:08
Код:

[CUETools log; Date: 30.01.2015 23:34:30; Version: 2.1.5]
Padded some input files to a frame boundary.
[CTDB TOCID: QFCb20lbbUYD91M9HE_TpnTkunw-] found.
Track | CTDB Status
  1   | (0/8) No match
  2   | (0/8) No match
  3   | (0/8) No match
  4   | (0/8) No match
  5   | (0/8) No match
  6   | (0/8) No match
[AccurateRip ID: 000535a9-001bf962-42053006] found.
Track   [  CRC   |   V2   ] Status
 01     [47ca144c|23f96f87] (0+0/3) No match
 02     [aa82f399|5296ebaa] (0+0/3) No match
 03     [b26672b5|6482eba5] (0+0/3) No match
 04     [cee2b3ce|5bb7ac19] (0+0/3) No match
 05     [b9eaf1eb|0cff6575] (0+0/3) No match
 06     [a06df157|eeb6769e] (0+0/3) No match

Track Peak [ CRC32  ] [W/O NULL]
 --  100,0 [509BFC52] [33322EFE]
 01  100,0 [BDF03FA7] [B2922211]
 02   98,2 [C46F18E5] [743E6073]
 03   98,7 [F5686604] [6C370C17]
 04  100,0 [32771A87] [F9C64EE9]
 05   98,2 [031C559A] [5891C4D6]
 06   98,8 [387B1C26] [0F50F726]
Код:

-----------------------

DON'T MODIFY THIS FILE

-----------------------

PERFORMER: auCDtect Task Manager, ver. 1.6.0 RC1 build 1.6.0.1
Copyright (c) 2008-2010 y-soft. All rights reserved
http://y-soft.org

ANALYZER: auCDtect: CD records authenticity detector, version 0.8.2
Copyright (c) 2004 Oleg Berngardt. All rights reserved.
Copyright (c) 2004 Alexander Djourik. All rights reserved.

FILE: 01. ichigo & senya — .flac
  Size: 24955701 Hash: 5FFB4BB014590459F026E1F67944812A Accuracy: -m0
  Conclusion: CDDA 100%
  Signature: F4F1D9FAEC54FDA61B61BA6342D6456C42403C62
FILE: 02. senya — .flac
  Size: 35013346 Hash: D903E652A29C6A12EBE19B720B9DE931 Accuracy: -m0
  Conclusion: CDDA 100%
  Signature: D533278AD7C3E1270BE8BBA6A32566BCB3415987
FILE: 03. senya — .flac
  Size: 31690249 Hash: 39588E3A939C0634088C0967D27AEBEE Accuracy: -m0
  Conclusion: CDDA 100%
  Signature: 1E46524D896CFF301CF27CAA6D64644636733B0D
FILE: 04. ‰— (instrumental).flac
  Size: 24777227 Hash: 744A5853ABAA8410637D70CD5AAA9F7E Accuracy: -m0
  Conclusion: CDDA 100%
  Signature: 25AF3AF5D37EBC5316C02A7E1C43238C4D56127A
FILE: 05. ‰— (instrumental).flac
  Size: 33588324 Hash: 8ACD21CF94A6907DB8558739613EC182 Accuracy: -m0
  Conclusion: CDDA 100%
  Signature: F9812ED311B8597F1F11E7499E94033323EEBF12
FILE: 06. ‰— (instrumental).flac
  Size: 31387753 Hash: 7D3A1D3E4F4986CECA3D0E1D363AE61D Accuracy: -m0
  Conclusion: CDDA 100%
  Signature: FD155618909C88B0DDF04A079FE0F1CD934CE2D7
Трeклист:

[04:07] 01. senya -
[03:59] 02. senya -
[03:35] 03. senya -
[04:23] 04. senya -
[04:04] 05. senya -
[04:00] 06. senya - ‰(Autobahn Remix)
[06:13] 07. senya - (‰REMIX)

Прoдолжительность: 00:00:30:24
Код:

[CUETools log; Date: 30.01.2015 23:34:36; Version: 2.1.5]
[CTDB TOCID: HBntO8gjNdIVAXdX922r1RPImSM-] found.
Track | CTDB Status
  1   | ( 0/16) No match
  2   | ( 0/16) No match
  3   | ( 0/16) No match
  4   | ( 0/16) No match
  5   | ( 0/16) No match
  6   | ( 0/16) No match
  7   | ( 0/16) No match
[AccurateRip ID: 0007e1ba-002f9b47-59072007] found.
Track   [  CRC   |   V2   ] Status
 01     [e3875a29|7f1cda43] (0+0/4) No match
 02     [03f6d0d9|68e2a5d9] (0+0/4) No match
 03     [72d7c199|24f76800] (0+0/4) No match
 04     [9cfaa67d|c9f39812] (0+0/4) No match
 05     [eb30aaa9|1c337fd1] (0+0/4) No match
 06     [f831838b|ad1a677f] (0+0/4) No match
 07     [ae6a61fb|df7d614a] (0+0/4) No match

Track Peak [ CRC32  ] [W/O NULL]
 --   97,9 [6FF8881D] [E2766BCE]
 01   96,9 [72F13750] [6B0E9848]
 02   97,9 [293950ED] [146EB1C5]
 03   97,5 [58A36F6A] [105D2847]
 04   97,5 [D61C31DA] [242136B3]
 05   97,5 [8A240DF2] [5F470DF4]
 06   97,5 [8F2D6358] [517272D1]
 07   97,5 [6F578A24] [03FA85CD]
Код:

-----------------------

DON'T MODIFY THIS FILE

-----------------------

PERFORMER: auCDtect Task Manager, ver. 1.6.0 RC1 build 1.6.0.1
Copyright (c) 2008-2010 y-soft. All rights reserved
http://y-soft.org

ANALYZER: auCDtect: CD records authenticity detector, version 0.8.2
Copyright (c) 2004 Oleg Berngardt. All rights reserved.
Copyright (c) 2004 Alexander Djourik. All rights reserved.

FILE: 01. senya — .flac
  Size: 31419912 Hash: DFEDC95DB783AF747022CCB0EDCC76FC Accuracy: -m0
  Conclusion: CDDA 100%
  Signature: C6F636D1AD285BF2155B36A06802454375CE77B8
FILE: 02. senya — .flac
  Size: 34371135 Hash: 96073223891F4EA634F114B59D607DD8 Accuracy: -m0
  Conclusion: CDDA 100%
  Signature: 286BB793F7B9E8148AE6223B834E5432864DE442
FILE: 03. senya — .flac
  Size: 31897572 Hash: 8EE93CC830534E1890D0118C31764E41 Accuracy: -m0
  Conclusion: CDDA 100%
  Signature: 1E2D63DAAA111D9B56A609493F99FBD65BCD33E2
FILE: 04. senya — .flac
  Size: 37158747 Hash: B5BB197CA15147AB3EDCD6DBE5D65A69 Accuracy: -m0
  Conclusion: CDDA 100%
  Signature: 5CB00130A62E811194B58656A684D5C2E4C3C978
FILE: 05. senya — .flac
  Size: 35569978 Hash: 74525EAF3834823BC9B912BC61ED7938 Accuracy: -m0
  Conclusion: CDDA 100%
  Signature: 2E511B278880CCBA565A17C6F47CD49446DC793F
FILE: 06. senya — ‰(Autobahn Remix).flac
  Size: 34147279 Hash: ADA1DE9B6154705A0F3BA1F1C3F29E8E Accuracy: -m0
  Conclusion: CDDA 100%
  Signature: 57F3211E78372C3BD5146213DE92EACE1B3D546E
FILE: 07. senya —  (‰REMIX).flac
  Size: 51744356 Hash: 545D43605CCE9F1CEB9A13CCD3186523 Accuracy: -m0
  Conclusion: CDDA 100%
  Signature: 1C4424573660C09F8D05F59F2EED26D350DABB8A
Трeклист:

[03:20] 01. senya -
[03:20] 02. HiZuMi - ‰(Instrumental)

Прoдолжительность: 00:00:06:40
Код:

[CUETools log; Date: 30.01.2015 23:34:38; Version: 2.1.5]
[CTDB TOCID: t9fUz3Qrtv_aE8bR1H2LTwHaKos-] found.
Track | CTDB Status
  1   | (5/5) Accurately ripped
  2   | (5/5) Accurately ripped
[AccurateRip ID: 0000b013-0001d589-06019002] found.
Track   [  CRC   |   V2   ] Status
 01     [cf820146|cc150824] (0+0/2) No match
 02     [37f9bbf3|594b1183] (0+0/2) No match
Offsetted by 6:
 01     [31308df1] (0/2) No match (V2 was not tested)
 02     [26e2d105] (0/2) No match (V2 was not tested)

Track Peak [ CRC32  ] [W/O NULL]
 --   99,3 [11E0A217] [266BCBCA]
 01   99,3 [984B8583] [27067F68]
 02   99,2 [8A9066AC] [40C72F77]
Код:

-----------------------

DON'T MODIFY THIS FILE

-----------------------

PERFORMER: auCDtect Task Manager, ver. 1.6.0 RC1 build 1.6.0.1
Copyright (c) 2008-2010 y-soft. All rights reserved
http://y-soft.org

ANALYZER: auCDtect: CD records authenticity detector, version 0.8.2
Copyright (c) 2004 Oleg Berngardt. All rights reserved.
Copyright (c) 2004 Alexander Djourik. All rights reserved.

FILE: 01. senya — .flac
  Size: 27748771 Hash: 265C8DDFC6FE64E1DB8B74799E1FDC7A Accuracy: -m0
  Conclusion: CDDA 100%
  Signature: 09238A575058B9D7D8E64D700F5DF2058F86F28D
FILE: 02. HiZuMi — ‰(Instrumental).flac
  Size: 27575275 Hash: 291A9B15F96710E2F63CCD851311FB40 Accuracy: -m0
  Conclusion: CDDA 100%
  Signature: 42E450493C07A148FC3C302F8B3273D7FE819BF1
Трeклист:

[04:14] 01. senya -
[04:11] 02. senya -
[04:43] 03. senya -
[04:21] 04. senya -
[03:40] 05. senya -
[04:59] 06. senya - ‰(Dubstep Remix)

Прoдолжительность: 00:00:26:10
Код:

[CUETools log; Date: 30.01.2015 23:34:43; Version: 2.1.5]
[CTDB TOCID: eddqbGcAGGSh1V6NBWa147BUj3g-] found.
Track | CTDB Status
  1   | (13/13) Accurately ripped
  2   | (13/13) Accurately ripped
  3   | (13/13) Accurately ripped
  4   | (13/13) Accurately ripped
  5   | (13/13) Accurately ripped
  6   | (13/13) Accurately ripped
[AccurateRip ID: 00063a87-00214216-41062206] found.
Track   [  CRC   |   V2   ] Status
 01     [025edbd7|c8944308] (0+4/4) Accurately ripped
 02     [d58eef00|63f2dd9e] (0+4/4) Accurately ripped
 03     [e6eb92c2|cfc7eb5c] (0+4/4) Accurately ripped
 04     [9514c741|a23440e4] (0+4/4) Accurately ripped
 05     [bca68ed1|f51aeaa2] (0+4/4) Accurately ripped
 06     [6db79f86|e83e8233] (0+3/3) Accurately ripped

Track Peak [ CRC32  ] [W/O NULL]
 --  100,0 [A046E231] [20614814]
 01   99,7 [B6C91D53] [DC630E52]
 02   99,3 [A4172E19] [271BC44A]
 03  100,0 [49CF4D72] [F6C27A0F]
 04  100,0 [8E32BCEA] [468BA01F]
 05  100,0 [7AA1A9D8] [02F0E396]
 06  100,0 [595845B1] [3836DDC1]
Код:

-----------------------

DON'T MODIFY THIS FILE

-----------------------

PERFORMER: auCDtect Task Manager, ver. 1.6.0 RC1 build 1.6.0.1
Copyright (c) 2008-2010 y-soft. All rights reserved
http://y-soft.org

ANALYZER: auCDtect: CD records authenticity detector, version 0.8.2
Copyright (c) 2004 Oleg Berngardt. All rights reserved.
Copyright (c) 2004 Alexander Djourik. All rights reserved.

FILE: 01. senya — .flac
  Size: 32685021 Hash: F0134D705B5659F5F657AE03B3B69A16 Accuracy: -m0
  Conclusion: CDDA 100%
  Signature: C61F5A35CCC26DAC8CFE52ECDC90EB321BB9D896
FILE: 02. senya — .flac
  Size: 33600601 Hash: 4CDC66FE4FE5B7330318BDD1D9D9263A Accuracy: -m0
  Conclusion: CDDA 100%
  Signature: 5CA0A73BE1FC4AD700C7928BF149FB28F8C6D042
FILE: 03. senya — .flac
  Size: 40516491 Hash: 2A095ECABAB07232C0A1D249177F6715 Accuracy: -m0
  Conclusion: CDDA 100%
  Signature: BD29EB0A7E1AD766548682627BFE73933FC0C54B
FILE: 04. senya — .flac
  Size: 36013311 Hash: BEDEF7CE311F254D50CFE3C99AC77215 Accuracy: -m0
  Conclusion: CDDA 100%
  Signature: 827D0CA3CD0FCB649280EEA2A485EC231C7FE5EF
FILE: 05. senya — .flac
  Size: 31333942 Hash: B50A67BF90ACF2DB74AA5CFEB3BCECA1 Accuracy: -m0
  Conclusion: CDDA 100%
  Signature: E4F404256EE9A3EE1653C3398A48640184387B4C
FILE: 06. senya — ‰(Dubstep Remix).flac
  Size: 39253783 Hash: CFD3E0E667F49832FE000E0BE64CCCC1 Accuracy: -m0
  Conclusion: CDDA 100%
  Signature: 1CB96EAD08903DDCB34E9D63E64F90F235A55742
Трeклист:

[04:27] 01. senya -
[03:35] 02. senya -
[03:39] 03. senya -
[03:43] 04. senya -
[03:39] 05. senya - Magica
[04:06] 06. senya - (Autobahn Remix)

Прoдолжительность: 00:00:23:11
Код:

[CUETools log; Date: 30.01.2015 23:34:53; Version: 2.1.5]
[CTDB TOCID: g95DmwaeZcinP2uAfvKbdfmGMYE-] found.
Track | CTDB Status
  1   | (0/8) No match
  2   | (0/8) No match
  3   | (0/8) No match
  4   | (0/8) No match
  5   | (0/8) No match
  6   | (0/8) No match
[AccurateRip ID: 00059f58-001dc84a-4b056f06] found.
Track   [  CRC   |   V2   ] Status
 01     [6ad22690|84a98b5f] (0+0/1) No match
 02     [d57f59d2|5a841ffb] (0+0/1) No match
 03     [cdd36f3e|a84cfcd8] (0+0/1) No match
 04     [82e375b6|7f077d0f] (0+0/1) No match
 05     [0167d40b|d797c6ca] (0+0/1) No match
 06     [d9bf28f2|1ec1ba3b] (0+0/1) No match

Track Peak [ CRC32  ] [W/O NULL]
 --   99,9 [565C0C53] [22370350]
 01   97,0 [3A43AB42] [F2946CCA]
 02   96,7 [F87BEA0D] [8BBD0A4A]
 03   84,7 [A0303129] [A1435C5C]
 04   98,2 [077E9535] [4D266DFE]
 05   99,9 [38110958] [549BE97A]
 06   85,8 [4A0E1893] [45ED46B0]
Код:

-----------------------

DON'T MODIFY THIS FILE

-----------------------

PERFORMER: auCDtect Task Manager, ver. 1.6.0 RC1 build 1.6.0.1
Copyright (c) 2008-2010 y-soft. All rights reserved
http://y-soft.org

ANALYZER: auCDtect: CD records authenticity detector, version 0.8.2
Copyright (c) 2004 Oleg Berngardt. All rights reserved.
Copyright (c) 2004 Alexander Djourik. All rights reserved.

FILE: 01. senya — .flac
  Size: 34983946 Hash: DFB16112C213044A7E4CB4A7507B0387 Accuracy: -m0
  Conclusion: CDDA 100%
  Signature: 947F3162347293BD060DE077732CE51E02D551B9
FILE: 02. senya — .flac
  Size: 29892216 Hash: AFD2B540BADE6310E6DF8B1D94F72484 Accuracy: -m0
  Conclusion: CDDA 100%
  Signature: B6B694DBAA24BC96BF6B760850311FD287D7F8DC
FILE: 03. senya — .flac
  Size: 32831035 Hash: 73930BEE24B24FA69F0D4714FD6F5508 Accuracy: -m0
  Conclusion: CDDA 100%
  Signature: 168BE65BB699323EF8DB4C2790C07AFD58662169
FILE: 04. senya — .flac
  Size: 32572493 Hash: 5C1E53BBDD36A0CF240A3091A8C70F1C Accuracy: -m0
  Conclusion: CDDA 100%
  Signature: 5FB3BF2D4C30BD07E365A5B0894F0A73F55C3704
FILE: 05. senya — Magica.flac
  Size: 30613126 Hash: DEB4DD1BF0B04218F4F8D8D489E4079C Accuracy: -m0
  Conclusion: CDDA 99%
  Signature: 5E68682C71146E43482279E2894F8CC15AC7882D
FILE: 06. senya — (Autobahn Remix).flac
  Size: 34106645 Hash: D176F5C67A9D9CBF07420AAD430A301E Accuracy: -m0
  Conclusion: CDDA 100%
  Signature: 40D433D3C2D21DDB104BE82E8C373CF20EEAAFBE
Трeклист:

[03:48] 01. senya -
[03:48] 02. Autobahn - ‰(Instrumental)

Прoдолжительность: 00:00:07:37
Код:

[CUETools log; Date: 30.01.2015 23:34:56; Version: 2.1.5]
[CTDB TOCID: _OpApegzUedKA9lnEzfsMfgQYf4-] found.
Track | CTDB Status
  1   | (3/3) Accurately ripped
  2   | (3/3) Accurately ripped
[AccurateRip ID: 0000c909-00021819-0701c902] disk not present in database.

Track Peak [ CRC32  ] [W/O NULL]
 --   99,5 [62A39175] [72A7F020]
 01   99,5 [0C7E5D50] [C25CA552]
 02   99,2 [C9C718CF] [220111BF]
Код:

-----------------------

DON'T MODIFY THIS FILE

-----------------------

PERFORMER: auCDtect Task Manager, ver. 1.6.0 RC1 build 1.6.0.1
Copyright (c) 2008-2010 y-soft. All rights reserved
http://y-soft.org

ANALYZER: auCDtect: CD records authenticity detector, version 0.8.2
Copyright (c) 2004 Oleg Berngardt. All rights reserved.
Copyright (c) 2004 Alexander Djourik. All rights reserved.

FILE: 01. senya — .flac
  Size: 29705819 Hash: 4AD718ADD2FAAB0A5F7B6777B1FF4109 Accuracy: -m0
  Conclusion: CDDA 100%
  Signature: BDEB85016951A0771C2CD8E5299419E759CBE95F
FILE: 02. Autobahn — ‰(Instrumental).flac
  Size: 29214182 Hash: B66E0EEFEDC8636499ADD7351C6A50D2 Accuracy: -m0
  Conclusion: CDDA 100%
  Signature: 45ECD8D468DF2EED2E29765620662F95B277E318
Трeклист:

[05:14] 01. senya -
[03:21] 02. senya -
[05:17] 03. senya - (Hardstyle Remix)
[05:17] 04. senya - (Instrumental)
[03:22] 05. senya - (Instrumental)

Прoдолжительность: 00:00:22:29
Код:

[CUETools log; Date: 28.01.2015 12:00:43; Version: 2.1.5]
[CTDB TOCID: sgupq2huGNNr_4s67hyHB2xk3yk-] found.
Track | CTDB Status
  1   | (0/3) No match
  2   | (0/3) No match
  3   | (0/3) No match
  4   | (0/3) No match
  5   | (0/3) No match
[AccurateRip ID: 0004c13f-00161c57-35054405] found.
Track   [  CRC   |   V2   ] Status
 01     [bda52678|e8b05fc7] (0+0/1) No match
 02     [45299a56|aa6ebc70] (0+0/1) No match
 03     [1465b65b|22785cc4] (0+0/1) No match
 04     [55140d77|21790909] (0+0/1) No match
 05     [2669244e|dc1f512a] (0+0/1) No match

Track Peak [ CRC32  ] [W/O NULL]
 --  100,0 [18209827] [185B017B]
 01   98,8 [842029F5] [9846FF3F]
 02  100,0 [29776159] [DAF7DDDF]
 03  100,0 [B3F9E5A4] [B41F3CC3]
 04   98,8 [46BB8AE6] [C087FB58]
 05   99,9 [8884CEF5] [9C9CD237]
Код:

-----------------------

DON'T MODIFY THIS FILE

-----------------------

PERFORMER: auCDtect Task Manager, ver. 1.6.0 RC1 build 1.6.0.1
Copyright (c) 2008-2010 y-soft. All rights reserved
http://y-soft.org

ANALYZER: auCDtect: CD records authenticity detector, version 0.8.2
Copyright (c) 2004 Oleg Berngardt. All rights reserved.
Copyright (c) 2004 Alexander Djourik. All rights reserved.

FILE: 01. senya — .flac
  Size: 42524052 Hash: C93ABED80F3EC37DBD6EE1D7AC59D0E5 Accuracy: -m0
  Conclusion: CDDA 99%
  Signature: 87CAEF966D4D42FB0A8F3F6710D5C919F996702E
FILE: 02. senya — .flac
  Size: 27888081 Hash: 987824A241D9B0FAFDBD67DC23EEA7D7 Accuracy: -m0
  Conclusion: CDDA 100%
  Signature: 0132252016305C2172B88423489F5C3895E65D8A
FILE: 03. senya — (Hardstyle Remix).flac
  Size: 47445095 Hash: B8540E292F9B476A07DD855C9577B0AE Accuracy: -m0
  Conclusion: CDDA 100%
  Signature: FCBCD482813FE09E6D7FEA11144DB6A28FF0A83E
FILE: 04. senya — (Instrumental).flac
  Size: 39934472 Hash: F069B8B477E2AE5D04FC00004D1CCD0F Accuracy: -m0
  Conclusion: CDDA 100%
  Signature: C19A7F1AEEC99B5023F4810EBFC447AA51B04172
FILE: 05. senya — (Instrumental).flac
  Size: 27676119 Hash: 159366DF8E3A605AB2B979D886CF1478 Accuracy: -m0
  Conclusion: CDDA 100%
  Signature: A2D9CC0D43BFB42AA4C49562A18047109E0B19BA
Трeклист:

[03:59] 01. senya -
[03:47] 02. senya - DICE
[03:25] 03. senya -
[04:32] 04. senya -
[02:54] 05. senya -
[03:11] 06. senya -

Прoдолжительность: 00:00:21:46
Код:

[CUETools log; Date: 27.01.2015 12:49:03; Version: 2.1.5]
Padded some input files to a frame boundary.
[CTDB TOCID: shNK4DrkI5PlWWs1hOD9qus81TA-] disk not present in database.
[AccurateRip ID: 00056a87-001cb2ac-3d051906] disk not present in database.

Track Peak [ CRC32  ] [W/O NULL]
 --   97,7 [D88F52B5] [B42A9B64]
 01   96,0 [2513CF4B] [B7C980FE]
 02   97,7 [3B1CC825] [0957826A]
 03   97,7 [70B7AEB2] [CD81DCCA]
 04   97,7 [EE4C52FF] [975FFB82]
 05   97,7 [D3103D93] [42E5FBE8]
 06   88,0 [34DD4125] [AFC4C739]
Код:

-----------------------

DON'T MODIFY THIS FILE

-----------------------

PERFORMER: auCDtect Task Manager, ver. 1.6.0 RC1 build 1.6.0.1
Copyright (c) 2008-2010 y-soft. All rights reserved
http://y-soft.org

ANALYZER: auCDtect: CD records authenticity detector, version 0.8.2
Copyright (c) 2004 Oleg Berngardt. All rights reserved.
Copyright (c) 2004 Alexander Djourik. All rights reserved.

FILE: 01. senya — .flac
  Size: 31935237 Hash: 18D7EFC6C6DF71939C8C047146B1EF66 Accuracy: -m0
  Conclusion: CDDA 100%
  Signature: 4567945FE5119D79B7E9A3E1A5C6205FF4D51F40
FILE: 02. senya — DICE.flac
  Size: 29447462 Hash: 46FEBCCBD9E1F5A237A9FAD84F8DD3E1 Accuracy: -m0
  Conclusion: CDDA 100%
  Signature: 21BDDAB035B04E20055FC1D040F0C4B50677F5DA
FILE: 03. senya — .flac
  Size: 28753252 Hash: A1580C65F8428C940292CA9574C5FA53 Accuracy: -m0
  Conclusion: CDDA 99%
  Signature: CD4B99C62F29F24B6E06EB9578D9B7B9B259F2C0
FILE: 04. senya — .flac
  Size: 37800007 Hash: 832A9A5EB454B8CA13D0553C032B1745 Accuracy: -m0
  Conclusion: CDDA 100%
  Signature: 7C2E51F2A5D27DF8945A47183E42B907B5D89884
FILE: 05. senya — .flac
  Size: 23628681 Hash: 1F6442B29A861A7BB40968F6C0F4403E Accuracy: -m0
  Conclusion: CDDA 100%
  Signature: 8055FE84572CE4AD32D16413EBDF08F565AF7BAE
FILE: 06. senya — .flac
  Size: 27121114 Hash: AC348F88C969CC98DC2CD97A169A3EC9 Accuracy: -m0
  Conclusion: CDDA 100%
  Signature: EA2C4CD114DFCA8888CBD9D3EEB219A7C23314DB

Добавлены альбомы:

  • 2014.10.12 (YHST-0046) Sakuretsu Irony (Kouroumu 10)
  • 2014.12.29 (YHST-0048) Omoi ga Rekishi ni Owaru Toki (C87)

Исключён альбом
2013.12.30 Megami no Kuchidzuke wo (KanColle) [C85]
Вынесен в отдельную раздачу.

Yuuhei Satellite - 28 альбомов (2010-2014) Touhou Vocal /Doujin/ [FLAC|Lossless] <J-Pop, J-Rock, Electronic>
Продолжительность: 00:13:06:46
Описание:Альбомы в раздаче
2010.08.14 (YHST-0001) Kanjyou Chemistry (C78)
2010.09.19 (YHST-0002) Iroha nioedo Chirinuru wo (Reitaisai SP)

2014.10.12 (YHST-0046) Sakuretsu Irony (Kouroumu 10)
2014.12.29 (YHST-0048) Omoi ga Rekishi ni Owaru Toki (C87)
[NNM-Club.me]_[Yuuhei Satellite — &#24189;&#38281;&#12469;&#12486;&#12521;&#12452;&#12488;].torrent
 Торрент: Платиновая раздача  Зарегистрирован
 
Скачать


Примагнититься
 Зарегистрирован:   31 Янв 2015 18:39:19
 Размер:   5.03 GB  (
 Рейтинг:   4.3 (Голосов: 25)
 Поблагодарили:   40
 Проверка:   Оформление проверено модератором 31 Янв 2015 18:39:40
Как cкачать  ·  Как раздать  ·  Правильно оформить  ·  Поднять ратио!  

_________________
Правила: Аниме, Манга, OST || Музыка
Помощь: Скриншоты || MediaInfo || auCDtect
Феникс
Uploader 100+
Стаж: 12 лет 8 мес.
Сообщений: 2173
Ratio: 1297.152
Раздал: 164.1 TB
100%
witch.png
Тохотааааа!
blockmak1977
Стаж: 9 лет 5 мес.
Сообщений: 3
Ratio: 1.557
100%
проникся
ElSwanko ®
Куратор Аниме
Модератор Музыки
Стаж: 16 лет
Сообщений: 17894
Ratio: 1026.529
Поблагодарили: 77678
100%
Откуда: ур-пространство преконтинуума
roody.gif
Какой здесь у Сени голос прокуренный получился...
Ждём-с обновок с С87 :)

_________________
Правила: Аниме, Манга, OST || Музыка
Помощь: Скриншоты || MediaInfo || auCDtect
Феникс
Uploader 100+
Стаж: 12 лет 8 мес.
Сообщений: 2173
Ratio: 1297.152
Раздал: 164.1 TB
100%
witch.png
!!!! С нетерпением!
ElSwanko ®
Куратор Аниме
Модератор Музыки
Стаж: 16 лет
Сообщений: 17894
Ratio: 1026.529
Поблагодарили: 77678
100%
Откуда: ур-пространство преконтинуума
roody.gif
Добавлены альбомы:

  • 2014.10.12 (YHST-0046) Sakuretsu Irony (Kouroumu 10)
  • 2014.12.29 (YHST-0048) Omoi ga Rekishi ni Owaru Toki (C87)

Исключён альбом
2013.12.30 Megami no Kuchidzuke wo (KanColle) [C85]
Вынесен в отдельную раздачу: Yuuhei Katharsis

_________________
Правила: Аниме, Манга, OST || Музыка
Помощь: Скриншоты || MediaInfo || auCDtect
Феникс
Uploader 100+
Стаж: 12 лет 8 мес.
Сообщений: 2173
Ratio: 1297.152
Раздал: 164.1 TB
100%
witch.png
Отлично.Спасибо!
Показать сообщения:   
Начать новую тему   Ответить на тему    Торрент-трекер NNM-Club -> East Asian Music -> Doujin Music (Lossless) Часовой пояс: GMT + 3
Страница 1 из 1