Классический форум-трекер
canvas not supported
Нас вместе: 4 104 340

Три телепередачи с Светланой Сургановой (2005) TVrip


 
 
RSS
Начать новую тему   Ответить на тему    Торрент-трекер NNM-Club -> Театр и Музыкальное видео -> Концерты
Автор Сообщение
Metr_72 ®
Релизер-меломан
Стаж: 12 лет 11 мес.
Сообщений: 2434
Ratio: 13,061
Поблагодарили: 26910
100%
Откуда: Rivne Сельская местность
ukraine.gif
Три телепередачи с Светланой Сургановой (2005) TVrip

Жанр: Телепередачи (для фанатов творчества Св. Сургановой)
Описание фильма:
Три телепередачи с Светланой Сургановой
1. Передача «Соседи» на канале Столица...
2. Передача «Море позитива» канал O2TV (15.09.2005)....
3. Презентация альбома «Возлюбленая Шопена» канал TV 5 (26.04.2005)
Актеры: Светлана Сурганова и оркестр, плюс соседи в одноименной телепередаче

Передача «Соседи»
Прoдолжительность: 0:13:02
Видео: MPEG2, 720x576, 4380 kbps
Аудио: MP2 2.0, 256 kbps
Передача «Море позитива»
Прoдолжительность: 00:35:24
Видео: DivX 5, 640x480, 1326 kbps
Аудио: MP3 2.0, 96 kbps
Презентация альбома «Возлюбленая Шопена»
Прoдолжительность: 00:38:52
Видео: DivX 5, 640x480, 1121 kbps
Аудио: MP3 2.0, 192 kbps
Полное имя : Z:\Концерты\Sv. Surganova TV\Sv. Surganova 'Sosedi' (Stolica).mpg
Формат : MPEG-PS
Размер файла : 442 Мбайт
Продолжительность : 13 м.
Общий поток : 4742 Кбит/сек

Видео
Идентификатор : 224 (0xE0)
Формат : MPEG Video
Версия формата : Version 2
Профиль формата : Main@Main
Параметр BVOP формата : Да
Параметр матрицы формата : Выборочная
Параметр GOP формата : M=3, N=12
Продолжительность : 13 м.
Битрейт : 4380 Кбит/сек
Ширина : 720 пикселей
Высота : 576 пикселей
Соотношение сторон : 4:3
Частота кадров : 25,000 кадров/сек
Стандарт вещания : PAL
Цветовое пространство : YUV
Субдискретизация насыщенности : 4:2:0
Битовая глубина : 8 бит
Тип развёртки : Чересстрочная
Порядок развёртки : Верхнее поле первое
Метод сжатия : С потерями
Бит/(Пиксели*Кадры) : 0.422
Размер потока : 410 Мбайт (93%)

Аудио
Идентификатор : 192 (0xC0)
Формат : MPEG Audio
Версия формата : Version 1
Профиль формата : Layer 2
Продолжительность : 13 м.
Вид битрейта : Постоянный
Битрейт : 256 Кбит/сек
Каналы : 2 канала
Частота : 48,0 КГц
Метод сжатия : С потерями
Размер потока : 23,9 Мбайт (5%)
Полное имя : Z:\Концерты\Sv. Surganova TV\Sv. Surganova More pozitiva (O2TV, 15.09.2005).avi
Формат : AVI
Формат/Информация : Audio Video Interleave
Размер файла : 362 Мбайт
Продолжительность : 35 м.
Общий поток : 1432 Кбит/сек
Программа кодирования : VirtualDubMod 1.5.10.2 (build 2540/release)
Библиотека кодирования : VirtualDubMod build 2540/release

Видео
Идентификатор : 0
Формат : MPEG-4 Visual
Параметр BVOP формата : 1
Параметр QPel формата : Нет
Параметр GMC формата : Без точки перехода
Параметр матрицы формата : Default (H.263)
Режим смешивания : Сжатый битовый поток
Идентификатор кодека : DX50
Идентификатор кодека/Подсказка : DivX 5
Продолжительность : 35 м.
Битрейт : 1326 Кбит/сек
Ширина : 640 пикселей
Высота : 480 пикселей
Соотношение сторон : 4:3
Частота кадров : 25,000 кадров/сек
Цветовое пространство : YUV
Субдискретизация насыщенности : 4:2:0
Битовая глубина : 8 бит
Тип развёртки : Чересстрочная
Порядок развёртки : Верхнее поле первое
Метод сжатия : С потерями
Бит/(Пиксели*Кадры) : 0.173
Размер потока : 336 Мбайт (93%)
Библиотека кодирования : DivX 5.0.5 Beta(Tahanea) (UTC 2003-01)

Аудио
Идентификатор : 1
Формат : MPEG Audio
Версия формата : Version 1
Профиль формата : Layer 3
Идентификатор кодека : 55
Идентификатор кодека/Подсказка : MP3
Продолжительность : 35 м.
Вид битрейта : Постоянный
Битрейт : 96,0 Кбит/сек
Каналы : 2 канала
Частота : 44,1 КГц
Метод сжатия : С потерями
Размер потока : 24,3 Мбайт (7%)
Выравнивание : Разделение по промежуткам
Продолжительность промежутка : 40 мс. (1,00 видеокадр)
Время предзагрузки промежутка : 500 мс.
Полное имя : Z:\Концерты\Sv. Surganova TV\Sv. Surganova prezent. 'Vozl. Shopena' (TV, 26.04.2005).avi
Формат : AVI
Формат/Информация : Audio Video Interleave
Размер файла : 366 Мбайт
Продолжительность : 38 м.
Общий поток : 1317 Кбит/сек

Видео
Идентификатор : 0
Формат : MPEG-4 Visual
Параметр BVOP формата : 1
Параметр QPel формата : Нет
Параметр GMC формата : Без точки перехода
Параметр матрицы формата : Default (H.263)
Режим смешивания : Сжатый битовый поток
Идентификатор кодека : DX50
Идентификатор кодека/Подсказка : DivX 5
Продолжительность : 38 м.
Битрейт : 1121 Кбит/сек
Ширина : 640 пикселей
Высота : 480 пикселей
Соотношение сторон : 4:3
Частота кадров : 25,000 кадров/сек
Цветовое пространство : YUV
Субдискретизация насыщенности : 4:2:0
Битовая глубина : 8 бит
Тип развёртки : Прогрессивная
Метод сжатия : С потерями
Бит/(Пиксели*Кадры) : 0.146
Размер потока : 311 Мбайт (85%)
Библиотека кодирования : DivX 5.0.5 Beta(Tahanea) (UTC 2003-01)

Аудио
Идентификатор : 1
Формат : MPEG Audio
Версия формата : Version 1
Профиль формата : Layer 3
Идентификатор кодека : 55
Идентификатор кодека/Подсказка : MP3
Продолжительность : 38 м.
Вид битрейта : Постоянный
Битрейт : 192 Кбит/сек
Каналы : 2 канала
Частота : 44,1 КГц
Метод сжатия : С потерями
Размер потока : 53,4 Мбайт (15%)
Выравнивание : Разделение по промежуткам
Продолжительность промежутка : 500 мс. (12,50 видеокадров)
Время предзагрузки промежутка : 750 мс.
видеоверсии концертов:
«КругоСветка» DVD rip
«Квартирник на O2TV» (2006) TV rip
«5 песен на 5-м» (2007) TV
Полный контакт: «Сурганова и Оркестр» против «Butch» MTV (9.02.2007)TV rip
Светлана Сурганова и Оркестр «Соль» (2007) DVD 5
"Исповедь четырех": Богушевская, Butch, Умка, Сурганова

и такие аудио альбомы:
"Сурганова и оркестр" - "Соль" (2007) APE
"Сурганова и оркестр" - "Соль" (2007)MP3 «КругоСветка» (2006)
«Возлюбленная Шопена» (2005) «Неужели не я» (переиздание) (2004) «Живой» - 2003

Кроме того могу предложить:
Светлана Сурганова - акустический концерт (клуб Б2, 31.07.2005) avi 540 Метров
Светлана Сурганова - квартирник (Москва, 29.03.2003) avi 537 Метров
Светлана Сурганова и Оркестр - клуб Тень 09.03.07 avi 1.668 Гига
Светлана Сурганова и Оркестр - МАИ 3.02.07 (весь концерт) avi 654 Метрa

Время раздачи: 24/7 . . . Не забывайте нажимать на

Продолжительность: 01:27:18
Sv. Surganova TV.torrent
 Торрент: Золотая раздача  Зарегистрирован
 
Зарегистрируйтесь и скачайте торрент!
11,8 KB
Free Leech
 Зарегистрирован:   26 Май 2008 22:50:06
 Размер:   1,14 GB  (
 Рейтинг:    (Голосов: 5)
 Поблагодарили:   21
 Проверка:   Оформление проверено модератором 26 Май 2008 23:04:54
Как cкачать  ·  Как раздать  ·  Правильно оформить  ·  Поднять ратио!  
Показать сообщения:   
Начать новую тему   Ответить на тему    Торрент-трекер NNM-Club -> Театр и Музыкальное видео -> Концерты Часовой пояс: GMT + 3
Страница 1 из 1