Классический форум-трекер
canvas not supported
Нас вместе: 4 235 259

Команда 49: Огненная лестница / Ladder 49 (2004) BDRip [H.264/720p]


 
 
RSS
Начать новую тему   Ответить на тему    Торрент-трекер NNM-Club -> Архив торрентов -> Архив Видео. Кино, Театра
Автор Сообщение
sinteros ®
Стаж: 15 лет 5 мес.
Сообщений: 562
Ratio: 65.353
Поблагодарили: 62360
100%
Команда 49: Огненная лестница / Ladder 49 (2004)
BDRip [H.264/720p-LQ] [Hi10P]

Год выпуска: 2004
Страна: США
Жанр: боевик, триллер, драма
Перевод: Дублированный, Авторский x2
Оригинальная аудио дорожка: Английская + Коментари
Язык субтитров: Русский x2, Английский
Вид субтитров: Вшитые (отключаемые)

Описание фильма: Пойманному в огненную ловушку пожарному Джеку Мориссону предстоит вспомнить свою полную приключений жизнь, а его друзьям и коллегам по пожарному отряду «Лестница 49» во главе с боссом Кеннеди сделать все возможное, чтобы спасти его. Впереди у героев — испытания и пламенные вихри, но они — крепкая команда настоящих мужчин, способная все преодолеть…

Режиссер: Джей Расселл

Актеры: Хоакин Феникс, Джон Траволта, Джасинда Бэррет, Роберт Патрик, Моррис Честнат, Билли Бёрк, Бальтазар Гетти, Тим Гини, Кевин Чэпмен, Джей Эрнандез

Качество видео: BDRip
Продолжительность: 01:55:03

< МОИ РЕЛИЗЫ >
Основной файл весит 2,29гб с одной звуковой дорожкой!

Видео: MPEG-4 AVC/H.264, 1280x694(1,85:1), 23,976fps, 2418 Кbps, 0.114bit/pixel
Аудио 1: DUB Russian, AC3, 6ch, 48 kHz, 384 kbps, (Дубляж - R5)
Аудио 2: AVO Russian, AC3, 6ch, 48 kHz, 448 kbps, (Одноголосый - Визгунов) - Отдельным файлом
Аудио 3: AVO Russian, AC3, 6ch, 48 kHz, 448 kbps, (Одноголосый - Немахов) - Отдельным файлом
Аудио 4: English, AC3, 6ch, 48 kHz, 448 kbps, (Оригинал) - Отдельным файлом
Аудио 5: English, AC3, 2ch, 48 kHz, 192 kbps, (Коментарии) - Отдельным файлом
Общее
Полное имя : Команда 49 - Огненная Лестница (2004) BDRip-AVC.mkv
Формат : Matroska
Версия формата : Version 4 / Version 2
Размер файла : 3,53 Гбайт
Продолжительность : 1 ч. 55 м.
Общий поток : 4396 Кбит/сек
Название фильма : Команда 49: Огненная Лестница / Ladder 49 (2004) BDRip-AVC (Sinteros)
Attachment : Yes

Видео
Идентификатор : 1
Формат : AVC
Формат/Информация : Advanced Video Codec
Профиль формата : High 10@L4.1
Параметр CABAC формата : Да
Параметр ReFrames формата : 11 кадров
Идентификатор кодека : V_MPEG4/ISO/AVC
Продолжительность : 1 ч. 55 м.
Битрейт : 2418 Кбит/сек
Ширина : 1280 пикселей
Высота : 694 пикселя
Соотношение сторон : 1,85:1
Режим частоты кадров : Постоянный
Частота кадров : 23,976 кадра/сек
Цветовое пространство : YUV
Субдискретизация насыщенности : 4:2:0
Битовая глубина : 10 бит
Тип развёртки : Прогрессивная
Бит/(Пиксели*Кадры) : 0.114
Размер потока : 1,92 Гбайт (54%)
Заголовок : MPEG-4 AVC/H.264, 1280x694(1,85:1), 23,976fps, 2418 Кbps, 0.114bit/pixel
Библиотека кодирования : x264 core 133 r2334 a3ac64b
Настройки программы : cabac=1 / ref=11 / deblock=1:-1:-1 / analyse=0x3:0x133 / me=tesa / subme=10 / psy=1 / psy_rd=1.00:0.15 / mixed_ref=1 / me_range=24 / chroma_me=1 / trellis=2 / 8x8dct=1 / cqm=0 / deadzone=21,11 / fast_pskip=1 / chroma_qp_offset=-3 / threads=12 / lookahead_threads=1 / sliced_threads=0 / nr=0 / decimate=1 / interlaced=0 / bluray_compat=0 / constrained_intra=0 / bframes=6 / b_pyramid=2 / b_adapt=2 / b_bias=0 / direct=1 / weightb=1 / open_gop=0 / weightp=2 / keyint=250 / keyint_min=23 / scenecut=40 / intra_refresh=0 / rc_lookahead=60 / rc=crf / mbtree=1 / crf=20.0 / qcomp=0.60 / qpmin=0 / qpmax=81 / qpstep=4 / ip_ratio=1.40 / aq=1:1.00
Язык : English
Default : Да
Forced : Нет

Аудио #1
Идентификатор : 2
Формат : AC-3
Формат/Информация : Audio Coding 3
Расширение режима : CM (complete main)
Параметр Endianness формата : Big
Идентификатор кодека : A_AC3
Продолжительность : 1 ч. 55 м.
Вид битрейта : Постоянный
Битрейт : 384 Кбит/сек
Каналы : 6 каналов
Расположение каналов : Front: L C R, Side: L R, LFE
Частота : 48,0 КГц
Битовая глубина : 16 бит
Метод сжатия : С потерями
Размер потока : 316 Мбайт (9%)
Заголовок : DUB Russian, AC3, 6ch, 48 kHz, 384 kbps, (Дубляж - R5)
Язык : Russian
Default : Да
Forced : Нет

Аудио #2 - Отдельным файлом
Идентификатор : 3
Формат : AC-3
Формат/Информация : Audio Coding 3
Расширение режима : CM (complete main)
Параметр Endianness формата : Big
Идентификатор кодека : A_AC3
Продолжительность : 1 ч. 55 м.
Вид битрейта : Постоянный
Битрейт : 448 Кбит/сек
Каналы : 6 каналов
Расположение каналов : Front: L C R, Side: L R, LFE
Частота : 48,0 КГц
Битовая глубина : 16 бит
Метод сжатия : С потерями
Размер потока : 369 Мбайт (10%)
Заголовок : AVO Russian, AC3, 6ch, 48 kHz, 448 kbps, (Одноголосый - Визгунов) - Отдельным файлом
Язык : Russian
Default : Нет
Forced : Нет

Аудио #3 - Отдельным файлом
Идентификатор : 4
Формат : AC-3
Формат/Информация : Audio Coding 3
Расширение режима : CM (complete main)
Параметр Endianness формата : Big
Идентификатор кодека : A_AC3
Продолжительность : 1 ч. 55 м.
Вид битрейта : Постоянный
Битрейт : 448 Кбит/сек
Каналы : 6 каналов
Расположение каналов : Front: L C R, Side: L R, LFE
Частота : 48,0 КГц
Битовая глубина : 16 бит
Метод сжатия : С потерями
Размер потока : 369 Мбайт (10%)
Заголовок : AVO Russian, AC3, 6ch, 48 kHz, 448 kbps, (Одноголосый - Немахов) - Отдельным файлом
Язык : Russian
Default : Нет
Forced : Нет

Аудио #4 - Отдельным файлом
Идентификатор : 5
Формат : AC-3
Формат/Информация : Audio Coding 3
Расширение режима : CM (complete main)
Параметр Endianness формата : Big
Идентификатор кодека : A_AC3
Продолжительность : 1 ч. 55 м.
Вид битрейта : Постоянный
Битрейт : 448 Кбит/сек
Каналы : 6 каналов
Расположение каналов : Front: L C R, Side: L R, LFE
Частота : 48,0 КГц
Битовая глубина : 16 бит
Метод сжатия : С потерями
Размер потока : 369 Мбайт (10%)
Заголовок : English, AC3, 6ch, 48 kHz, 448 kbps, (Оригинал) - Отдельным файлом
Язык : English
Default : Нет
Forced : Нет

Аудио #5 - Отдельным файлом
Идентификатор : 6
Формат : AC-3
Формат/Информация : Audio Coding 3
Расширение режима : CM (complete main)
Параметр Endianness формата : Big
Идентификатор кодека : A_AC3
Продолжительность : 1 ч. 55 м.
Вид битрейта : Постоянный
Битрейт : 192 Кбит/сек
Каналы : 2 канала
Расположение каналов : Front: L R
Частота : 48,0 КГц
Битовая глубина : 16 бит
Метод сжатия : С потерями
Размер потока : 158 Мбайт (4%)
Заголовок : English, AC3, 2ch, 48 kHz, 192 kbps, (Коментарии) - Отдельным файлом
Язык : English
Default : Нет
Forced : Нет

Текст #1
Идентификатор : 7
Формат : UTF-8
Идентификатор кодека : S_TEXT/UTF8
Идентификатор кодека/Информация : UTF-8 Plain Text
Язык : Russian
Default : Нет
Forced : Нет

Текст #2
Идентификатор : 8
Формат : UTF-8
Идентификатор кодека : S_TEXT/UTF8
Идентификатор кодека/Информация : UTF-8 Plain Text
Заголовок : Коментарии
Язык : Russian
Default : Нет
Forced : Нет

Текст #3
Идентификатор : 9
Формат : UTF-8
Идентификатор кодека : S_TEXT/UTF8
Идентификатор кодека/Информация : UTF-8 Plain Text
Язык : English
Default : Нет
Forced : Нет

Меню
00:00:00.000 : en:
00:07:00.419 : en:
00:14:00.839 : en:
00:21:01.259 : en:
00:28:01.679 : en:
00:35:02.099 : en:
00:42:02.518 : en:
00:49:02.940 : en:
00:56:03.360 : en:
01:03:03.780 : en:
01:10:04.198 : en:
01:17:04.619 : en:
01:24:05.039 : en:
01:31:05.460 : en:
01:38:05.880 : en:
01:45:06.300 : en:
Примечание: Рип в High 10 Profile, в настоящее время не поддерживается большинством аппаратных проигрывателей, поэтому предназначен исключительно для воспроизведения на ПК. Для корректного воспроизведения может потребоваться обновление ПО.

Скриншоты:



Команда 49: Огненная лестница на NNM-club

Время раздачи: 24/7 (жду до 10-15 скачавших а дальше могу уйти с радачи)
[NNM-Club.me]_Komanda 49 - Ognennaya Lestnitsa (2004) BDRip-AVC.torrent
 Торрент: Платиновая раздача  Зарегистрирован
 
Скачать


Примагнититься
 Зарегистрирован:   20 Дек 2014 15:29:52
 Размер:   3.53 GB  (
 Рейтинг:   4.8 (Голосов: 25)
 Поблагодарили:   103
 Проверка:   Оформление проверено модератором 21 Дек 2014 12:33:53
Как cкачать  ·  Как раздать  ·  Правильно оформить  ·  Поднять ратио!  
Co-Pilot
Uploader 500+
 
Стаж: 13 лет 9 мес.
Сообщений: 2367
Ratio: 16K
Раздал: 653.7 TB
Поблагодарили: 672
100%
Откуда: СССР
ussr.gif
Друзья, кто смотрел? Отпишитесь, пожалуйста! Достойно к просмотру и долгому хранению на винте? Спасибо заранее! Автору раздачи в любом случае :респект:

_________________
ZpSaid
Стаж: 10 лет 7 мес.
Сообщений: 556
Ratio: 10.846
Раздал: 37.11 TB
100%
Co-Pilot писал(а): Перейти к сообщению
Друзья, кто смотрел? Отпишитесь, пожалуйста!

Сопли с сахаром. если сравнить с обратной тягой, - то обратная тяга в два раза лучше!

_________________
Джавдет трус! Абдула воин!
sergio1975
Стаж: 13 лет 1 мес.
Сообщений: 1591
Ratio: 6.487
100%
Откуда: Новосибирск
russia.gif
обратная тяга - это классика уже
Топик был перенесен из форума Зарубежные Фильмы (SD) в форум Архив Видео

Причина переноса: Длительное отсутствие сида на протяжении более года.

Исправил релиз - напиши ЛС Kleopatra, дав ссылку на релиз.
Если нет ответа 24 часа - нажми на кнопку "Обратить внимание модераторов".
Показать сообщения:   
Начать новую тему   Ответить на тему    Торрент-трекер NNM-Club -> Архив торрентов -> Архив Видео. Кино, Театра Часовой пояс: GMT + 3
Страница 1 из 1