Классический форум-трекер
canvas not supported
Нас вместе: 4 235 050

Перевозчик: Трилогия / Transporter: Trilogy (2002,2005,2008) BDRip [H.264/720p-LQ] [Hi10P]


 
 
RSS
Начать новую тему   Ответить на тему    Торрент-трекер NNM-Club -> Коллекции / *логии -> Зарубежное кино (коллекции / *логии)
Автор Сообщение
sinteros ®
Стаж: 15 лет 5 мес.
Сообщений: 562
Ratio: 65.353
Поблагодарили: 62356
100%
Перевозчик: Трилогия / Transporter: Trilogy (2002,2005,2008)
BDRip [H.264/720p-LQ] [Hi10P]



Производство: Франция, США, Великобритания
Год выпуска: 2002,2005,2008
Жанр: боевик, триллер, криминал
Продолжительность: 01:32:32, 01:28:07, 01:43:34
Перевод: Дублированный, Многоголосый, Двухголосый, Авторский
Режиссер: Луи Летерье, Кори Юэн, Оливье Мегатон
Актеры: Джейсон Стэтхэм, Шу Ци, Мэтт Шульце, Франсуа Берлеан, Рик Янг, Даг Рэнд, Дидье Сен Мелен, Тони Десканвелль, Лорен Деспонд, Маттье Альбертини, Алессандро Гассман, Эмбер Валлетта, Кейт Наута, Мэтью Модайн, Джейсон Флеминг, Кейт Дэвид, Хантер Клэри, Шеннон Бриггс, Франсуа Берлеан, Рэймонд Тонг, George Kapetan, Джефф Чейз, Грегг Уэйнер, Грегг Дэвис, Марти Райт, AnnaLynne McCord, Регги Пьер, Эли Томпсон, Адам Фалдетта, Майкл Хаус, Наталья Рудакова, Франсуа Берлеан, Роберт Нэппер, Ерун Краббе, Алекс Коболд, Дэвид Атракчи, Ян Сандберг, Эрик Эбони, Дэвид Камменос
Описание трилогии: Фильм первый - Приготовьтесь к тому, что мощнейший взрыв адреналина подхватит вас в начале фильма и не отпустит до самого конца. Виртуозные погони, великолепные драки, смертельно опасное купание в горящей нефти, прыжки с парашюта на мчащийся грузовик - такого драйва вы давно не испытывали. Фрэнк Мартин - идеальный перевозчик: любое место назначения, любой груз, никаких вопросов. Залог успеха - в неукоснительном соблюдении трех правил: номер один - никогда не менять условий сделки, номер два - никаких имен, номер три - никогда не заглядывать в багаж. Последний груз, похоже, ничем не отличается от всех прочих. Его поручил переправить американец по прозвищу "Уолл-стрит" (см. правило второе), но когда Фрэнк по дороге делает остановку, он замечает, что его багаж шевелится. Нарушив правило номер три, Фрэнк заглядывает внутрь и...
Фильм второй - Бывший сотрудник спецподразделения Фрэнк Мартин, известный также как Перевозчик, уходит от дел и поселяется в Майами, где устраивается шофером в богатую семью. С маленьким сыном этого семейства у него завязываются дружеские отношения.Когда же мальчика похищают, Мартину приходится использовать свои профессиональные навыки, чтобы вернуть парнишку в целости и сохранности, а также раскрыть зловещий план похитителя
Фильм третий - После своих последних приключений в Майами, Фрэнк Мартин решил поменять работу «перевозчика» на спокойную и уединенную жизнь во французской Ривьере. Но его планам не суждено было сбыться, когда к нему обратился бывший солдат из отряда «Дельта» Йонас Джонсон. Он рассказал, что по заказу корпорации «Ecocorp», занимающейся переработкой и утилизацией отходов, похищена Валентина — дочь украинского министра по охране окружающей среды Леонида Фазилева — чтобы путем вымогательства получить официальное разрешение для утилизации ядовитых отходов в Украине.
Теперь задача героя — доставить Валентину через Европу в Одессу. Чтобы обеспечить выполнение задания, Джонсон одевает Фрэнку и Валентине электронные браслеты, которые могут взорваться, если их обладатели удаляются на 20 метров от автомобиля. Выполняя это задание, главному герою придется столкнуться с новыми опасностями, которые связаны не только с его заказом…

Вся Трилогия весит 5,9гб с учетом одной звуковой дорожки на каждый MKV контейнер!
Перевозчик / Transporter (2002) BDRip [H.264/720-LQ] [Hi10P]
Год выпуска: 2002
Производство: Франция, США
Жанр: боевик, триллер, криминал
Перевoд: Дублированный, Многоголосый, Авторский x2
Оригинальная аудиодорожка: Английская
Язык субтитров: Русский, Английский
Вид субтитров: Вшитые

Режиссeр: Луи Летерье, Кори Юэн

В рoлях: Джейсон Стэтхэм, Шу Ци, Мэтт Шульце, Франсуа Берлеан, Рик Янг, Даг Рэнд, Дидье Сен Мелен, Тони Десканвелль, Лорен Деспонд, Маттье Альбертини, Алессандро Гассман, Эмбер Валлетта, Кейт Наута, Мэтью Модайн, Джейсон Флеминг, Кейт Дэвид, Хантер Клэри, Шеннон Бриггс, Франсуа Берлеан, Рэймонд Тонг, George Kapetan, Джефф Чейз, Грегг Уэйнер, Грегг Дэвис, Марти Райт, AnnaLynne McCord, Регги Пьер, Эли Томпсон, Адам Фалдетта, Майкл Хаус, Наталья Рудакова, Франсуа Берлеан, Роберт Нэппер, Ерун Краббе, Алекс Коболд, Дэвид Атракчи, Ян Сандберг, Эрик Эбони, Дэвид Камменос

Описаниe: Приготовьтесь к тому, что мощнейший взрыв адреналина подхватит вас в начале фильма и не отпустит до самого конца. Виртуозные погони, великолепные драки, смертельно опасное купание в горящей нефти, прыжки с парашюта на мчащийся грузовик - такого драйва вы давно не испытывали. Фрэнк Мартин - идеальный перевозчик: любое место назначения, любой груз, никаких вопросов. Залог успеха - в неукоснительном соблюдении трех правил: номер один - никогда не менять условий сделки, номер два - никаких имен, номер три - никогда не заглядывать в багаж. Последний груз, похоже, ничем не отличается от всех прочих. Его поручил переправить американец по прозвищу "Уолл-стрит" (см. правило второе), но когда Фрэнк по дороге делает остановку, он замечает, что его багаж шевелится. Нарушив правило номер три, Фрэнк заглядывает внутрь и...

< МОИ РЕЛИЗЫ >
Продолжительнoсть: 01:32:32
Качество: BDRip
Формат: MKV

Видео: MPEG-4 AVC/H.264, 1280x546(2,35:1), 23,976fps, 2295 Кbps, 0.137bit/pixel
Аудио 1: DUB Russian, AC3, 6ch, 48 kHz, 448 kbps, (Дубляж)
Аудио 2: MVO Russian, AC3, 6ch, 48 kHz, 384 kbps, (Многоголосый) - Отдельным файлом
Аудио 3: AVO Russian, AC3, 6ch, 48 kHz, 448 kbps, (Одноголосый - Гаврилов) - Отдельным файлом
Аудио 4: AVO Russian, AC3, 6ch, 48 kHz, 448 kbps, (Одноголосый - Рудой) - Отдельным файлом
Аудио 5: English, AC3, 6ch, 48 kHz, 448 kbps, (Оригинал) - Отдельным файлом
Общее
Полное имя : Перевозчик 1 (2002) BDRip-AVC.mkv
Формат : Matroska
Версия формата : Version 4 / Version 2
Размер файла : 2,93 Гбайт
Продолжительность : 1 ч. 32 м.
Общий поток : 4527 Кбит/сек
Название фильма : Перевозчик / The Transporter (2002) BDRip-AVC (Sinteros)
Attachment : Yes

Видео
Идентификатор : 1
Формат : AVC
Формат/Информация : Advanced Video Codec
Профиль формата : High 10@L4.1
Параметр CABAC формата : Да
Параметр ReFrames формата : 11 кадров
Идентификатор кодека : V_MPEG4/ISO/AVC
Продолжительность : 1 ч. 32 м.
Битрейт : 2295 Кбит/сек
Ширина : 1280 пикселей
Высота : 546 пикселей
Соотношение сторон : 2,35:1
Режим частоты кадров : Постоянный
Частота кадров : 23,976 кадра/сек
Цветовое пространство : YUV
Субдискретизация насыщенности : 4:2:0
Битовая глубина : 10 бит
Тип развёртки : Прогрессивная
Бит/(Пиксели*Кадры) : 0.137
Размер потока : 1,46 Гбайт (50%)
Заголовок : MPEG-4 AVC/H.264, 1280x546(2,35:1), 23,976fps, 2295 Кbps, 0.137bit/pixel
Библиотека кодирования : x264 core 133 r2334 a3ac64b
Настройки программы : cabac=1 / ref=11 / deblock=1:-1:-1 / analyse=0x3:0x133 / me=tesa / subme=10 / psy=1 / psy_rd=1.00:0.15 / mixed_ref=1 / me_range=24 / chroma_me=1 / trellis=2 / 8x8dct=1 / cqm=0 / deadzone=21,11 / fast_pskip=1 / chroma_qp_offset=-3 / threads=12 / lookahead_threads=1 / sliced_threads=0 / nr=0 / decimate=1 / interlaced=0 / bluray_compat=0 / constrained_intra=0 / bframes=6 / b_pyramid=2 / b_adapt=2 / b_bias=0 / direct=1 / weightb=1 / open_gop=0 / weightp=2 / keyint=250 / keyint_min=23 / scenecut=40 / intra_refresh=0 / rc_lookahead=60 / rc=crf / mbtree=1 / crf=21.0 / qcomp=0.60 / qpmin=0 / qpmax=81 / qpstep=4 / ip_ratio=1.40 / aq=1:1.00
Язык : English
Default : Да
Forced : Нет

Аудио #1
Идентификатор : 2
Формат : AC-3
Формат/Информация : Audio Coding 3
Расширение режима : CM (complete main)
Параметр Endianness формата : Big
Идентификатор кодека : A_AC3
Продолжительность : 1 ч. 32 м.
Вид битрейта : Постоянный
Битрейт : 448 Кбит/сек
Каналы : 6 каналов
Расположение каналов : Front: L C R, Side: L R, LFE
Частота : 48,0 КГц
Битовая глубина : 16 бит
Метод сжатия : С потерями
Размер потока : 297 Мбайт (10%)
Заголовок : DUB Russian, AC3, 6ch, 48 kHz, 448 kbps, (Дубляж)
Язык : Russian
Default : Да
Forced : Нет

Аудио #2 - Отдельным файлом
Идентификатор : 3
Формат : AC-3
Формат/Информация : Audio Coding 3
Расширение режима : CM (complete main)
Параметр Endianness формата : Big
Идентификатор кодека : A_AC3
Продолжительность : 1 ч. 32 м.
Вид битрейта : Постоянный
Битрейт : 384 Кбит/сек
Каналы : 6 каналов
Расположение каналов : Front: L C R, Side: L R, LFE
Частота : 48,0 КГц
Битовая глубина : 16 бит
Метод сжатия : С потерями
Размер потока : 254 Мбайт (8%)
Заголовок : MVO Russian, AC3, 6ch, 48 kHz, 384 kbps, (Многоголосый) - Отдельным файлом
Язык : Russian
Default : Нет
Forced : Нет

Аудио #3 - Отдельным файлом
Идентификатор : 4
Формат : AC-3
Формат/Информация : Audio Coding 3
Расширение режима : CM (complete main)
Параметр Endianness формата : Big
Идентификатор кодека : A_AC3
Продолжительность : 1 ч. 32 м.
Вид битрейта : Постоянный
Битрейт : 448 Кбит/сек
Каналы : 6 каналов
Расположение каналов : Front: L C R, Side: L R, LFE
Частота : 48,0 КГц
Битовая глубина : 16 бит
Метод сжатия : С потерями
Размер потока : 297 Мбайт (10%)
Заголовок : AVO Russian, AC3, 6ch, 48 kHz, 448 kbps, (Одноголосый - Гаврилов) - Отдельным файлом
Язык : Russian
Default : Нет
Forced : Нет

Аудио #4 - Отдельным файлом
Идентификатор : 5
Формат : AC-3
Формат/Информация : Audio Coding 3
Расширение режима : CM (complete main)
Параметр Endianness формата : Big
Идентификатор кодека : A_AC3
Продолжительность : 1 ч. 32 м.
Вид битрейта : Постоянный
Битрейт : 448 Кбит/сек
Каналы : 6 каналов
Расположение каналов : Front: L C R, Side: L R, LFE
Частота : 48,0 КГц
Битовая глубина : 16 бит
Метод сжатия : С потерями
Размер потока : 297 Мбайт (10%)
Заголовок : AVO Russian, AC3, 6ch, 48 kHz, 448 kbps, (Одноголосый - Рудой) - Отдельным файлом
Язык : Russian
Default : Нет
Forced : Нет

Аудио #5 - Отдельным файлом
Идентификатор : 6
Формат : AC-3
Формат/Информация : Audio Coding 3
Расширение режима : CM (complete main)
Параметр Endianness формата : Big
Идентификатор кодека : A_AC3
Продолжительность : 1 ч. 32 м.
Вид битрейта : Постоянный
Битрейт : 448 Кбит/сек
Каналы : 6 каналов
Расположение каналов : Front: L C R, Side: L R, LFE
Частота : 48,0 КГц
Битовая глубина : 16 бит
Метод сжатия : С потерями
Размер потока : 297 Мбайт (10%)
Заголовок : English, AC3, 6ch, 48 kHz, 448 kbps, (Оригинал) - Отдельным файлом
Язык : English
Default : Нет
Forced : Нет

Текст #1
Идентификатор : 7
Формат : UTF-8
Идентификатор кодека : S_TEXT/UTF8
Идентификатор кодека/Информация : UTF-8 Plain Text
Язык : Russian
Default : Нет
Forced : Нет

Текст #2
Идентификатор : 8
Формат : UTF-8
Идентификатор кодека : S_TEXT/UTF8
Идентификатор кодека/Информация : UTF-8 Plain Text
Язык : English
Default : Нет
Forced : Нет

Меню
00:00:00.000 : en:Chapter 1
00:05:07.049 : en:Chapter 2
00:10:48.223 : en:Chapter 3
00:14:54.885 : en:Chapter 4
00:19:06.512 : en:Chapter 5
00:27:31.726 : en:Chapter 6
00:31:36.386 : en:Chapter 7
00:36:48.157 : en:Chapter 8
00:38:42.063 : en:Chapter 9
00:44:26.282 : en:Chapter 10
00:50:06.664 : en:Chapter 11
00:51:16.650 : en:Chapter 12
00:56:25.501 : en:Chapter 13
01:01:39.188 : en:Chapter 14
01:07:19.277 : en:Chapter 15
01:16:41.006 : en:Chapter 16
01:19:40.603 : en:Chapter 17
01:24:02.698 : en:Chapter 18
01:26:44.484 : en:Chapter 19
Скриншоты:

[align=center]Перевозчик 2 / Transporter 2 (2005) BDRip [H.264/720p-LQ] [Hi10P]
Год выпуска: 2005
Производство: Франция, США
Жанр: боевик, триллер, криминал
Перевoд: Дублированный, Многоголосый, Двухголосый, Авторский
Оригинальная аудиодорожка: Английская
Язык субтитров: Русский, Английский
Вид субтитров: Вшитые

Режиссeр: Луи Летерье

В рoлях: Джейсон Стэтхэм, Алессандро Гассман, Эмбер Валлетта, Кейт Наута, Мэтью Модайн, Джейсон Флеминг, Кейт Дэвид, Хантер Клэри, Шеннон Бриггс, Франсуа Берлеан, Рэймонд Тонг, George Kapetan, Джефф Чейз, Грегг Уэйнер, Грегг Дэвис, Марти Райт, AnnaLynne McCord, Регги Пьер, Эли Томпсон, Адам Фалдетта, Майкл Хаус

Описаниe: Бывший сотрудник спецподразделения Фрэнк Мартин, известный также как Перевозчик, уходит от дел и поселяется в Майами, где устраивается шофером в богатую семью. С маленьким сыном этого семейства у него завязываются дружеские отношения.Когда же мальчика похищают, Мартину приходится использовать свои профессиональные навыки, чтобы вернуть парнишку в целости и сохранности, а также раскрыть зловещий план похитителя.

< МОИ РЕЛИЗЫ >
Продолжительнoсть: 01:28:07
Качество: BDRip
Формат: MKV

Видео: MPEG-4 AVC/H.264, 1280x546(2,35:1), 23,976fps, 2582 Кbps, 0.154bit/pixel
Аудио 1: DUB Russian, AC3, 6ch, 48 kHz, 448 kbps, (Дубляж)
Аудио 2: MVO Russian, AC3, 6ch, 48 kHz, 384 kbps, (Многоголосый - Киномания) - Отдельным файлом
Аудио 3: DVO Russian, AC3, 6ch, 48 kHz, 448 kbps, (Двухголосый - Гланц и Королева) - Отдельным файлом
Аудио 4: AVO Russian, AC3, 6ch, 48 kHz, 448 kbps, (Одноголосый - Гаврилов) - Отдельным файлом
Аудио 5: English, AC3, 6ch, 48 kHz, 448 kbps, (Оригинал) - Отдельным файлом
Общее
Полное имя : Перевозчик 2 (2005) BDRip-AVC.mkv
Формат : Matroska
Версия формата : Version 4 / Version 2
Размер файла : 2,97 Гбайт
Продолжительность : 1 ч. 28 м.
Общий поток : 4820 Кбит/сек
Название фильма : Перевозчик 2 / Transporter 2 (2005) BDRip-AVC (Sinteros)
Attachment : Yes

Видео
Идентификатор : 1
Формат : AVC
Формат/Информация : Advanced Video Codec
Профиль формата : High 10@L4.1
Параметр CABAC формата : Да
Параметр ReFrames формата : 11 кадров
Идентификатор кодека : V_MPEG4/ISO/AVC
Продолжительность : 1 ч. 28 м.
Битрейт : 2582 Кбит/сек
Ширина : 1280 пикселей
Высота : 546 пикселей
Соотношение сторон : 2,35:1
Режим частоты кадров : Постоянный
Частота кадров : 24,000 кадра/сек
Цветовое пространство : YUV
Субдискретизация насыщенности : 4:2:0
Битовая глубина : 10 бит
Тип развёртки : Прогрессивная
Бит/(Пиксели*Кадры) : 0.154
Размер потока : 1,57 Гбайт (53%)
Заголовок : MPEG-4 AVC/H.264, 1280x546(2,35:1), 23,976fps, 2582 Кbps, 0.154bit/pixel
Библиотека кодирования : x264 core 133 r2334 a3ac64b
Настройки программы : cabac=1 / ref=11 / deblock=1:-1:-1 / analyse=0x3:0x133 / me=tesa / subme=10 / psy=1 / psy_rd=1.00:0.15 / mixed_ref=1 / me_range=24 / chroma_me=1 / trellis=2 / 8x8dct=1 / cqm=0 / deadzone=21,11 / fast_pskip=1 / chroma_qp_offset=-3 / threads=12 / lookahead_threads=1 / sliced_threads=0 / nr=0 / decimate=1 / interlaced=0 / bluray_compat=0 / constrained_intra=0 / bframes=6 / b_pyramid=2 / b_adapt=2 / b_bias=0 / direct=1 / weightb=1 / open_gop=0 / weightp=2 / keyint=250 / keyint_min=23 / scenecut=40 / intra_refresh=0 / rc_lookahead=60 / rc=crf / mbtree=1 / crf=23.0 / qcomp=0.60 / qpmin=0 / qpmax=81 / qpstep=4 / ip_ratio=1.40 / aq=1:1.00
Язык : English
Default : Да
Forced : Нет

Аудио #1
Идентификатор : 2
Формат : AC-3
Формат/Информация : Audio Coding 3
Расширение режима : CM (complete main)
Параметр Endianness формата : Big
Идентификатор кодека : A_AC3
Продолжительность : 1 ч. 28 м.
Вид битрейта : Постоянный
Битрейт : 448 Кбит/сек
Каналы : 6 каналов
Расположение каналов : Front: L C R, Side: L R, LFE
Частота : 48,0 КГц
Битовая глубина : 16 бит
Метод сжатия : С потерями
Размер потока : 282 Мбайт (9%)
Заголовок : DUB Russian, AC3, 6ch, 48 kHz, 448 kbps, (Дубляж)
Язык : Russian
Default : Да
Forced : Нет

Аудио #2 - Отдельным файлом
Идентификатор : 3
Формат : AC-3
Формат/Информация : Audio Coding 3
Расширение режима : CM (complete main)
Параметр Endianness формата : Big
Идентификатор кодека : A_AC3
Продолжительность : 1 ч. 28 м.
Вид битрейта : Постоянный
Битрейт : 384 Кбит/сек
Каналы : 6 каналов
Расположение каналов : Front: L C R, Side: L R, LFE
Частота : 48,0 КГц
Битовая глубина : 16 бит
Метод сжатия : С потерями
Размер потока : 242 Мбайт (8%)
Заголовок : MVO Russian, AC3, 6ch, 48 kHz, 384 kbps, (Многоголосый - Киномания) - Отдельным файлом
Язык : Russian
Default : Нет
Forced : Нет

Аудио #3 - Отдельным файлом
Идентификатор : 4
Формат : AC-3
Формат/Информация : Audio Coding 3
Расширение режима : CM (complete main)
Параметр Endianness формата : Big
Идентификатор кодека : A_AC3
Продолжительность : 1 ч. 28 м.
Вид битрейта : Постоянный
Битрейт : 448 Кбит/сек
Каналы : 6 каналов
Расположение каналов : Front: L C R, Side: L R, LFE
Частота : 48,0 КГц
Битовая глубина : 16 бит
Метод сжатия : С потерями
Размер потока : 282 Мбайт (9%)
Заголовок : DVO Russian, AC3, 6ch, 48 kHz, 448 kbps, (Двухголосый - Гланц и Королева) - Отдельным файлом
Язык : Russian
Default : Нет
Forced : Нет

Аудио #4 - Отдельным файлом
Идентификатор : 5
Формат : AC-3
Формат/Информация : Audio Coding 3
Расширение режима : CM (complete main)
Параметр Endianness формата : Big
Идентификатор кодека : A_AC3
Продолжительность : 1 ч. 28 м.
Вид битрейта : Постоянный
Битрейт : 448 Кбит/сек
Каналы : 6 каналов
Расположение каналов : Front: L C R, Side: L R, LFE
Частота : 48,0 КГц
Битовая глубина : 16 бит
Метод сжатия : С потерями
Размер потока : 282 Мбайт (9%)
Заголовок : AVO Russian, AC3, 6ch, 48 kHz, 448 kbps, (Одноголосый - Гаврилов) - Отдельным файлом
Язык : Russian
Default : Нет
Forced : Нет

Аудио #5 - Отдельным файлом
Идентификатор : 6
Формат : AC-3
Формат/Информация : Audio Coding 3
Расширение режима : CM (complete main)
Параметр Endianness формата : Big
Идентификатор кодека : A_AC3
Продолжительность : 1 ч. 28 м.
Вид битрейта : Постоянный
Битрейт : 448 Кбит/сек
Каналы : 6 каналов
Расположение каналов : Front: L C R, Side: L R, LFE
Частота : 48,0 КГц
Битовая глубина : 16 бит
Метод сжатия : С потерями
Размер потока : 282 Мбайт (9%)
Заголовок : English, AC3, 6ch, 48 kHz, 448 kbps, (Оригинал) - Отдельным файлом
Язык : English
Default : Нет
Forced : Нет

Текст #1
Идентификатор : 7
Формат : UTF-8
Идентификатор кодека : S_TEXT/UTF8
Идентификатор кодека/Информация : UTF-8 Plain Text
Язык : Russian
Default : Нет
Forced : Нет

Текст #2
Идентификатор : 8
Формат : UTF-8
Идентификатор кодека : S_TEXT/UTF8
Идентификатор кодека/Информация : UTF-8 Plain Text
Язык : English
Default : Нет
Forced : Нет

Меню
00:00:00.000 : en:00:00:00.000
00:04:09.792 : en:00:04:09.792
00:13:11.000 : en:00:13:11.000
00:15:13.375 : en:00:15:13.375
00:24:02.792 : en:00:24:02.792
00:33:59.375 : en:00:33:59.375
00:43:57.375 : en:00:43:57.375
00:53:47.375 : en:00:53:47.375
01:00:19.000 : en:01:00:19.000
01:04:21.000 : en:01:04:21.000
01:12:01.375 : en:01:12:01.375
01:18:57.375 : en:01:18:57.375
Скриншоты:

Перевозчик 3 / Transporter 3 (2008) BDRip [H.264/720p-LQ] [Hi10P]
Год выпуска: 2008
Производство: Франция, США, Великобритания
Жанр: боевик, триллер, криминал
Перевoд: Дублированный, Двухголосый x2, Авторский
Оригинальная аудио дорожка: Английская + Коментарии
Язык субтитров: Русский, Английский x2
Вид субтитров: Вшитые

Режиссeр: Оливье Мегатон

В рoлях: Джейсон Стэтхэм, Наталья Рудакова, Франсуа Берлеан, Роберт Нэппер, Ерун Краббе, Алекс Коболд, Дэвид Атракчи, Ян Сандберг, Эрик Эбони, Дэвид Камменос

Описаниe: После своих последних приключений в Майами, Фрэнк Мартин решил поменять работу «перевозчика» на спокойную и уединенную жизнь во французской Ривьере. Но его планам не суждено было сбыться, когда к нему обратился бывший солдат из отряда «Дельта» Йонас Джонсон. Он рассказал, что по заказу корпорации «Ecocorp», занимающейся переработкой и утилизацией отходов, похищена Валентина — дочь украинского министра по охране окружающей среды Леонида Фазилева — чтобы путем вымогательства получить официальное разрешение для утилизации ядовитых отходов в Украине.
Теперь задача героя — доставить Валентину через Европу в Одессу. Чтобы обеспечить выполнение задания, Джонсон одевает Фрэнку и Валентине электронные браслеты, которые могут взорваться, если их обладатели удаляются на 20 метров от автомобиля. Выполняя это задание, главному герою придется столкнуться с новыми опасностями, которые связаны не только с его заказом…

< МОИ РЕЛИЗЫ >
Продолжительнoсть: 01:43:34
Качество: BDRip
Формат: MKV

Видео: MPEG-4 AVC/H.264, 1280x544(2,35:1), 23,976fps, 2519 Кbps, 0.151bit/pixel
Аудио 1: DUB Russian, AC3, 6ch, 48 kHz, 448 kbps, (Дубляж)
Аудио 2: DVO Russian, AC3, 6ch, 48 kHz, 448 kbps, (Двухголосый - Гланц и Королева) - Отдельным файлом
Аудио 3: DVO Russian, AC3, 2ch, 48 kHz, 192 kbps, (Двухголосый - Инис) - Отдельным файлом
Аудио 4: AVO Russian, AC3, 6ch, 48 kHz, 448 kbps, (Одноголосый - Немахов) - Отдельным файлом
Аудио 5: English, AC3, 6ch, 48 kHz, 448 kbps, (Оригинал) - Отдельным файлом
Аудио 6: English, AC3, 2ch, 48 kHz, 192 kbps, (Коментарии режисера) - Отдельным файлом
Общее
Полное имя : Перевозчик 3 (2008) BDRip-AVC.mkv
Формат : Matroska
Версия формата : Version 4 / Version 2
Размер файла : 3,44 Гбайт
Продолжительность : 1 ч. 43 м.
Общий поток : 4755 Кбит/сек
Название фильма : Перевозчик 3 / Transporter 3 (2008) BDRip-AVC (Sinteros)
Attachment : Yes

Видео
Идентификатор : 1
Формат : AVC
Формат/Информация : Advanced Video Codec
Профиль формата : High 10@L4.1
Параметр CABAC формата : Да
Параметр ReFrames формата : 11 кадров
Идентификатор кодека : V_MPEG4/ISO/AVC
Продолжительность : 1 ч. 43 м.
Битрейт : 2519 Кбит/сек
Ширина : 1280 пикселей
Высота : 544 пикселя
Соотношение сторон : 2,35:1
Режим частоты кадров : Постоянный
Частота кадров : 23,976 кадра/сек
Цветовое пространство : YUV
Субдискретизация насыщенности : 4:2:0
Битовая глубина : 10 бит
Тип развёртки : Прогрессивная
Бит/(Пиксели*Кадры) : 0.151
Размер потока : 1,80 Гбайт (52%)
Заголовок : MPEG-4 AVC/H.264, 1280x544(2,35:1), 23,976fps, 2519 Кbps, 0.151bit/pixel
Библиотека кодирования : x264 core 133 r2334 a3ac64b
Настройки программы : cabac=1 / ref=11 / deblock=1:-1:-1 / analyse=0x3:0x133 / me=tesa / subme=10 / psy=1 / psy_rd=1.00:0.15 / mixed_ref=1 / me_range=24 / chroma_me=1 / trellis=2 / 8x8dct=1 / cqm=0 / deadzone=21,11 / fast_pskip=1 / chroma_qp_offset=-3 / threads=12 / lookahead_threads=1 / sliced_threads=0 / nr=0 / decimate=1 / interlaced=0 / bluray_compat=0 / constrained_intra=0 / bframes=6 / b_pyramid=2 / b_adapt=2 / b_bias=0 / direct=1 / weightb=1 / open_gop=0 / weightp=2 / keyint=250 / keyint_min=23 / scenecut=40 / intra_refresh=0 / rc_lookahead=60 / rc=crf / mbtree=1 / crf=23.3 / qcomp=0.60 / qpmin=0 / qpmax=81 / qpstep=4 / ip_ratio=1.40 / aq=1:1.00
Язык : English
Default : Да
Forced : Нет

Аудио #1
Идентификатор : 2
Формат : AC-3
Формат/Информация : Audio Coding 3
Расширение режима : CM (complete main)
Параметр Endianness формата : Big
Идентификатор кодека : A_AC3
Продолжительность : 1 ч. 43 м.
Вид битрейта : Постоянный
Битрейт : 448 Кбит/сек
Каналы : 6 каналов
Расположение каналов : Front: L C R, Side: L R, LFE
Частота : 48,0 КГц
Битовая глубина : 16 бит
Метод сжатия : С потерями
Размер потока : 332 Мбайт (9%)
Заголовок : DUB Russian, AC3, 6ch, 48 kHz, 448 kbps, (Дубляж)
Язык : Russian
Default : Да
Forced : Нет

Аудио #2 - Отдельным файлом
Идентификатор : 3
Формат : AC-3
Формат/Информация : Audio Coding 3
Расширение режима : CM (complete main)
Параметр Endianness формата : Big
Идентификатор кодека : A_AC3
Продолжительность : 1 ч. 43 м.
Вид битрейта : Постоянный
Битрейт : 448 Кбит/сек
Каналы : 6 каналов
Расположение каналов : Front: L C R, Side: L R, LFE
Частота : 48,0 КГц
Битовая глубина : 16 бит
Метод сжатия : С потерями
Размер потока : 332 Мбайт (9%)
Заголовок : DVO Russian, AC3, 6ch, 48 kHz, 448 kbps, (Двухголосый - Гланц и Королева) - Отдельным файлом
Язык : Russian
Default : Нет
Forced : Нет

Аудио #3 - Отдельным файлом
Идентификатор : 4
Формат : AC-3
Формат/Информация : Audio Coding 3
Расширение режима : CM (complete main)
Параметр Endianness формата : Big
Идентификатор кодека : A_AC3
Продолжительность : 1 ч. 43 м.
Вид битрейта : Постоянный
Битрейт : 192 Кбит/сек
Каналы : 2 канала
Расположение каналов : Front: L R
Частота : 48,0 КГц
Битовая глубина : 16 бит
Метод сжатия : С потерями
Размер потока : 142 Мбайт (4%)
Заголовок : DVO Russian, AC3, 2ch, 48 kHz, 192 kbps, (Двухголосый - Инис) - Отдельным файлом
Язык : Russian
Default : Нет
Forced : Нет

Аудио #4 - Отдельным файлом
Идентификатор : 5
Формат : AC-3
Формат/Информация : Audio Coding 3
Расширение режима : CM (complete main)
Параметр Endianness формата : Big
Идентификатор кодека : A_AC3
Продолжительность : 1 ч. 43 м.
Вид битрейта : Постоянный
Битрейт : 448 Кбит/сек
Каналы : 6 каналов
Расположение каналов : Front: L C R, Side: L R, LFE
Частота : 48,0 КГц
Битовая глубина : 16 бит
Метод сжатия : С потерями
Размер потока : 332 Мбайт (9%)
Заголовок : AVO Russian, AC3, 6ch, 48 kHz, 448 kbps, (Одноголосый - Немахов) - Отдельным файлом
Язык : Russian
Default : Нет
Forced : Нет

Аудио #5 - Отдельным файлом
Идентификатор : 6
Формат : AC-3
Формат/Информация : Audio Coding 3
Расширение режима : CM (complete main)
Параметр Endianness формата : Big
Идентификатор кодека : A_AC3
Продолжительность : 1 ч. 43 м.
Вид битрейта : Постоянный
Битрейт : 448 Кбит/сек
Каналы : 6 каналов
Расположение каналов : Front: L C R, Side: L R, LFE
Частота : 48,0 КГц
Битовая глубина : 16 бит
Метод сжатия : С потерями
Размер потока : 332 Мбайт (9%)
Заголовок : English, AC3, 6ch, 48 kHz, 448 kbps, (Оригинал) - Отдельным файлом
Язык : English
Default : Нет
Forced : Нет

Аудио #6 - Отдельным файлом
Идентификатор : 7
Формат : AC-3
Формат/Информация : Audio Coding 3
Расширение режима : CM (complete main)
Параметр Endianness формата : Big
Идентификатор кодека : A_AC3
Продолжительность : 1 ч. 43 м.
Вид битрейта : Постоянный
Битрейт : 192 Кбит/сек
Каналы : 2 канала
Расположение каналов : Front: L R
Частота : 48,0 КГц
Битовая глубина : 16 бит
Метод сжатия : С потерями
Размер потока : 142 Мбайт (4%)
Заголовок : English, AC3, 2ch, 48 kHz, 192 kbps, (Коментарии режисера) - Отдельным файлом
Язык : English
Default : Нет
Forced : Нет

Текст #1
Идентификатор : 8
Формат : UTF-8
Идентификатор кодека : S_TEXT/UTF8
Идентификатор кодека/Информация : UTF-8 Plain Text
Язык : Russian
Default : Нет
Forced : Нет

Текст #2
Идентификатор : 9
Формат : UTF-8
Идентификатор кодека : S_TEXT/UTF8
Идентификатор кодека/Информация : UTF-8 Plain Text
Язык : English
Default : Нет
Forced : Нет

Текст #3
Идентификатор : 10
Формат : UTF-8
Идентификатор кодека : S_TEXT/UTF8
Идентификатор кодека/Информация : UTF-8 Plain Text
Язык : English
Default : Нет
Forced : Нет

Меню
00:00:00.000 : en:lower level breach
00:07:39.959 : en:environmental business
00:14:14.812 : en:precious cargo
00:16:40.874 : en:unfinished business
00:21:38.713 : en:we have a problem
00:30:29.661 : en:detour
00:34:45.583 : en:off course
00:41:23.147 : en:you're fired
00:48:33.702 : en:lighten up
00:56:31.179 : en:road warrior
01:06:19.058 : en:new plan
01:10:41.612 : en:going home
01:16:44.725 : en:rising above
01:21:55.577 : en:train ride
01:29:29.864 : en:one more step
01:35:16.252 : en:lunch catch
Скриншоты:


Примечание: Рип в High 10 Profile, в настоящее время не поддерживается большинством аппаратных проигрывателей, поэтому предназначен исключительно для воспроизведения на ПК. Для корректного воспроизведения может потребоваться обновление ПО.

Скриншоты:



Перевозчик, Перевозчик 2, Перевозчик 3 на NNM-club

Время раздачи: 24/7 (жду до 10-15 скачавших а дальше могу уйти с радачи)
[NNM-Club.me]_Perevozchik 1,2,3 (2002,2005,2008) BDRip-AVC.torrent
 Торрент: Платиновая раздача  Зарегистрирован
 
Скачать


Примагнититься
 Зарегистрирован:   23 Дек 2014 23:46:21
 Размер:   9.33 GB  (
 Рейтинг:   4.8 (Голосов: 148)
 Поблагодарили:   431
 Проверка:   Оформление проверено модератором 24 Дек 2014 01:13:23
Как cкачать  ·  Как раздать  ·  Правильно оформить  ·  Поднять ратио!  
FreeMarksman
Стаж: 13 лет 4 мес.
Сообщений: 1461
Ratio: 12.084
Поблагодарили: 342
56.04%
ussr.gif
Первая часть - просто супер 8/10! Смотреть! Игра актёров, идея просто бомба.
Вторая как-то так... не цепанула, ни стержня ни идеи 2/10
Третью не тянет после 2.

_________________
Загружая нелегальный софт вы загружаете коммунизм
dasistklair
Стаж: 13 лет 1 мес.
Сообщений: 369
Ratio: 5.011
100%
Все три части супер. Это же Стэтхем. Ни в лево, ни в право. Все фильмы одного уровня. Высокого.
Забавно, как в 3-й части Валентина горячо объясняет Стэтхему, что она не русская))). 2008 год. Никто еще всю эту х--рень не нёс, а в голливуде уже знали куда бочки катить. Насколько выверено все делается.
tiraspol50
Стаж: 12 лет 2 мес.
Сообщений: 631
Ratio: 18.339
76.05%
[21:36:25] Мазунин Анатолий Петрович: Перевозчик: Трилогия / Transporter: Trilogy (2002,2005,2008) BDRip [H.264/720p-LQ] [Hi10P] здесь три перевода+ английский. Буду качать. Много переводов и для второго Перевозчика. Вопрос - какой перевод стоит слушать?
[

Добавлено спустя 4 минуты 27 секунд:

Ошибка: первая часть с 4 переводами (так пишется)
mazzi
Стаж: 14 лет 9 мес.
Сообщений: 88
Ratio: 16.633
Поблагодарили: 400
100%
russia.gif
dasistklair писал(а): Перейти к сообщению
Все три части супер. Это же Стэтхем. Ни в лево, ни в право. Все фильмы одного уровня. Высокого.
Забавно, как в 3-й части Валентина горячо объясняет Стэтхему, что она не русская))). 2008 год. Никто еще всю эту х--рень не нёс, а в голливуде уже знали куда бочки катить. Насколько выверено все делается.

Первый майдан с прицелом в Европу был в 2004м , а книга Кравчука "Украина не Россия" писалась ещё в 2000м , хотя Вы абсолютно правы )
P.S Раздающему спасибо за великолепный релиз Друзья
Eligias
Стаж: 13 лет 5 мес.
Сообщений: 113
Ratio: 37.305
Раздал: 30.05 TB
100%
Откуда: Тула
russia.gif
Супер! Спасибо!
Показать сообщения:   
Начать новую тему   Ответить на тему    Торрент-трекер NNM-Club -> Коллекции / *логии -> Зарубежное кино (коллекции / *логии) Часовой пояс: GMT + 3
Страница 1 из 1