Классический форум-трекер
canvas not supported
Нас вместе: 4 235 047

Сорвиголова [Режиссёрская версия] / Daredevil [Director's cut] (2003) BDRip [H.264/720p-LQ] [Hi10P]


 
 
RSS
Начать новую тему   Ответить на тему    Торрент-трекер NNM-Club -> Зарубежное кино -> Зарубежные Фильмы (HD, FHD)
Автор Сообщение
sinteros ®
Стаж: 15 лет 5 мес.
Сообщений: 562
Ratio: 65.353
Поблагодарили: 62356
100%
Сорвиголова [Режиссёрская версия] / Daredevil [Director's cut] (2003)
BDRip [H.264/720p-LQ] [Hi10P]

Год выпуска: 2003
Страна: США
Жанр: фантастика, фэнтези, боевик, триллер, криминал
Перевод: Дублированный x2, Авторский
Оригинальная аудио дорожка: Английская
Язык субтитров: Русский (на не переведённые места в дубляже CEE), Русский, Английский
Вид субтитров: Вшитые (отключаемые)

Описание фильма: В лучших традициях фильмов «Бэтмэн» и «Человек-Паук». Он живёт в мире вечной ночи, но эта темнота заполнена звуками и запахами, её можно попробовать на вкус и потрогать руками. Адвокат Мэтт Мердок слеп, но остальные органы чувств у него работают, как у супермэна. Днём Мердок защищает униженных и оскорблённых в зале суда, а ночью превращается в сорвиголову в маске, восстанавливая справедливость на улицах города самыми радикальными методами.

Режиссер: Марк Стивен Джонсон

Актеры: Бен Аффлек, Дженнифер Гарнер, Колин Фаррелл, Майкл Кларк Дункан, Джон Фавро, Скотт Терра, Эллен Помпео, Джо Пантольяно, Лиленд Орсер, Ленни Лофтин

Качество видео: BDRip
Продолжительность: 2:13:08

< МОИ РЕЛИЗЫ >
Основной файл весит 2,99гб с одной звуковой дорожкой!

Видео: MPEG-4 AVC/H.264, 1280x542(2,35:1), 23,976fps, 2708 Кbps, 0.163bit/pixel
Аудио 1: AVO Russian, AC3, 6ch, 48 kHz, 448 kbps, (Одноголосый - Королёв)
Аудио 2: DUB Russian, AC3, 6ch, 48 kHz, 448 kbps, (Дубляж - со вставками Королёва) - Отдельным файлом
Аудио 3: DUB Russian, AC3, 6ch, 48 kHz, 448 kbps, (Дубляж - CEE неполный) - Отдельным файлом
Аудио 4: English, AC3, 6ch, 48 kHz, 448 kbps, (Оригинал) - Отдельным файлом
Общее
Полное имя : Сорвиголова - Режисерская версия (2003) BDRip-AVC.mkv
Формат : Matroska
Версия формата : Version 4 / Version 2
Размер файла : 4,25 Гбайт
Продолжительность : 2 ч. 13 м.
Общий поток : 4565 Кбит/сек
Название фильма : Сорвиголова [Режиссерская версия] / Daredevil [Director's Сut] (2003) BDRip-AVC (Sinteros)
Attachment : Yes

Видео
Идентификатор : 1
Формат : AVC
Формат/Информация : Advanced Video Codec
Профиль формата : High 10@L4.1
Параметр CABAC формата : Да
Параметр ReFrames формата : 11 кадров
Идентификатор кодека : V_MPEG4/ISO/AVC
Продолжительность : 2 ч. 13 м.
Битрейт : 2708 Кбит/сек
Ширина : 1280 пикселей
Высота : 542 пикселя
Соотношение сторон : 2,35:1
Режим частоты кадров : Постоянный
Частота кадров : 23,976 кадра/сек
Цветовое пространство : YUV
Субдискретизация насыщенности : 4:2:0
Битовая глубина : 10 бит
Тип развёртки : Прогрессивная
Бит/(Пиксели*Кадры) : 0.163
Размер потока : 2,49 Гбайт (59%)
Заголовок : MPEG-4 AVC/H.264, 1280x542(2,35:1), 23,976fps, 2708 Кbps, 0.163bit/pixel
Библиотека кодирования : x264 core 133 r2334 a3ac64b
Настройки программы : cabac=1 / ref=11 / deblock=1:-1:-1 / analyse=0x3:0x133 / me=tesa / subme=10 / psy=1 / psy_rd=1.00:0.15 / mixed_ref=1 / me_range=24 / chroma_me=1 / trellis=2 / 8x8dct=1 / cqm=0 / deadzone=21,11 / fast_pskip=1 / chroma_qp_offset=-3 / threads=12 / lookahead_threads=1 / sliced_threads=0 / nr=0 / decimate=1 / interlaced=0 / bluray_compat=0 / constrained_intra=0 / bframes=6 / b_pyramid=2 / b_adapt=2 / b_bias=0 / direct=1 / weightb=1 / open_gop=0 / weightp=2 / keyint=250 / keyint_min=23 / scenecut=40 / intra_refresh=0 / rc_lookahead=60 / rc=crf / mbtree=1 / crf=21.5 / qcomp=0.60 / qpmin=0 / qpmax=81 / qpstep=4 / ip_ratio=1.40 / aq=1:1.00
Язык : English
Default : Да
Forced : Нет

Аудио #1
Идентификатор : 2
Формат : AC-3
Формат/Информация : Audio Coding 3
Расширение режима : CM (complete main)
Параметр Endianness формата : Big
Идентификатор кодека : A_AC3
Продолжительность : 2 ч. 13 м.
Вид битрейта : Постоянный
Битрейт : 448 Кбит/сек
Каналы : 6 каналов
Расположение каналов : Front: L C R, Side: L R, LFE
Частота : 48,0 КГц
Битовая глубина : 16 бит
Метод сжатия : С потерями
Размер потока : 427 Мбайт (10%)
Заголовок : AVO Russian, AC3, 6ch, 48 kHz, 448 kbps, (Одноголосый - Королёв)
Язык : Russian
Default : Да
Forced : Нет

Аудио #2 - Отдельным файлом
Идентификатор : 3
Формат : AC-3
Формат/Информация : Audio Coding 3
Расширение режима : CM (complete main)
Параметр Endianness формата : Big
Идентификатор кодека : A_AC3
Продолжительность : 2 ч. 13 м.
Вид битрейта : Постоянный
Битрейт : 448 Кбит/сек
Каналы : 6 каналов
Расположение каналов : Front: L C R, Side: L R, LFE
Частота : 48,0 КГц
Битовая глубина : 16 бит
Метод сжатия : С потерями
Размер потока : 427 Мбайт (10%)
Заголовок : DUB Russian, AC3, 6ch, 48 kHz, 448 kbps, (Дубляж - со вставками Королёва) - Отдельным файлом
Язык : Russian
Default : Нет
Forced : Нет

Аудио #3 - Отдельным файлом
Идентификатор : 4
Формат : AC-3
Формат/Информация : Audio Coding 3
Расширение режима : CM (complete main)
Параметр Endianness формата : Big
Идентификатор кодека : A_AC3
Продолжительность : 2 ч. 13 м.
Вид битрейта : Постоянный
Битрейт : 448 Кбит/сек
Каналы : 6 каналов
Расположение каналов : Front: L C R, Side: L R, LFE
Частота : 48,0 КГц
Битовая глубина : 16 бит
Метод сжатия : С потерями
Размер потока : 427 Мбайт (10%)
Заголовок : DUB Russian, AC3, 6ch, 48 kHz, 448 kbps, (Дубляж - CEE неполный) - Отдельным файлом
Язык : Russian
Default : Нет
Forced : Нет

Аудио #4 - Отдельным файлом
Идентификатор : 5
Формат : AC-3
Формат/Информация : Audio Coding 3
Расширение режима : CM (complete main)
Параметр Endianness формата : Big
Идентификатор кодека : A_AC3
Продолжительность : 2 ч. 13 м.
Вид битрейта : Постоянный
Битрейт : 448 Кбит/сек
Каналы : 6 каналов
Расположение каналов : Front: L C R, Side: L R, LFE
Частота : 48,0 КГц
Битовая глубина : 16 бит
Метод сжатия : С потерями
Размер потока : 427 Мбайт (10%)
Заголовок : English, AC3, 6ch, 48 kHz, 448 kbps, (Оригинал) - Отдельным файлом
Язык : English
Default : Нет
Forced : Нет

Текст #1
Идентификатор : 6
Формат : UTF-8
Идентификатор кодека : S_TEXT/UTF8
Идентификатор кодека/Информация : UTF-8 Plain Text
Заголовок : На не переведённые места в дубляже CEE
Язык : Russian
Default : Нет
Forced : Нет

Текст #2
Идентификатор : 7
Формат : UTF-8
Идентификатор кодека : S_TEXT/UTF8
Идентификатор кодека/Информация : UTF-8 Plain Text
Язык : Russian
Default : Нет
Forced : Нет

Текст #3
Идентификатор : 8
Формат : UTF-8
Идентификатор кодека : S_TEXT/UTF8
Идентификатор кодека/Информация : UTF-8 Plain Text
Язык : English
Default : Нет
Forced : Нет

Меню
00:00:00.000 : en:00:00:00.000
00:02:24.227 : en:00:02:24.227
00:05:18.568 : en:00:05:18.568
00:08:13.368 : en:00:08:13.368
00:12:18.863 : en:00:12:18.863
00:15:43.526 : en:00:15:43.526
00:20:38.070 : en:00:20:38.070
00:24:09.823 : en:00:24:09.823
00:32:05.924 : en:00:32:05.924
00:33:13.909 : en:00:33:13.909
00:37:27.454 : en:00:37:27.454
00:39:41.170 : en:00:39:41.170
00:41:37.662 : en:00:41:37.662
00:45:07.288 : en:00:45:07.288
00:47:49.825 : en:00:47:49.825
00:49:46.525 : en:00:49:46.525
00:53:11.814 : en:00:53:11.814
00:57:23.190 : en:00:57:23.190
00:59:44.998 : en:00:59:44.998
01:04:19.773 : en:01:04:19.773
01:06:27.066 : en:01:06:27.066
01:10:54.375 : en:01:10:54.375
01:18:07.099 : en:01:18:07.099
01:22:25.858 : en:01:22:25.858
01:23:59.368 : en:01:23:59.368
01:25:54.816 : en:01:25:54.816
01:28:39.731 : en:01:28:39.731
01:30:09.738 : en:01:30:09.738
01:32:22.746 : en:01:32:22.746
01:33:39.072 : en:01:33:39.072
01:36:30.618 : en:01:36:30.618
01:40:31.651 : en:01:40:31.651
01:44:53.120 : en:01:44:53.120
01:49:03.412 : en:01:49:03.412
01:50:29.581 : en:01:50:29.581
01:52:29.409 : en:01:52:29.409
01:53:37.728 : en:01:53:37.728
01:59:41.883 : en:01:59:41.883
02:00:14.457 : en:02:00:14.457
02:02:04.734 : en:02:02:04.734
02:03:32.322 : en:02:03:32.322
02:04:33.675 : en:02:04:33.675
02:05:22.515 : en:02:05:22.515
02:06:49.352 : en:02:06:49.352
Примечание: Рип в High 10 Profile, в настоящее время не поддерживается большинством аппаратных проигрывателей, поэтому предназначен исключительно для воспроизведения на ПК. Для корректного воспроизведения может потребоваться обновление ПО.

Скриншоты:



Сорвиголова на NNM-club

Время раздачи: 24/7 (жду до 10-15 скачавших а дальше могу уйти с радачи)
[NNM-Club.me]_Sorvigolova - Rezhiserskaya versiya (2003) BDRip-AVC.torrent
 Торрент: Платиновая раздача  Зарегистрирован
 
Скачать


Примагнититься
 Зарегистрирован:   07 Янв 2015 19:28:53
 Размер:   4.24 GB  (
 Рейтинг:   4.5 (Голосов: 77)
 Поблагодарили:   239
 Проверка:   Оформление проверено модератором 07 Янв 2015 21:04:25
Как cкачать  ·  Как раздать  ·  Правильно оформить  ·  Поднять ратио!  
doc1963igor

Online
Стаж: 10 лет 5 мес.
Сообщений: 143
Ratio: 21.501
100%
ukraine.gif
Довольно дрянной фильм
трезорыч
Стаж: 11 лет 11 мес.
Сообщений: 2713
Ratio: 53.992
100%
Откуда: Из Интернета
russia.gif
Для комикса отличный фильм и актеры сыграли на ура ! Спасибо !
sinteros ®
Стаж: 15 лет 5 мес.
Сообщений: 562
Ratio: 65.353
Поблагодарили: 62356
100%
трезорыч писал(а): Перейти к сообщению
Для комикса отличный фильм и актеры сыграли на ура ! Спасибо !

Пожалуйста!
samsu909
Стаж: 13 лет
Сообщений: 914
Ratio: 9.151
Раздал: 23.09 TB
Поблагодарили: 19595
100%
Откуда: Рыбинск
russia.gif
подскажите как выбрать Аудио 3: DUB Russian, AC3, 6ch, 48 kHz, 448 kbps, (Дубляж - CEE неполный) - Отдельным файлом в KMPlayer

_________________
oldsage
Стаж: 13 лет
Сообщений: 516
Ratio: 3.609
Раздал: 4.797 TB
18.85%
ussr.gif
Для любителей Бэтмена - отличный!
Показать сообщения:   
Начать новую тему   Ответить на тему    Торрент-трекер NNM-Club -> Зарубежное кино -> Зарубежные Фильмы (HD, FHD) Часовой пояс: GMT + 3
Страница 1 из 1