Классический форум-трекер
canvas not supported
Нас вместе: 4 235 038

Благодетель / The Rainmaker (1997) BDRip [H.264/720p-LQ] [Hi10P]


 
 
RSS
Начать новую тему   Ответить на тему    Торрент-трекер NNM-Club -> Зарубежное кино -> Зарубежные Фильмы (HD, FHD)
Автор Сообщение
sinteros ®
Стаж: 15 лет 5 мес.
Сообщений: 562
Ratio: 65.353
Поблагодарили: 62356
100%
Благодетель / The Rainmaker (1997)
BDRip [H.264/720p-LQ] [Hi10P]

Год выпуска: 1997
Страна: США
Жанр: триллер, драма
Перевод: Дублированный, Многоголосый x2, Авторский X2
Оригинальная аудио дорожка: Английская
Язык субтитров: Русский, Английский
Вид субтитров: Вшитые (отключаемые)

Описание фильма: Молодому юристу Руди Бэйлору кажется, что вот - вот настанет [Звездный часk и он станет знаменитым адвокатом со своей собственной фирмой, роскошной виллой, шикарными машинами и женщинами. Но это только мечта.
И ему приходится заниматься черной, неблагодарной работой на других. Все меняется в один день, когда он наталкивается на многомиллионную аферу в страховом бизнесе, разоблачив которую, он может осуществить все свои заветные мечты... если, конечно, сможет остаться живым.

Режиссер: Френсис Форд Коппола

Актеры: Мэтт Дэймон, Дэнни ДеВито, Клэр Дэйнс, Джон Войт, Дэнни Гловер, Мэри Кэй Плэйс, Тереза Райт, Джонни Витуорт, Рой Шайдер, Микки Рурк

Качество видео: BDRip
Продолжительность: 02:15:30

< МОИ РЕЛИЗЫ >
Основной файл весит 1,98гб с одной звуковой дорожкой!

Видео: MPEG-4 AVC/H.264, 1280x546(2,35:1), 23,976fps, 1862 Кbps, 0.111bit/pixel
Аудио 1: DUB Russian, AC3, 2ch, 48 kHz, 192 kbps, (Дубляж - Невафильм)
Аудио 2: MVO Russian, AC3, 6ch, 48 kHz, 448 kbps, (Многоголосый - R5) - Отдельным файлом
Аудио 3: MVO Russian, AC3, 2ch, 48 kHz, 192 kbps, (Многоголосый - ОРТ+вставки R5) - Отдельным файлом
Аудио 4: AVO Russian, AC3, 6ch, 48 kHz, 448 kbps, (Одноголосый - Живов) - Отдельным файлом
Аудио 5: AVO Russian, AC3, 2ch, 48 kHz, 192 kbps, (Одноголосый - Новый Вавилон) - Отдельным файлом
Аудио 6: English, AC3, 6ch, 48 kHz, 448 kbps, (Оригинал) - Отдельным файлом
Общее
Полное имя : Благодетель (1997) BDRip-AVC.mkv
Формат : Matroska
Версия формата : Version 4 / Version 2
Размер файла : 3,62 Гбайт
Продолжительность : 2 ч. 15 м.
Общий поток : 3825 Кбит/сек
Название фильма : Благодетель / The Rainmaker (1997) BDRip-AVC (Sinteros)
Attachment : Yes

Видео
Идентификатор : 1
Формат : AVC
Формат/Информация : Advanced Video Codec
Профиль формата : High 10@L4.1
Параметр CABAC формата : Да
Параметр ReFrames формата : 11 кадров
Идентификатор кодека : V_MPEG4/ISO/AVC
Продолжительность : 2 ч. 15 м.
Битрейт : 1862 Кбит/сек
Ширина : 1280 пикселей
Высота : 546 пикселей
Соотношение сторон : 2,35:1
Режим частоты кадров : Постоянный
Частота кадров : 23,976 кадра/сек
Цветовое пространство : YUV
Субдискретизация насыщенности : 4:2:0
Битовая глубина : 10 бит
Тип развёртки : Прогрессивная
Бит/(Пиксели*Кадры) : 0.111
Размер потока : 1,73 Гбайт (48%)
Заголовок : MPEG-4 AVC/H.264, 1280x546(2,35:1), 23,976fps, 1862 Кbps, 0.111bit/pixel
Библиотека кодирования : x264 core 133 r2334 a3ac64b
Настройки программы : cabac=1 / ref=11 / deblock=1:-1:-1 / analyse=0x3:0x133 / me=tesa / subme=10 / psy=1 / psy_rd=1.00:0.15 / mixed_ref=1 / me_range=24 / chroma_me=1 / trellis=2 / 8x8dct=1 / cqm=0 / deadzone=21,11 / fast_pskip=1 / chroma_qp_offset=-3 / threads=12 / lookahead_threads=1 / sliced_threads=0 / nr=0 / decimate=1 / interlaced=0 / bluray_compat=0 / constrained_intra=0 / bframes=6 / b_pyramid=2 / b_adapt=2 / b_bias=0 / direct=1 / weightb=1 / open_gop=0 / weightp=2 / keyint=250 / keyint_min=23 / scenecut=40 / intra_refresh=0 / rc_lookahead=60 / rc=crf / mbtree=1 / crf=20.0 / qcomp=0.60 / qpmin=0 / qpmax=81 / qpstep=4 / ip_ratio=1.40 / aq=1:1.00
Язык : English
Default : Да
Forced : Нет

Аудио #1
Идентификатор : 2
Формат : AC-3
Формат/Информация : Audio Coding 3
Расширение режима : CM (complete main)
Параметр Endianness формата : Big
Идентификатор кодека : A_AC3
Продолжительность : 2 ч. 15 м.
Вид битрейта : Постоянный
Битрейт : 192 Кбит/сек
Каналы : 2 канала
Расположение каналов : Front: L R
Частота : 48,0 КГц
Битовая глубина : 16 бит
Метод сжатия : С потерями
Размер потока : 186 Мбайт (5%)
Заголовок : DUB Russian, AC3, 2ch, 48 kHz, 192 kbps, (Дубляж - Невафильм)
Язык : Russian
Default : Да
Forced : Нет

Аудио #2 - Отдельным файлом
Идентификатор : 3
Формат : AC-3
Формат/Информация : Audio Coding 3
Расширение режима : CM (complete main)
Параметр Endianness формата : Big
Идентификатор кодека : A_AC3
Продолжительность : 2 ч. 15 м.
Вид битрейта : Постоянный
Битрейт : 448 Кбит/сек
Каналы : 6 каналов
Расположение каналов : Front: L C R, Side: L R, LFE
Частота : 48,0 КГц
Битовая глубина : 16 бит
Метод сжатия : С потерями
Размер потока : 434 Мбайт (12%)
Заголовок : MVO Russian, AC3, 6ch, 48 kHz, 448 kbps, (Многоголосый - R5) - Отдельным файлом
Язык : Russian
Default : Нет
Forced : Нет

Аудио #3 - Отдельным файлом
Идентификатор : 4
Формат : AC-3
Формат/Информация : Audio Coding 3
Расширение режима : CM (complete main)
Параметр Endianness формата : Big
Идентификатор кодека : A_AC3
Продолжительность : 2 ч. 15 м.
Вид битрейта : Постоянный
Битрейт : 192 Кбит/сек
Каналы : 2 канала
Расположение каналов : Front: L R
Частота : 48,0 КГц
Битовая глубина : 16 бит
Метод сжатия : С потерями
Размер потока : 186 Мбайт (5%)
Заголовок : MVO Russian, AC3, 2ch, 48 kHz, 192 kbps, (Многоголосый - ОРТ+вставки R5) - Отдельным файлом
Язык : Russian
Default : Нет
Forced : Нет

Аудио #4 - Отдельным файлом
Идентификатор : 5
Формат : AC-3
Формат/Информация : Audio Coding 3
Расширение режима : CM (complete main)
Параметр Endianness формата : Big
Идентификатор кодека : A_AC3
Продолжительность : 2 ч. 15 м.
Вид битрейта : Постоянный
Битрейт : 448 Кбит/сек
Каналы : 6 каналов
Расположение каналов : Front: L C R, Side: L R, LFE
Частота : 48,0 КГц
Битовая глубина : 16 бит
Метод сжатия : С потерями
Размер потока : 434 Мбайт (12%)
Заголовок : AVO Russian, AC3, 6ch, 48 kHz, 448 kbps, (Одноголосый - Живов) - Отдельным файлом
Язык : Russian
Default : Нет
Forced : Нет

Аудио #5 - Отдельным файлом
Идентификатор : 6
Формат : AC-3
Формат/Информация : Audio Coding 3
Расширение режима : CM (complete main)
Параметр Endianness формата : Big
Идентификатор кодека : A_AC3
Продолжительность : 2 ч. 15 м.
Вид битрейта : Постоянный
Битрейт : 192 Кбит/сек
Каналы : 2 канала
Расположение каналов : Front: L R
Частота : 48,0 КГц
Битовая глубина : 16 бит
Метод сжатия : С потерями
Размер потока : 186 Мбайт (5%)
Заголовок : AVO Russian, AC3, 2ch, 48 kHz, 192 kbps, (Одноголосый - Новый Вавилон) - Отдельным файлом
Язык : Russian
Default : Нет
Forced : Нет

Аудио #6 - Отдельным файлом
Идентификатор : 7
Формат : AC-3
Формат/Информация : Audio Coding 3
Расширение режима : CM (complete main)
Параметр Endianness формата : Big
Идентификатор кодека : A_AC3
Продолжительность : 2 ч. 15 м.
Вид битрейта : Постоянный
Битрейт : 448 Кбит/сек
Каналы : 6 каналов
Расположение каналов : Front: L C R, Side: L R, LFE
Частота : 48,0 КГц
Битовая глубина : 16 бит
Метод сжатия : С потерями
Размер потока : 434 Мбайт (12%)
Заголовок : English, AC3, 6ch, 48 kHz, 448 kbps, (Оригинал) - Отдельным файлом
Язык : English
Default : Нет
Forced : Нет

Текст #1
Идентификатор : 8
Формат : UTF-8
Идентификатор кодека : S_TEXT/UTF8
Идентификатор кодека/Информация : UTF-8 Plain Text
Язык : Russian
Default : Нет
Forced : Нет

Текст #2
Идентификатор : 9
Формат : UTF-8
Идентификатор кодека : S_TEXT/UTF8
Идентификатор кодека/Информация : UTF-8 Plain Text
Язык : English
Default : Нет
Forced : Нет

Меню
00:00:00.000 : en:Chapter 1
00:01:57.283 : en:Chapter 2
00:07:29.405 : en:Chapter 3
00:12:11.979 : en:Chapter 4
00:15:35.016 : en:Chapter 5
00:19:39.010 : en:Chapter 6
00:28:15.652 : en:Chapter 7
00:32:11.970 : en:Chapter 8
00:34:18.889 : en:Chapter 9
00:36:45.661 : en:Chapter 10
00:40:47.277 : en:Chapter 11
00:44:19.738 : en:Chapter 12
00:50:09.587 : en:Chapter 13
00:52:50.291 : en:Chapter 14
00:57:29.403 : en:Chapter 15
00:59:56.550 : en:Chapter 16
01:05:18.831 : en:Chapter 17
01:07:16.531 : en:Chapter 18
01:09:20.863 : en:Chapter 19
01:11:34.789 : en:Chapter 20
01:17:41.573 : en:Chapter 21
01:18:27.493 : en:Chapter 22
01:26:38.817 : en:Chapter 23
01:34:03.804 : en:Chapter 24
01:36:44.046 : en:Chapter 25
01:40:06.000 : en:Chapter 26
01:49:03.952 : en:Chapter 27
01:51:33.645 : en:Chapter 28
01:59:12.561 : en:Chapter 29
02:03:14.386 : en:Chapter 30
02:05:25.100 : en:Chapter 31
02:06:46.724 : en:Chapter 32
02:09:04.986 : en:Chapter 33
02:15:29.120 : en:
Примечание: Рип в High 10 Profile, в настоящее время не поддерживается большинством аппаратных проигрывателей, поэтому предназначен исключительно для воспроизведения на ПК. Для корректного воспроизведения может потребоваться обновление ПО.

Скриншоты:



СБлагодетель на NNM-club

Время раздачи: 24/7 (жду до 10-15 скачавших а дальше могу уйти с радачи)
[NNM-Club.me]_Blagodetel' (1997) BDRip-AVC.torrent
 Торрент: Платиновая раздача  Зарегистрирован
 
Скачать


Примагнититься
 Зарегистрирован:   08 Янв 2015 23:08:20
 Размер:   3.62 GB  (
 Рейтинг:   4.9 (Голосов: 22)
 Поблагодарили:   109
 Проверка:   Оформление проверено модератором 09 Янв 2015 05:59:26
Как cкачать  ·  Как раздать  ·  Правильно оформить  ·  Поднять ратио!  
maldoror666
Стаж: 14 лет 1 мес.
Сообщений: 4771
Ratio: 18.761
100%
хороший фильм. экранизации Гришема к счастью все хорошие.
svengali
Стаж: 15 лет
Сообщений: 172
Ratio: 1426.158
Раздал: 12.31 TB
Поблагодарили: 1191
100%
usa.gif
Вы делаете очень качественные и правильные релизы — средней тяжести рип (больше не надо), отдельные разные звуковые дороги на любой вкус: бери, что нравится и слушай. И субтитры. Это просто замечательно. Сердечно вас благодарю и желаю успехов.
sinteros ®
Стаж: 15 лет 5 мес.
Сообщений: 562
Ratio: 65.353
Поблагодарили: 62356
100%
svengali писал(а): Перейти к сообщению
Вы делаете очень качественные и правильные релизы — средней тяжести рип (больше не надо), отдельные разные звуковые дороги на любой вкус: бери, что нравится и слушай. И субтитры. Это просто замечательно. Сердечно вас благодарю и желаю успехов.

Спасибо!
Надеюсь и дальше радовать Вас новыми релизами насколько будет позволять свободное время.
Показать сообщения:   
Начать новую тему   Ответить на тему    Торрент-трекер NNM-Club -> Зарубежное кино -> Зарубежные Фильмы (HD, FHD) Часовой пояс: GMT + 3
Страница 1 из 1