Классический форум-трекер
canvas not supported
Нас вместе: 4 231 714

Операция «Арго» / Argo (2012) BDRip [H.264/1080p] [Extended Cut]


 
 
RSS
Начать новую тему   Ответить на тему    Торрент-трекер NNM-Club -> Зарубежное кино -> Зарубежные Фильмы (HD, FHD)
Автор Сообщение
FILVOVAN ®
Релизер. Uploader 200+
 
Стаж: 16 лет 7 мес.
Сообщений: 4150
Ratio: 672.616
Раздал: 237.1 TB
Поблагодарили: 367414
100%
nnm-club.gif
Операция «Арго» / Argo (2012) BDRip
«Кино для прикрытия»
Жанр: триллер, драма
Производство: США / GK Films, Smoke House, Warner Bros. Pictures

Описание фильма:
4 ноября 1979 г. революция в Иране достигает своего апогея, военные штурмуют посольство США в Тегеране и берут в заложники 52 американца. Но в этом хаосе шестерым удается ускользнуть и найти прибежище в доме канадского посла. Понимая, что их обнаружение и, вероятнее всего, убийство — всего лишь вопрос времени, Тони Мендес, специалист ЦРУ по тайному вывозу людей из страны, предлагает рискованный план безопасной эвакуации. План столь невероятен, что такое бывает только в кино. Сценарий написан по мотивам статьи Джошуа Бермана «Как ЦРУ спасло американцев из Тегерана фальшивым фантастическим фильмом» и книги Тони Мендеса «Мастер маскировки».

Режиссер: Бен Аффлек
Актеры: Бен Аффлек, Брайан Крэнстон, Алан Аркин, Джон Гудмен, Виктор Гарбер, Тейт Донован, Клеа ДюВалл, Скут МакНэйри, Рори Кокрейн, Кристофер Денхам

Продолжительность: 02:09:35
Качество видео: BDRip
Перевод: Дублированный со вставками Ю.Сербина, Одноголосый закадровый
Язык субтитров: Русский, Английский
Вид субтитров: Вшитые отключаемые



Видеокодек: MPEG-4 AVC/H.264
Битрейт видео: ~9305 kbps
Размер кадра: 1920 х 800
Аудио 1: Русский, AC3 5.1, 448 kbps, 48 kHz (DUB + Ю.Сербин)
Аудио 2: Русский, DTS 5.1, 1509 kbps, 48 kHz (AVO, Ю. Сербин)
Аудио 3: Русский, DTS 5.1, 1509 kbps, 48 kHz (AVO, Ю.Живов)
Аудио 4: Русский, DTS 5.1, 1509 kbps, 48 kHz (AVO, А.Гаврилов)
Аудио 5: Английский, DTS 5.1, 1509 kbps, 48 kHz (Original)
Сэмпл: Ссылка
Общее
Уникальный идентификатор : 208395339911529099999287031745018201371 (0x9CC77B87C87F0E9CB2D07AD9492E051B)
Полное имя : D:\Films\Argo.2012.BDRip.1080p.EC.mkv
Формат : Matroska
Версия формата : Version 2
Размер файла : 14,3 Гбайт
Продолжительность : 2 ч. 9 м.
Общий поток : 15,7 Мбит/сек
Дата кодирования : UTC 2015-01-09 13:51:41
Программа кодирования : mkvmerge v5.2.0 ('I can't explain') built on Dec 18 2011 18:12:03
Библиотека кодирования : libebml v1.2.3 + libmatroska v1.3.0

Видео
Идентификатор : 1
Формат : AVC
Формат/Информация : Advanced Video Codec
Профиль формата : High@L4.1
Параметр CABAC формата : Да
Параметр ReFrames формата : 5 кадров
Идентификатор кодека : V_MPEG4/ISO/AVC
Продолжительность : 2 ч. 9 м.
Битрейт : 8941 Кбит/сек
Номинальный битрейт : 9800 Кбит/сек
Ширина : 1920 пикселей
Высота : 800 пикселей
Соотношение сторон : 2,40:1
Режим частоты кадров : Постоянный
Частота кадров : 23,976 кадра/сек
Цветовое пространство : YUV
Субдискретизация насыщенности : 4:2:0
Битовая глубина : 8 бит
Тип развёртки : Прогрессивная
Бит/(Пиксели*Кадры) : 0.243
Размер потока : 8,11 Гбайт (57%)
Библиотека кодирования : x264 core 129 r2230 1cffe9f
Настройки программы : cabac=1 / ref=5 / deblock=1:-3:-3 / analyse=0x3:0x113 / me=umh / subme=8 / psy=1 / psy_rd=1.00:0.00 / mixed_ref=1 / me_range=16 / chroma_me=1 / trellis=1 / 8x8dct=1 / cqm=0 / deadzone=21,11 / fast_pskip=1 / chroma_qp_offset=-2 / threads=16 / lookahead_threads=2 / sliced_threads=0 / nr=0 / decimate=1 / interlaced=0 / bluray_compat=0 / constrained_intra=0 / bframes=3 / b_pyramid=2 / b_adapt=1 / b_bias=0 / direct=3 / weightb=1 / open_gop=0 / weightp=2 / keyint=240 / keyint_min=23 / scenecut=40 / intra_refresh=0 / rc_lookahead=50 / rc=abr / mbtree=1 / bitrate=9800 / ratetol=1.0 / qcomp=0.60 / qpmin=0 / qpmax=69 / qpstep=4 / ip_ratio=1.40 / aq=1:1.00
Язык : English
Default : Да
Forced : Нет

Аудио #1
Идентификатор : 2
Формат : AC-3
Формат/Информация : Audio Coding 3
Расширение режима : CM (complete main)
Параметр Endianness формата : Big
Идентификатор кодека : A_AC3
Продолжительность : 2 ч. 9 м.
Вид битрейта : Постоянный
Битрейт : 448 Кбит/сек
Каналы : 6 каналов
Расположение каналов : Front: L C R, Side: L R, LFE
Частота : 48,0 КГц
Битовая глубина : 16 бит
Метод сжатия : С потерями
Размер потока : 416 Мбайт (3%)
Заголовок : Дубляж со вставками Юрия Сербина на расширенные места
Язык : Russian
Default : Да
Forced : Нет

Аудио #2
Идентификатор : 3
Формат : DTS
Формат/Информация : Digital Theater Systems
Режим : 16
Параметр Endianness формата : Big
Идентификатор кодека : A_DTS
Продолжительность : 2 ч. 9 м.
Вид битрейта : Постоянный
Битрейт : 1509 Кбит/сек
Каналы : 6 каналов
Расположение каналов : Front: L C R, Side: L R, LFE
Частота : 48,0 КГц
Битовая глубина : 24 бит
Метод сжатия : С потерями
Размер потока : 1,37 Гбайт (10%)
Заголовок : AVO, Ю. Сербин
Язык : Russian
Default : Нет
Forced : Нет

Аудио #3
Идентификатор : 4
Формат : DTS
Формат/Информация : Digital Theater Systems
Режим : 16
Параметр Endianness формата : Big
Идентификатор кодека : A_DTS
Продолжительность : 2 ч. 9 м.
Вид битрейта : Постоянный
Битрейт : 1509 Кбит/сек
Каналы : 6 каналов
Расположение каналов : Front: L C R, Side: L R, LFE
Частота : 48,0 КГц
Битовая глубина : 24 бит
Метод сжатия : С потерями
Размер потока : 1,37 Гбайт (10%)
Заголовок : AVO, Ю.Живов
Язык : Russian
Default : Нет
Forced : Нет

Аудио #4
Идентификатор : 5
Формат : DTS
Формат/Информация : Digital Theater Systems
Режим : 16
Параметр Endianness формата : Big
Идентификатор кодека : A_DTS
Продолжительность : 2 ч. 9 м.
Вид битрейта : Постоянный
Битрейт : 1509 Кбит/сек
Каналы : 6 каналов
Расположение каналов : Front: L C R, Side: L R, LFE
Частота : 48,0 КГц
Битовая глубина : 24 бит
Метод сжатия : С потерями
Размер потока : 1,37 Гбайт (10%)
Заголовок : AVO, А.Гаврилов
Язык : Russian
Default : Нет
Forced : Нет

Аудио #5
Идентификатор : 6
Формат : DTS
Формат/Информация : Digital Theater Systems
Режим : 16
Параметр Endianness формата : Big
Идентификатор кодека : A_DTS
Продолжительность : 2 ч. 9 м.
Вид битрейта : Постоянный
Битрейт : 1509 Кбит/сек
Каналы : 6 каналов
Расположение каналов : Front: L C R, Side: L R, LFE
Частота : 48,0 КГц
Битовая глубина : 24 бит
Метод сжатия : С потерями
Задержка видео : 11 мс.
Размер потока : 1,37 Гбайт (10%)
Заголовок : Original
Язык : English
Default : Нет
Forced : Нет

Текст #1
Идентификатор : 7
Формат : UTF-8
Идентификатор кодека : S_TEXT/UTF8
Идентификатор кодека/Информация : UTF-8 Plain Text
Заголовок : Forsed
Язык : Russian
Default : Да
Forced : Нет

Текст #2
Идентификатор : 8
Формат : UTF-8
Идентификатор кодека : S_TEXT/UTF8
Идентификатор кодека/Информация : UTF-8 Plain Text
Заголовок : Forsed
Язык : English
Default : Нет
Forced : Нет

Текст #3
Идентификатор : 9
Формат : UTF-8
Идентификатор кодека : S_TEXT/UTF8
Идентификатор кодека/Информация : UTF-8 Plain Text
Язык : English
Default : Нет
Forced : Нет

Меню
00:00:00.000 : en:00:00:00.000
00:12:39.717 : en:00:12:39.717
00:22:15.459 : en:00:22:15.459
00:33:33.345 : en:00:33:33.345
00:50:10.299 : en:00:50:10.299
00:58:35.262 : en:00:58:35.262
01:08:33.776 : en:01:08:33.776
01:17:43.242 : en:01:17:43.242
01:28:20.545 : en:01:28:20.545
01:39:18.160 : en:01:39:18.160
01:48:04.895 : en:01:48:04.895
02:00:48.116 : en:02:00:48.116
File: D:\Films\Argo.2012.BDRip.1080p.EC.mkv
Duration: 02:09:56 (7795.6) - WARNING: Differs from video duration! (19.99 sec)
Track #1: video
lang: Unknown (1)
codc: V_MPEG4/ISO/AVC -> H264/AVC (22)
reso: 1920x800 -> Unknown (aka not common)
fram: 23.976025 fps
rate: 9305 kbps (9304.743164)
dura: 02:09:36 (7775.601074)
size: 8.42 GB (9043746503)
Track #2: audio (￐ヤ￑テ￐ᄆ￐ᄏ￑マ￐ᄊ ￑チ￐ᄒ ￐ᄇ￑チ￑ツ￐ᄚ￐ᄇ￐ᄎ￐ᄚ￐ᄐ￐ᄌ ￐ᆴ￑タ￐ᄌ￑マ ￐ᄀ￐ᄉ￑タ￐ᄆ￐ᄌ￐ᄑ￐ᄚ ￐ᄑ￐ᄚ ￑タ￐ᄚ￑チ￑ネ￐ᄌ￑タ￐ᄉ￐ᄑ￐ᄑ￑ヒ￐ᄉ ￐ᄐ￐ᄉ￑チ￑ツ￐ᄚ)
lang: rus -> Russian (15)
codc: A_AC3 -> AC3 (2)
chan: 6 -> 5.1 Surround
samp: 48000 Hz
rate: 448 kbps (448.04)
dura: 02:09:36 (7775.62)
size: 415.30 MB (435470227)
Track #3: audio (AVO, ￐ᆴ. ￐ᄀ￐ᄉ￑タ￐ᄆ￐ᄌ￐ᄑ)
lang: rus -> Russian (15)
codc: A_DTS -> DTS (13)
chan: 6 -> 5.1 Surround
samp: 48000 Hz
rate: 1509 kbps (1509.12)
dura: 02:09:36 (7775.53)
size: 1.37 GB (1466775311)
Track #4: audio (AVO, ￐ᆴ.￐ヨ￐ᄌ￐ᄇ￐ᄒ￐ᄇ)
lang: rus -> Russian (15)
codc: A_DTS -> DTS (13)
chan: 6 -> 5.1 Surround
samp: 48000 Hz
rate: 1509 kbps (1509.11)
dura: 02:09:56 (7795.58)
size: 1.37 GB (1470552876)
Track #5: audio (AVO, ￐ミ.￐モ￐ᄚ￐ᄇ￑タ￐ᄌ￐ᄏ￐ᄒ￐ᄇ)
lang: rus -> Russian (15)
codc: A_DTS -> DTS (13)
chan: 6 -> 5.1 Surround
samp: 48000 Hz
rate: 1509 kbps (1509.12)
dura: 02:07:58 (7677.61)
size: 1.35 GB (1448300726)
Track #6: audio (Original)
lang: Unknown (1)
codc: A_DTS -> DTS (13)
chan: 6 -> 5.1 Surround
samp: 48000 Hz
rate: 1509 kbps (1509.13)
dura: 02:09:35 (7775.49)
size: 1.37 GB (1466775182)
Track #7: subtitles (Forsed)
lang: rus -> Russian (15)
type: S_TEXT/UTF8 -> SRT (3)
size: 13.31 KB (13629)
Track #8: subtitles (Forsed)
lang: Unknown (1)
type: S_TEXT/UTF8 -> SRT (3)
size: 2.87 KB (2934)
Track #9: subtitles
lang: Unknown (1)
type: S_TEXT/UTF8 -> SRT (3)
size: 62.80 KB (64308)
Sizes: (check sanity)
disk: 14.28 GB (15336291157)
trac: 6.28 GB (6741767104) [based on track size]
bitr: 14.29 GB (15346371250) [based on bitrate]
tdif: 8.00 GB (8594524053) 56.04%
bdif: -9.61 MB (-10080093) -0.06%

Скриншоты:

Время раздачи: С 8:00 до 22:00 до 5 скачавших
[NNM-Club.me]_Argo.2012.BDRip.1080p.EC.mkv.torrent
 Торрент: Платиновая раздача  Зарегистрирован
 
Скачать


Примагнититься
 Зарегистрирован:   09 Янв 2015 18:39:10
 Размер:   14.3 GB  (
 Рейтинг:   4.8 (Голосов: 86)
 Поблагодарили:   264
 Проверка:   Оформление проверено модератором 01 Сен 2023 08:20:01
Как cкачать  ·  Как раздать  ·  Правильно оформить  ·  Поднять ратио!  
Качок-Nik
Стаж: 13 лет 8 мес.
Сообщений: 260
Ratio: 0.504
100%
смотрел-норм!..
kfcontender
Стаж: 13 лет 8 мес.
Сообщений: 471
Ratio: 52.56
Поблагодарили: 1
100%
russia.gif
За этих 52 американцев США выложили 56 миллиардов долларов выкупа.
Выводы делайте сами.
Falcon555
Стаж: 12 лет 9 мес.
Сообщений: 67
Ratio: 19.897
0.5%
kfcontender писал(а): Перейти к сообщению
За этих 52 американцев США выложили 56 миллиардов долларов выкупа.
Выводы делайте сами.

:лол: . Небыло никакого выкупа. Не несите чушь тем более если нет доказательств в хоть сколько нибудь уважаемых источниках. То что вы заявляете это бред который не может быть правдой в рамках существующей модели капиталистического мира. Заложники были отпущены на основе Алжирских соглашений, (при посредничестве властей нейтрального Алжира)
vovka036
Только чтение
Стаж: 13 лет 5 мес.
Сообщений: 1920
Ratio: 0.778
81.53%
russia.gif
Кино хорошее, реально
Показать сообщения:   
Начать новую тему   Ответить на тему    Торрент-трекер NNM-Club -> Зарубежное кино -> Зарубежные Фильмы (HD, FHD) Часовой пояс: GMT + 3
Страница 1 из 1