Классический форум-трекер
canvas not supported
Нас вместе: 4 235 053

Изгоняющий дьявола / The Exorcist (1973/2000) BDRip [H.264/720p-LQ] [Extended Director's Cut] [Hi10P]


 
 
RSS
Начать новую тему   Ответить на тему    Торрент-трекер NNM-Club -> Классика кино и Старые фильмы до 90-х -> Зарубежная Классика (HD, FHD, UHD, 3D)
Автор Сообщение
sinteros ®
Стаж: 15 лет 5 мес.
Сообщений: 562
Ratio: 65.353
Поблагодарили: 62356
100%
Изгоняющий дьявола - Режисерская версия (1973/2000)
BDRip [H.264/720p-LQ] [Hi10P]

Производство: США
Жанр: ужасы, триллер, драма
Перевод: Дублированный, Двухголосый, Авторский x2
Оригинальная аудио дорожка: Английская
Язык субтитров: Русский (Непереведенные моменты DVO НТВ), Русский, Английский
Вид субтитров: Вшитые (отключаемые)

Описание фильма: В семью известной актрисы приходит беда — ее несовершеннолетняя дочь начинает вести себя неадекватным образом. Мать полагает, что это следствие ее личной трагедии, врачи подозревают психическое заболевание и не в силах поставить диагноз. Специально приглашенный священник подозревает, что девочка одержима дьяволом.
Однако, в современном атеистическом мире никто уже не верит в то, что человек может быть одержим нечистым духом, даже сама церковь.
Тем не менее, из Азии Ватиканом вызывается последний оставшийся в живых экзорсист («изгоняющий дьявола») отец Ланкастер Меррин, который приезжает, не зная о том, что идет навстречу своей смерти…

Режиссер: Уильям Фридкин

Актеры: Джейсон Миллер, Эллен Бёрстин, Макс фон Сюдов, Ли Дж. Кобб, Китти Уинн, Джек МакГоурэн, Линда Блэр, Реверенд Уильям О’Мэлли, Бартон Хейман, Питер Мастерсон

Качество видео: BDRip
Продолжительность: 02:12:21

< МОИ РЕЛИЗЫ >
Основной файл весит 3,65гб с одной звуковой дорожкой!

Дополнительная информация: Отрезал от начала видео почти 35 секунд заставки которая почему то была вшита в основной файл на Blu-ray диске.

Видео: Видео: MPEG-4 AVC/H.264, 1280x720(16:9), 23,976fps, 3426 Кbps, 0.155bit/pixel
Аудио 1: DUB Russian, AC3, 6ch, 48 kHz, 448 kbps, (Дубляж - Мост-Видео)
Аудио 2: DVO Russian, AC3, 2ch, 48 kHz, 192 kbps, (Двухголосый - НТВ) - Отдельным файлом
Аудио 3: AVO Russian, AC3, 6ch, 48 kHz, 448 kbps, (Одноголосый - Живов) - Отдельным файлом
Аудио 4: AVO Russian, AC3, 2ch, 48 kHz, 192 kbps, (Одноголосый - Михалёв) - Отдельным файлом
Аудио 5: English, AC3, 6ch, 48 kHz, 448 kbps, (Оригинал) - Отдельным файлом
Аудио 6: English, AC3, 2ch, 48 kHz, 192 kbps, (Коментарии) - Отдельным файлом

Примечание: Рип в High 10 Profile, в настоящее время не поддерживается большинством аппаратных проигрывателей, поэтому предназначен исключительно для воспроизведения на ПК. Для корректного воспроизведения может потребоваться обновление ПО.
Общее
Полное имя : Изгоняющий дьявола - Режисерская версия (1973) BDRip-AVC.mkv
Формат : Matroska
Версия формата : Version 4 / Version 2
Размер файла : 5,02 Гбайт
Продолжительность : 2 ч. 12 м.
Общий поток : 5426 Кбит/сек
Название фильма : Изгоняющий дьявола [Режисерская версия] / The Exorcist [Extended Director's Cut] (1973/2000) BDRip-AVC (Sinteros)
Attachment : Yes

Видео
Идентификатор : 1
Формат : AVC
Формат/Информация : Advanced Video Codec
Профиль формата : High 10@L4.1
Параметр CABAC формата : Да
Параметр ReFrames формата : 11 кадров
Идентификатор кодека : V_MPEG4/ISO/AVC
Продолжительность : 2 ч. 12 м.
Битрейт : 3426 Кбит/сек
Ширина : 1280 пикселей
Высота : 720 пикселей
Соотношение сторон : 16:9
Режим частоты кадров : Постоянный
Частота кадров : 23,976 кадра/сек
Цветовое пространство : YUV
Субдискретизация насыщенности : 4:2:0
Битовая глубина : 10 бит
Тип развёртки : Прогрессивная
Бит/(Пиксели*Кадры) : 0.155
Размер потока : 3,14 Гбайт (63%)
Заголовок : Видео: MPEG-4 AVC/H.264, 1280x720(16:9), 23,976fps, 3426 Кbps, 0.155bit/pixel
Библиотека кодирования : x264 core 133 r2334 a3ac64b
Настройки программы : cabac=1 / ref=11 / deblock=1:-1:-1 / analyse=0x3:0x133 / me=tesa / subme=10 / psy=1 / psy_rd=1.00:0.15 / mixed_ref=1 / me_range=24 / chroma_me=1 / trellis=2 / 8x8dct=1 / cqm=0 / deadzone=21,11 / fast_pskip=1 / chroma_qp_offset=-3 / threads=12 / lookahead_threads=1 / sliced_threads=0 / nr=0 / decimate=1 / interlaced=0 / bluray_compat=0 / constrained_intra=0 / bframes=6 / b_pyramid=2 / b_adapt=2 / b_bias=0 / direct=1 / weightb=1 / open_gop=0 / weightp=2 / keyint=250 / keyint_min=23 / scenecut=40 / intra_refresh=0 / rc_lookahead=60 / rc=crf / mbtree=1 / crf=22.2 / qcomp=0.60 / qpmin=0 / qpmax=81 / qpstep=4 / ip_ratio=1.40 / aq=1:1.00
Язык : English
Default : Да
Forced : Нет

Аудио #1
Идентификатор : 2
Формат : AC-3
Формат/Информация : Audio Coding 3
Расширение режима : CM (complete main)
Параметр Endianness формата : Big
Идентификатор кодека : A_AC3
Продолжительность : 2 ч. 12 м.
Вид битрейта : Постоянный
Битрейт : 448 Кбит/сек
Каналы : 6 каналов
Расположение каналов : Front: L C R, Side: L R, LFE
Частота : 48,0 КГц
Битовая глубина : 16 бит
Метод сжатия : С потерями
Размер потока : 424 Мбайт (8%)
Заголовок : DUB Russian, AC3, 6ch, 48 kHz, 448 kbps, (Дубляж - Мост-Видео)
Язык : Russian
Default : Да
Forced : Нет

Аудио #2 - Отдельным файлом
Идентификатор : 3
Формат : AC-3
Формат/Информация : Audio Coding 3
Расширение режима : CM (complete main)
Параметр Endianness формата : Big
Идентификатор кодека : A_AC3
Продолжительность : 2 ч. 12 м.
Вид битрейта : Постоянный
Битрейт : 192 Кбит/сек
Каналы : 2 канала
Расположение каналов : Front: L R
Частота : 48,0 КГц
Битовая глубина : 16 бит
Метод сжатия : С потерями
Размер потока : 182 Мбайт (4%)
Заголовок : DVO Russian, AC3, 2ch, 48 kHz, 192 kbps, (Двухголосый - НТВ) - Отдельным файлом
Язык : Russian
Default : Нет
Forced : Нет

Аудио #3 - Отдельным файлом
Идентификатор : 4
Формат : AC-3
Формат/Информация : Audio Coding 3
Расширение режима : CM (complete main)
Параметр Endianness формата : Big
Идентификатор кодека : A_AC3
Продолжительность : 2 ч. 12 м.
Вид битрейта : Постоянный
Битрейт : 448 Кбит/сек
Каналы : 6 каналов
Расположение каналов : Front: L C R, Side: L R, LFE
Частота : 48,0 КГц
Битовая глубина : 16 бит
Метод сжатия : С потерями
Размер потока : 424 Мбайт (8%)
Заголовок : AVO Russian, AC3, 6ch, 48 kHz, 448 kbps, (Одноголосый - Живов) - Отдельным файлом
Язык : Russian
Default : Нет
Forced : Нет

Аудио #4 - Отдельным файлом
Идентификатор : 5
Формат : AC-3
Формат/Информация : Audio Coding 3
Расширение режима : CM (complete main)
Параметр Endianness формата : Big
Идентификатор кодека : A_AC3
Продолжительность : 2 ч. 12 м.
Вид битрейта : Постоянный
Битрейт : 192 Кбит/сек
Каналы : 2 канала
Расположение каналов : Front: L R
Частота : 48,0 КГц
Битовая глубина : 16 бит
Метод сжатия : С потерями
Размер потока : 182 Мбайт (4%)
Заголовок : AVO Russian, AC3, 2ch, 48 kHz, 192 kbps, (Одноголосый - Михалёв) - Отдельным файлом
Язык : Russian
Default : Нет
Forced : Нет

Аудио #5 - Отдельным файлом
Идентификатор : 6
Формат : AC-3
Формат/Информация : Audio Coding 3
Расширение режима : CM (complete main)
Параметр Endianness формата : Big
Идентификатор кодека : A_AC3
Продолжительность : 2 ч. 12 м.
Вид битрейта : Постоянный
Битрейт : 448 Кбит/сек
Каналы : 6 каналов
Расположение каналов : Front: L C R, Side: L R, LFE
Частота : 48,0 КГц
Битовая глубина : 16 бит
Метод сжатия : С потерями
Размер потока : 424 Мбайт (8%)
Заголовок : English, AC3, 6ch, 48 kHz, 448 kbps, (Оригинал) - Отдельным файлом
Язык : English
Default : Нет
Forced : Нет

Аудио #6 - Отдельным файлом
Идентификатор : 7
Формат : AC-3
Формат/Информация : Audio Coding 3
Расширение режима : CM (complete main)
Параметр Endianness формата : Big
Идентификатор кодека : A_AC3
Продолжительность : 2 ч. 12 м.
Вид битрейта : Постоянный
Битрейт : 192 Кбит/сек
Каналы : 2 канала
Расположение каналов : Front: L R
Частота : 48,0 КГц
Битовая глубина : 16 бит
Метод сжатия : С потерями
Размер потока : 182 Мбайт (4%)
Заголовок : English, AC3, 2ch, 48 kHz, 192 kbps, (Коментарии) - Отдельным файлом
Язык : English
Default : Нет
Forced : Нет

Текст #1
Идентификатор : 8
Формат : UTF-8
Идентификатор кодека : S_TEXT/UTF8
Идентификатор кодека/Информация : UTF-8 Plain Text
Язык : Russian
Default : Нет
Forced : Нет

Текст #2
Идентификатор : 9
Формат : UTF-8
Идентификатор кодека : S_TEXT/UTF8
Идентификатор кодека/Информация : UTF-8 Plain Text
Заголовок : Непереведенные моменты DVO НТВ
Язык : Russian
Default : Нет
Forced : Нет

Текст #3
Идентификатор : 10
Формат : UTF-8
Идентификатор кодека : S_TEXT/UTF8
Идентификатор кодека/Информация : UTF-8 Plain Text
Язык : English
Default : Нет
Forced : Нет

Меню
00:00:00.000 : en:Iraq: Interesting Finds
00:04:19.676 : en:"Something I Must Do"
00:08:46.609 : en:Face To Face
00:10:30.379 : en:Rats In The Attic
00:13:04.784 : en:On The Set
00:15:00.482 : en:Chris' Walk Home (Tubular Bells)
00:16:14.431 : en:Mother And Daughter
00:17:44.438 : en:Karras Visits His Mother
00:22:10.412 : en:The Ouija Board
00:23:37.374 : en:Birthday Ideas
00:25:56.346 : en:Lost And Unconnected
00:27:52.504 : en:Attic Noises
00:31:06.072 : en:Chapel Desecration
00:32:15.516 : en:Nervous Disorder
00:36:40.531 : en:The Hospital
00:39:16.062 : en:Chris' Party
00:41:16.140 : en:"You're Gonna Die Up There"
00:43:34.778 : en:"Make It Stop!"
00:44:48.352 : en:And I Shall Be Healed
00:47:50.659 : en:Temporal Lobe Diagnosis
00:52:14.464 : en:"The Sow Is Mine!"
00:54:16.795 : en:Pathological State?
00:57:42.417 : en:Death Strikes; Down The Stairs
01:01:02.492 : en:Psychiatric Exam
01:02:54.145 : en:From Garfield To Mineo
01:08:07.083 : en:Heard Of Exorcism?
01:10:32.228 : en:Scene Of The Crime
01:13:05.422 : en:Kinderman's Theory
01:17:57.255 : en:"Do You Know What She Did?"
01:19:33.685 : en:Just Help Her
01:23:39.597 : en:Unwelcome Visitor
01:25:55.316 : en:That Thing Upstairs
01:29:12.430 : en:Holy Water And Tongues
01:32:56.821 : en:Chris' Realization
01:35:31.475 : en:English In Reverse
01:36:41.462 : en:Body Language
01:37:50.698 : en:Choosing The Exorcist
01:39:44.979 : en:Merrin Arrives
01:42:55.127 : en:Ritual Guidelines
01:44:19.461 : en:"I Cast You Out"
01:50:13.440 : en:"The Power Of Christ Compels You"
01:53:54.536 : en:Karras' Own Demons
01:57:36.466 : en:Merrin's Final Battle
02:00:59.919 : en:"Take Me!"
02:02:21.000 : en:Absolution
02:03:06.587 : en:A Keepsake From Karras
02:06:40.968 : en:"I've Got Passes"
02:08:05.594 : en:End Credits (Fantasia For Strings, Tubular Bells)
02:12:20.891 : en:
Скриншоты:


Изгоняющий дьявола на NNM-club

Время раздачи: 24/7 (жду до 10-15 скачавших а дальше могу уйти с радачи)
[NNM-Club.me]_Izgonyayushchiy d'yavola - Rezhiserskaya versiya (1973) BDRip-AVC.torrent
 Торрент: Платиновая раздача  Зарегистрирован
 
Скачать


Примагнититься
 Зарегистрирован:   16 Янв 2015 22:22:34
 Размер:   5.01 GB  (
 Рейтинг:   4.8 (Голосов: 77)
 Поблагодарили:   244
 Проверка:   Оформление проверено модератором 22 Янв 2015 09:42:21
Как cкачать  ·  Как раздать  ·  Правильно оформить  ·  Поднять ратио!  
V.A.
Стаж: 14 лет 3 мес.
Сообщений: 2292
Ratio: 348.084
Поблагодарили: 438
100%
Откуда: Новосибирск
ussr.gif
Ох, пожалуй один из самых страшных и жутких фильмов. Только подумать, снят в 1973, а поджилки до сих пор трясутся. Спасибо.
kfcontender
Стаж: 14 лет 1 мес.
Сообщений: 471
Ratio: 52.56
Поблагодарили: 1
100%
russia.gif
V.A. писал(а): Перейти к сообщению
Ох, пожалуй один из самых страшных и жутких фильмов. Только подумать, снят в 1973, а поджилки до сих пор трясутся. Спасибо.


Все ужасы - суть нарушений деятельности нашего мозга. Или его неконтролируемых фантазий.)))
Фильм действительно шикарный.
Как говорил Джейкоб: "Конец всегда один. Всё, что до него - лишь прогресс."
Эдвард68
 
Стаж: 11 лет 11 мес.
Сообщений: 85
Ratio: 5.157
100%
russia.gif
Да, действительно, фильм отличный. И это, несмотря на то, что снят в 1973г.
zavik24
Стаж: 11 лет 4 мес.
Сообщений: 12
Ratio: 9.816
80%
Классный фильм!
Поросёнок мой! Трахни меня! Трахни меня! Трахни меня! :дьявол:
boland771
Стаж: 10 лет 11 мес.
Сообщений: 24
Ratio: 8.094
100%
этот шедевр уже много лет не дает покоя многим режиссерам, создают регулярно клоны, но хотя бы повторить ох как слабо!!!!!
Balrog-mir
 
Стаж: 13 лет 2 мес.
Сообщений: 202
Ratio: 23.852
Раздал: 29.63 TB
100%
Откуда: Мирный (Якутия)
russia.gif
А почему в названии указан год 2000? Это режиссерская версия вышла в 2000-ом году?
sinteros ®
Стаж: 15 лет 5 мес.
Сообщений: 562
Ratio: 65.353
Поблагодарили: 62356
100%
Balrog-mir писал(а): Перейти к сообщению
А почему в названии указан год 2000? Это режиссерская версия вышла в 2000-ом году?
Артем Ивочкин
 
Стаж: 13 лет 8 мес.
Сообщений: 979
Ratio: 48.552
Поблагодарили: 5485
100%
russia.gif
И самое жуткое в фильме. Он снят с учетом знаний Церкви (пусть и ставшей католической) об одержимости. То есть это не простой ужастик - это почти реальный фильм.

_________________
с уважением.
overcLOKIr
Стаж: 11 лет 10 мес.
Сообщений: 123
Ratio: 39.487
1.03%
Артем Ивочкин
лолшто?

Цитата:
В 2000 году была выпущена в кинопрокат отреставрированная "режиссерская версия". перемонтираваны некоторые сцены, добавлено ~10 минут. отличия почти покадрово можно посмотреть здесь.


к моему сожалению смотрится сейчас как диснеевская передача на хелоуин, хотя лет пять назад думал об этом фильме, как об одном из самых пугающих. "много кушать" видимо :(

Добавлено спустя 7 минут 9 секунд:

зерно еще рандомное какое-то. то весь экран засыпан, то почти не видно. с разных камер/плёнок скомпилили BD?
Lexa622
Стаж: 14 лет 6 мес.
Сообщений: 35
Ratio: 29.69
Раздал: 9.758 TB
100%
russia.gif
И совсем ни капельки не страшно. Интересно было глянуть на обряд изгнания... Опять же - нечего нового...
Comparry
Стаж: 9 лет 6 мес.
Сообщений: 36
Ratio: 3.748
Поблагодарили: 82
2.44%
А у меня что-то сразу ассоциация возникла с Очень страшным кино ))
sinteros ®
Стаж: 15 лет 5 мес.
Сообщений: 562
Ratio: 65.353
Поблагодарили: 62356
100%
overcLOKIr писал(а): Перейти к сообщению

зерно еще рандомное какое-то. то весь экран засыпан, то почти не видно. с разных камер/плёнок скомпилили BD?


Естественно! Это же режисерская версия.
uriageep
Стаж: 13 лет
Сообщений: 60
Ratio: 0.49
1.34%
Ищу версию фильма которая начинается по другому: мать и дочь покупают на восточном базаре медальон, от которого в девочку и вселился бес. Нигде не могу найти, может у кого есть инфо?
Показать сообщения:   
Начать новую тему   Ответить на тему    Торрент-трекер NNM-Club -> Классика кино и Старые фильмы до 90-х -> Зарубежная Классика (HD, FHD, UHD, 3D) Часовой пояс: GMT + 3
Страница 1 из 1