Классический форум-трекер
canvas not supported
Нас вместе: 4 231 967

Побег из Шоушенка / The Shawshank Redemption (1994) BDRip [1080p]


 
 
RSS
Начать новую тему   Ответить на тему    Торрент-трекер NNM-Club -> Классика кино и Старые фильмы до 90-х -> Зарубежная Классика (HD, FHD, UHD, 3D)
Автор Сообщение
tugaew ®
Стаж: 10 лет 5 мес.
Сообщений: 607
Ratio: 176.557
Раздал: 38.75 TB
Поблагодарили: 86962
100%
ussr.gif
Побег из Шоушенка / The Shawshank Redemption (1994) BDRip [1080p]
Производство: США
Жанр: драма, криминал

Режиссер: Фрэнк Дарабонт
Актеры: Тим Роббинс, Морган Фриман, Боб Гантон, Уильям Сэдлер, Клэнси Браун, Джил Беллоуз, Марк Ролстон, Джеймс Уайтмор и др.

Описание фильма:
Шоушенк — название тюрьмы. И если тебе нет еще 30-ти, а ты получаешь пожизненное, то приготовься к худшему: для тебя выхода из Шоушенка не будет!
Актриса Рита Хэйворт — любимица всей Америки. Энди Дифрейну она тоже очень нравилась. Рита никогда не слышала о существовании Энди, однако жизнь Дифрейну, бывшему вице-президенту крупного банка, осужденному за убийство жены и ее любовника, Рита Хэйворт все-таки спасла.


Рейтинг МРАА: Лицам до 17 лет обязательно присутствие взрослого

Релиз от: Сообщество
Продолжительность: 02:22:33
Качество видео: BDRip 1080p (исходник Blu-ray Remux)

Перевод: Профессиональный (двухголосый закадровый), Профессиональный (многоголосый закадровый), Авторский (одноголосый закадровый)
Язык субтитров: Русские , Английские
Вид субтитров: Полные (2 вида) (UTF-8)
Чаптеры: (Главы): Есть

Видео: 1920x1080, 7575 Кбит/сек, 23,976 fps, AVC, x264, High@L4.1, 16:9, 0.152 bit/pixel], 2pass
Аудио 1: AC-3, 448 Кбит/сек, 6 канала(ов), 48,0 КГц - Профессиональный (многоголосый закадровый) (Киномания) / Русский
Аудио 2: AC-3, 384 Кбит/сек, 6 канала(ов), 48,0 КГц - Профессиональный (двухголосый закадровый) (Videogram) / Русский
Аудио 3: AC-3, 256 Кбит/сек, 2 канала(ов), 48,0 КГц - Профессиональный (многоголосый закадровый) (РТР (ТВЦ)) / Русский
Аудио 4: AC-3, 384 Кбит/сек, 6 канала(ов), 48,0 КГц - Профессиональный (многоголосый закадровый) (LDV) / Русский
Аудио 5: AC-3, 448 Кбит/сек, 6 канала(ов), 48,0 КГц - Профессиональный (многоголосый закадровый) (Союз Видео) / Русский
Аудио 6: AC-3, 256 Кбит/сек, 2 канала(ов), 48,0 КГц - Авторский (одноголосый закадровый) (Сергей Визгунов) / Русский
Аудио 7: AC-3, 448 Кбит/сек, 6 канала(ов), 48,0 КГц - Авторский (одноголосый закадровый) (Юрий Сербин) / Русский
Аудио 8: AC-3, 448 Кбит/сек, 6 канала(ов), 48,0 КГц - Авторский (одноголосый закадровый) (Андрей Гаврилов) / Русский
Аудио 9: AC-3, 448 Кбит/сек, 6 канала(ов), 48,0 КГц - Авторский (одноголосый закадровый) (Юрий Живов) / Русский
Аудио 10: AC-3, 448 Кбит/сек, 6 канала(ов), 48,0 КГц - Оригинал / Английский
General
Unique ID : 220651837264057642846707957603692534306 (0xA5FFFF81532A2DDB8F41AE655ED95A22)
Complete name : D:\Pobeg iz Shoushenka.(1994).BDRip.1080p.[NoLimits-Team].mkv
Format : Matroska
Format version : Version 4 / Version 2
File size : 11.5 GiB
Duration : 2h 22mn
Overall bit rate : 11.5 Mbps
Movie name : Побег из Шоушенка.(1994).BDRip.1080p.[NoLimits-Team]
Encoded date : UTC 2013-08-13 12:27:26
Writing application : mkvmerge v6.3.0 ('You can't stop me!') built on Jun 28 2013 20:09:41
Writing library : libebml v1.3.0 + libmatroska v1.4.0

Video
ID : 1
Format : AVC
Format/Info : Advanced Video Codec
Format profile : High@L4.1
Format settings, CABAC : Yes
Format settings, ReFrames : 4 frames
Codec ID : V_MPEG4/ISO/AVC
Duration : 2h 22mn
Bit rate : 7 575 Kbps
Width : 1 920 pixels
Height : 1 080 pixels
Display aspect ratio : 16:9
Frame rate mode : Constant
Frame rate : 23.976 fps
Color space : YUV
Chroma subsampling : 4:2:0
Bit depth : 8 bits
Scan type : Progressive
Bits/(Pixel*Frame) : 0.152
Stream size : 7.31 GiB (64%)
Title : Побег из Шоушенка.(1994).BDRip.1080p.[NoLimits-Team]
Writing library : x264 core 135 r2345 f0c1c53
Encoding settings : cabac=1 / ref=4 / deblock=1:-2:-2 / analyse=0x3:0x133 / me=umh / subme=11 / psy=1 / psy_rd=1.00:0.00 / mixed_ref=1 / me_range=64 / chroma_me=1 / trellis=2 / 8x8dct=1 / cqm=0 / deadzone=21,11 / fast_pskip=0 / chroma_qp_offset=-2 / threads=12 / lookahead_threads=2 / sliced_threads=0 / nr=0 / decimate=1 / interlaced=0 / bluray_compat=0 / constrained_intra=0 / bframes=9 / b_pyramid=2 / b_adapt=2 / b_bias=0 / direct=3 / weightb=1 / open_gop=0 / weightp=2 / keyint=240 / keyint_min=23 / scenecut=40 / intra_refresh=0 / rc=2pass / mbtree=0 / bitrate=7575 / ratetol=2.0 / qcomp=0.60 / qpmin=0 / qpmax=69 / qpstep=4 / cplxblur=20.0 / qblur=0.5 / ip_ratio=1.40 / pb_ratio=1.30 / aq=1:1.00
Language : English
Default : Yes
Forced : No

Audio #1
ID : 2
Format : AC-3
Format/Info : Audio Coding 3
Mode extension : CM (complete main)
Format settings, Endianness : Big
Codec ID : A_AC3
Duration : 2h 22mn
Bit rate mode : Constant
Bit rate : 448 Kbps
Channel(s) : 6 channels
Channel positions : Front: L C R, Side: L R, LFE
Sampling rate : 48.0 KHz
Bit depth : 16 bits
Compression mode : Lossy
Stream size : 457 MiB (4%)
Title : Киномания
Language : Russian
Default : Yes
Forced : No

Audio #2
ID : 3
Format : AC-3
Format/Info : Audio Coding 3
Mode extension : CM (complete main)
Format settings, Endianness : Big
Codec ID : A_AC3
Duration : 2h 22mn
Bit rate mode : Constant
Bit rate : 384 Kbps
Channel(s) : 6 channels
Channel positions : Front: L C R, Side: L R, LFE
Sampling rate : 48.0 KHz
Bit depth : 16 bits
Compression mode : Lossy
Stream size : 392 MiB (3%)
Title : videogram
Language : Russian
Default : No
Forced : No

Audio #3
ID : 4
Format : AC-3
Format/Info : Audio Coding 3
Mode extension : CM (complete main)
Format settings, Endianness : Big
Codec ID : A_AC3
Duration : 2h 22mn
Bit rate mode : Constant
Bit rate : 256 Kbps
Channel(s) : 2 channels
Channel positions : Front: L R
Sampling rate : 48.0 KHz
Bit depth : 16 bits
Compression mode : Lossy
Stream size : 261 MiB (2%)
Title : РТР (ТВЦ)
Language : Russian
Default : No
Forced : No

Audio #4
ID : 5
Format : AC-3
Format/Info : Audio Coding 3
Mode extension : CM (complete main)
Format settings, Endianness : Big
Codec ID : A_AC3
Duration : 2h 22mn
Bit rate mode : Constant
Bit rate : 384 Kbps
Channel(s) : 6 channels
Channel positions : Front: L C R, Side: L R, LFE
Sampling rate : 48.0 KHz
Bit depth : 16 bits
Compression mode : Lossy
Stream size : 392 MiB (3%)
Title : Ldv
Language : Russian
Default : No
Forced : No

Audio #5
ID : 6
Format : AC-3
Format/Info : Audio Coding 3
Mode extension : CM (complete main)
Format settings, Endianness : Big
Codec ID : A_AC3
Duration : 2h 22mn
Bit rate mode : Constant
Bit rate : 448 Kbps
Channel(s) : 6 channels
Channel positions : Front: L C R, Side: L R, LFE
Sampling rate : 48.0 KHz
Bit depth : 16 bits
Compression mode : Lossy
Stream size : 457 MiB (4%)
Title : Союз Видео
Language : Russian
Default : No
Forced : No

Audio #6
ID : 7
Format : AC-3
Format/Info : Audio Coding 3
Mode extension : CM (complete main)
Format settings, Endianness : Big
Codec ID : A_AC3
Duration : 2h 22mn
Bit rate mode : Constant
Bit rate : 256 Kbps
Channel(s) : 2 channels
Channel positions : Front: L R
Sampling rate : 44.1 KHz
Bit depth : 16 bits
Compression mode : Lossy
Stream size : 261 MiB (2%)
Title : Сергей Визгунов
Language : Russian
Default : No
Forced : No

Audio #7
ID : 8
Format : AC-3
Format/Info : Audio Coding 3
Mode extension : CM (complete main)
Format settings, Endianness : Big
Codec ID : A_AC3
Duration : 2h 22mn
Bit rate mode : Constant
Bit rate : 448 Kbps
Channel(s) : 6 channels
Channel positions : Front: L C R, Side: L R, LFE
Sampling rate : 48.0 KHz
Bit depth : 16 bits
Compression mode : Lossy
Stream size : 457 MiB (4%)
Title : Юрий Сербин
Language : Russian
Default : No
Forced : No

Audio #8
ID : 9
Format : AC-3
Format/Info : Audio Coding 3
Mode extension : CM (complete main)
Format settings, Endianness : Big
Codec ID : A_AC3
Duration : 2h 22mn
Bit rate mode : Constant
Bit rate : 448 Kbps
Channel(s) : 6 channels
Channel positions : Front: L C R, Side: L R, LFE
Sampling rate : 48.0 KHz
Bit depth : 16 bits
Compression mode : Lossy
Stream size : 457 MiB (4%)
Title : Андрей Гаврилов
Language : Russian
Default : No
Forced : No

Audio #9
ID : 10
Format : AC-3
Format/Info : Audio Coding 3
Mode extension : CM (complete main)
Format settings, Endianness : Big
Codec ID : A_AC3
Duration : 2h 22mn
Bit rate mode : Constant
Bit rate : 448 Kbps
Channel(s) : 6 channels
Channel positions : Front: L C R, Side: L R, LFE
Sampling rate : 48.0 KHz
Bit depth : 16 bits
Compression mode : Lossy
Stream size : 457 MiB (4%)
Title : Юрий Живов
Language : Russian
Default : No
Forced : No

Audio #10
ID : 11
Format : AC-3
Format/Info : Audio Coding 3
Mode extension : CM (complete main)
Format settings, Endianness : Big
Codec ID : A_AC3
Duration : 2h 22mn
Bit rate mode : Constant
Bit rate : 448 Kbps
Channel(s) : 6 channels
Channel positions : Front: L C R, Side: L R, LFE
Sampling rate : 48.0 KHz
Bit depth : 16 bits
Compression mode : Lossy
Stream size : 457 MiB (4%)
Title : Оригинал
Language : English
Default : No
Forced : No

Text #1
ID : 12
Format : UTF-8
Codec ID : S_TEXT/UTF8
Codec ID/Info : UTF-8 Plain Text
Title : Русские (полные) - Киномания
Language : Russian
Default : Yes
Forced : No

Text #2
ID : 13
Format : UTF-8
Codec ID : S_TEXT/UTF8
Codec ID/Info : UTF-8 Plain Text
Title : Русские (полные) - sunny-sko
Language : Russian
Default : No
Forced : No

Text #3
ID : 14
Format : UTF-8
Codec ID : S_TEXT/UTF8
Codec ID/Info : UTF-8 Plain Text
Title : Оригинальные
Language : English
Default : No
Forced : No

Menu
00:10:00.000 : :Chapter 01
00:20:00.000 : :Chapter 02
00:30:00.000 : :Chapter 03
00:40:00.000 : :Chapter 04
00:50:00.000 : :Chapter 05
01:00:00.000 : :Chapter 06
01:10:00.000 : :Chapter 07
01:20:00.000 : :Chapter 08
01:30:00.000 : :Chapter 09
01:40:00.000 : :Chapter 10
01:50:00.000 : :Chapter 11
02:00:00.000 : :Chapter 12
02:10:00.000 : :Chapter 13
Скриншоты:

Побег из Шоушенка / The Shawshank Redemption на NoNaMe Club
Время раздачи: до 5 скачавших
[NNM-Club.me]_Pobeg iz Shoushenka.(1994).BDRip.1080p.[NoLimits-Team].mkv.torrent
 Торрент: Платиновая раздача  Зарегистрирован
 
Скачать


Примагнититься
 Зарегистрирован:   22 Янв 2015 02:50:17
 Размер:   11.5 GB  (
 Рейтинг:   5 (Голосов: 161)
 Поблагодарили:   470
 Проверка:   Оформление проверено модератором 22 Янв 2015 09:02:57
Как cкачать  ·  Как раздать  ·  Правильно оформить  ·  Поднять ратио!  
tugaew ®
Стаж: 10 лет 5 мес.
Сообщений: 607
Ratio: 176.557
Раздал: 38.75 TB
Поблагодарили: 86962
100%
ussr.gif
rezenit
Стаж: 10 лет
Сообщений: 73
Ratio: 20.223
100%
uruguay.gif
Классный фильм! Мало подобных сейчас выпускают из новинок!
Zubov2
Стаж: 12 лет 3 мес.
Сообщений: 564
Ratio: 4.72
Раздал: 6.307 TB
100%
ussr.gif
полностью согласен. один из редких случаев, когда кино не уступает книге.
Ignotus
 
Стаж: 11 лет 4 мес.
Сообщений: 2298
Ratio: 4391.171
100%
ussr.gif
Шикарный фильм. Смотрится на одном дыхании.

_________________
В этом мире нет секретов, даже если все думают, что это только их секрет.
svate123
Стаж: 13 лет 6 мес.
Сообщений: 549
Ratio: 22.058
Раздал: 88.56 TB
100%
Откуда: USA
usa.gif
супер
xareroma
Стаж: 13 лет
Сообщений: 382
Ratio: 22.499
Поблагодарили: 419
100%
russia.gif
хоть и пишут на кинопоиске, что Кинг сочинил свой роман по мотивам детских воспоминаний, но тут совсем ясно, что их питает конкретная история, уже придуманная когда-то давно Дюмасом. тем не менее, фильм от этого не становится хуже. может, я уже его смотрел раньше, и поэтому впечатления не такие яркие, как их описывают многие.
Юлиятрикс
Стаж: 7 лет 8 мес.
Сообщений: 18
100%
Откуда: :POLSKA: #Радужная​Гвардия​
poland.gif
rezenit писал(а): Перейти к сообщению
Классный фильм! Мало подобных сейчас выпускают из новинок!

Шутка хороша .

_________________
prodigy1201
Стаж: 7 лет 3 мес.
Сообщений: 41
Ratio: 1.663
42.03%
Шикарная раздача! Посмотрел фильм в 15 лет, как раз с улицы пришел в 2 часа ночи, смотреть не чего было - фигли 90-ые года два канала и черно белый телек, который переключался только пласкогубцами!))))
Корче не помню по какому каналу по ртр или орт, но перевод был имеенно от "Videogram", который запал в душу. До сих пор считаю Videogram лучшим переводом этого шедевра!
Любимый Фильм!
Благодарю от души!
Показать сообщения:   
Начать новую тему   Ответить на тему    Торрент-трекер NNM-Club -> Классика кино и Старые фильмы до 90-х -> Зарубежная Классика (HD, FHD, UHD, 3D) Часовой пояс: GMT + 3
Страница 1 из 1