Классический форум-трекер
canvas not supported
Нас вместе: 4 235 067

Горькая луна / Bitter Moon (1992) BDRip [H.264/720p-LQ] [10-bit]


 
 
RSS
Начать новую тему   Ответить на тему    Торрент-трекер NNM-Club -> Зарубежное кино -> Зарубежные Фильмы (HD, FHD)
Автор Сообщение
sinteros ®
Стаж: 15 лет 5 мес.
Сообщений: 562
Ratio: 65.353
Поблагодарили: 62356
100%
Горькая луна / Bitter Moon (1992)
BDRip [H.264/720p-LQ] [Hi10P]

Год выпуска: 1992
Производство: Франция, Великобритания, США
Жанр: триллер, Эротика, драма, Мелодрама
Перевод: Дублированный, Многоголосый, Двухголосый, Авторский
Оригинальная аудио дорожка: Английская
Язык субтитров: Русский, Английский x2
Вид субтитров: Вшитые (отключаемые)

Описание фильма: Случайная встреча ранним весенним утром в парижском автобусе на всю оставшуюся жизнь определила судьбу Оскара и Мими.
Их не интересовали романтичность и возвышенная любовь - они хотели исследовать свою страсть. И они исследовали друг друга и себя до полного саморазрушения.

Режиссер: Роман Полански

Актеры: Питер Койот, Эмманюэль Сенье, Хью Грант, Кристин Скотт Томас, Виктор Банерджи, Софи Патель, Патрик Альбенк, Смиля Михайлович, Лео Экманн, Люка Веллани

Качество видео: BDRip
Продолжительность: 02:19:40

< МОИ РЕЛИЗЫ >
Основной файл весит 3,49гб с одной звуковой дорожкой!

Видео: MPEG-4 AVC/H.264, 1280x676(1,893), 23,976fps, 3315 Кbps, 0.160bit/pixel
Аудио 1: DUB Russian, AC3, 2ch, 48 kHz, 192 kbps, (Дубляж - Хлопушка)
Аудио 2: MVO Russian, AC3, 2ch, 48 kHz, 192 kbps, (Многоголосый - DVD9) - Отдельным файлом
Аудио 3: DVO Russian, AC3, 2ch, 48 kHz, 192 kbps, (Двухголосый - Союз видео) - Отдельным файлом
Аудио 4: VO Russian, AC3, 2ch, 48 kHz, 192 kbps, (Одноголосый - Неизвестный) - Отдельным файлом
Аудио 5: English, AC3, 2ch, 48 kHz, 192 kbps, (Оригинал) - Отдельным файлом

Примечание: Рип в High 10 Profile, в настоящее время не поддерживается большинством аппаратных проигрывателей, поэтому предназначен исключительно для воспроизведения на ПК. Для корректного воспроизведения может потребоваться обновление ПО.
Общее
Полное имя : Горькая луна (1992) BDRip-AVC.mkv
Формат : Matroska
Версия формата : Version 4 / Version 2
Размер файла : 4,24 Гбайт
Продолжительность : 2 ч. 19 м.
Общий поток : 4346 Кбит/сек
Название фильма : Горькая луна / Bitter Moon (1992) BDRip-AVC (Sinteros)
Attachment : Yes

Видео
Идентификатор : 1
Формат : AVC
Формат/Информация : Advanced Video Codec
Профиль формата : High 10@L4.1
Параметр CABAC формата : Да
Параметр ReFrames формата : 11 кадров
Идентификатор кодека : V_MPEG4/ISO/AVC
Продолжительность : 2 ч. 19 м.
Битрейт : 3315 Кбит/сек
Ширина : 1280 пикселей
Высота : 676 пикселей
Соотношение сторон : 1,893
Режим частоты кадров : Постоянный
Частота кадров : 23,976 кадра/сек
Цветовое пространство : YUV
Субдискретизация насыщенности : 4:2:0
Битовая глубина : 10 бит
Тип развёртки : Прогрессивная
Бит/(Пиксели*Кадры) : 0.160
Размер потока : 3,22 Гбайт (76%)
Заголовок : MPEG-4 AVC/H.264, 1280x676(1,893), 23,976fps, 3315 Кbps, 0.160bit/pixel
Библиотека кодирования : x264 core 133 r2334 a3ac64b
Настройки программы : cabac=1 / ref=11 / deblock=1:-1:-1 / analyse=0x3:0x133 / me=tesa / subme=10 / psy=1 / psy_rd=1.00:0.15 / mixed_ref=1 / me_range=24 / chroma_me=1 / trellis=2 / 8x8dct=1 / cqm=0 / deadzone=21,11 / fast_pskip=1 / chroma_qp_offset=-3 / threads=12 / lookahead_threads=1 / sliced_threads=0 / nr=0 / decimate=1 / interlaced=0 / bluray_compat=0 / constrained_intra=0 / bframes=6 / b_pyramid=2 / b_adapt=2 / b_bias=0 / direct=1 / weightb=1 / open_gop=0 / weightp=2 / keyint=250 / keyint_min=23 / scenecut=40 / intra_refresh=0 / rc_lookahead=60 / rc=crf / mbtree=1 / crf=22.6 / qcomp=0.60 / qpmin=0 / qpmax=81 / qpstep=4 / ip_ratio=1.40 / aq=1:1.00
Язык : English
Default : Да
Forced : Нет

Аудио #1
Идентификатор : 2
Формат : AC-3
Формат/Информация : Audio Coding 3
Расширение режима : CM (complete main)
Параметр Endianness формата : Big
Идентификатор кодека : A_AC3
Продолжительность : 2 ч. 19 м.
Вид битрейта : Постоянный
Битрейт : 192 Кбит/сек
Каналы : 2 канала
Расположение каналов : Front: L R
Частота : 48,0 КГц
Битовая глубина : 16 бит
Метод сжатия : С потерями
Размер потока : 192 Мбайт (4%)
Заголовок : DUB Russian, AC3, 2ch, 48 kHz, 192 kbps, (Дубляж - Хлопушка)
Язык : Russian
Default : Да
Forced : Нет

Аудио #2 - Отдельным файлом
Идентификатор : 3
Формат : AC-3
Формат/Информация : Audio Coding 3
Расширение режима : CM (complete main)
Параметр Endianness формата : Big
Идентификатор кодека : A_AC3
Продолжительность : 2 ч. 19 м.
Вид битрейта : Постоянный
Битрейт : 192 Кбит/сек
Каналы : 2 канала
Расположение каналов : Front: L R
Частота : 48,0 КГц
Битовая глубина : 16 бит
Метод сжатия : С потерями
Размер потока : 192 Мбайт (4%)
Заголовок : MVO Russian, AC3, 2ch, 48 kHz, 192 kbps, (Многоголосый - DVD9) - Отдельным файлом
Язык : Russian
Default : Нет
Forced : Нет

Аудио #3 - Отдельным файлом
Идентификатор : 4
Формат : AC-3
Формат/Информация : Audio Coding 3
Расширение режима : CM (complete main)
Параметр Endianness формата : Big
Идентификатор кодека : A_AC3
Продолжительность : 2 ч. 19 м.
Вид битрейта : Постоянный
Битрейт : 192 Кбит/сек
Каналы : 2 канала
Расположение каналов : Front: L R
Частота : 48,0 КГц
Битовая глубина : 16 бит
Метод сжатия : С потерями
Размер потока : 192 Мбайт (4%)
Заголовок : DVO Russian, AC3, 2ch, 48 kHz, 192 kbps, (Двухголосый - Союз видео) - Отдельным файлом
Язык : Russian
Default : Нет
Forced : Нет

Аудио #4 - Отдельным файлом
Идентификатор : 5
Формат : AC-3
Формат/Информация : Audio Coding 3
Расширение режима : CM (complete main)
Параметр Endianness формата : Big
Идентификатор кодека : A_AC3
Продолжительность : 2 ч. 19 м.
Вид битрейта : Постоянный
Битрейт : 192 Кбит/сек
Каналы : 2 канала
Расположение каналов : Front: L R
Частота : 48,0 КГц
Битовая глубина : 16 бит
Метод сжатия : С потерями
Размер потока : 192 Мбайт (4%)
Заголовок : VO Russian, AC3, 2ch, 48 kHz, 192 kbps, (Одноголосый - Неизвестный) - Отдельным файлом
Язык : Russian
Default : Нет
Forced : Нет

Аудио #5 - Отдельным файлом
Идентификатор : 6
Формат : AC-3
Формат/Информация : Audio Coding 3
Расширение режима : CM (complete main)
Параметр Endianness формата : Big
Идентификатор кодека : A_AC3
Продолжительность : 2 ч. 19 м.
Вид битрейта : Постоянный
Битрейт : 192 Кбит/сек
Каналы : 2 канала
Расположение каналов : Front: L R
Частота : 48,0 КГц
Битовая глубина : 16 бит
Метод сжатия : С потерями
Размер потока : 192 Мбайт (4%)
Заголовок : English, AC3, 2ch, 48 kHz, 192 kbps, (Оригинал) - Отдельным файлом
Язык : English
Default : Нет
Forced : Нет

Текст #1
Идентификатор : 7
Формат : UTF-8
Идентификатор кодека : S_TEXT/UTF8
Идентификатор кодека/Информация : UTF-8 Plain Text
Язык : Russian
Default : Нет
Forced : Нет

Текст #2
Идентификатор : 8
Формат : UTF-8
Идентификатор кодека : S_TEXT/UTF8
Идентификатор кодека/Информация : UTF-8 Plain Text
Язык : English
Default : Нет
Forced : Нет

Текст #3
Идентификатор : 9
Формат : UTF-8
Идентификатор кодека : S_TEXT/UTF8
Идентификатор кодека/Информация : UTF-8 Plain Text
Заголовок : SDH
Язык : English
Default : Нет
Forced : Нет

Меню
00:00:00.000 : en:
00:17:17.502 : en:
00:30:09.507 : en:
00:44:27.597 : en:
00:56:50.405 : en:
01:14:17.818 : en:
01:29:39.407 : en:
01:47:41.921 : en:
02:00:57.015 : en:
Скриншоты:


Горькая луна на NNM-club

Время раздачи: 24/7 (жду до 10-15 скачавших а дальше могу уйти с радачи)
[NNM-Club.me]_Gor'kaya luna (1992) BDRip-AVC.torrent
 Торрент: Платиновая раздача  Зарегистрирован
 
Скачать


Примагнититься
 Зарегистрирован:   22 Янв 2015 21:04:40
 Размер:   4.24 GB  (
 Рейтинг:   4.6 (Голосов: 107)
 Поблагодарили:   424
 Проверка:   Оформление проверено модератором 29 Янв 2015 20:07:43
Как cкачать  ·  Как раздать  ·  Правильно оформить  ·  Поднять ратио!  
Plasmatic70
Uploader 100+
Стаж: 14 лет 8 мес.
Сообщений: 26
Ratio: 131.924
100%
russia.gif
4-ый скрин - логическое завершение 3-го гы

_________________
Коррупция исчезнет, когда взяточники возможно поймут,что не в деньгах счастье.
heta
Стаж: 15 лет 3 мес.
Сообщений: 314
Ratio: 50.725
Поблагодарили: 2
100%
ussr.gif
Неплохой фильм из 90-х, посмотреть стоит.
Voland07
Стаж: 12 лет 10 мес.
Сообщений: 63
Ratio: 9.127
0.43%
Откуда: москва
russia.gif
Фильм можно сказать, с шоковой начинкой, категорически рекомендуется к просмотру!
referi58
Стаж: 10 лет 9 мес.
Сообщений: 101
Ratio: 20.197
0.85%
Девочка красивая
LSDS
Стаж: 14 лет
Сообщений: 71
Ratio: 4.599
52.38%
Люблю Эти фидьмы со смыслом)
Dob3rMan
Стаж: 12 лет 7 мес.
Сообщений: 154
Ratio: 6.955
Раздал: 23.99 TB
Поблагодарили: 41
100%
Хорошая классика! Спасибо!
Vebber123
Стаж: 14 лет 7 мес.
Сообщений: 50
Ratio: 0.951
15.79%
ussr.gif
RuViTr
В 1992-м Союза уже не было к сожалению. Помню шёл он у нас в кинотеатре, где тогда работал, году в 1993, смотрел практически на первом сеансе в почти пустом зале, народ в кино тогда уже не шёл. ) Не досмотрел, примерно с полфильма ушёл, за оставшуюся неделю, что его крутили, желания досмотреть так и не возникло... Длинно, нудно, затянуто - муть полнейшая. Хотя главная героиня действительно очень эротичная штучка - пожалуй главное достоинство фильма.
ТаняЗ
Стаж: 10 лет 5 мес.
Сообщений: 12
Ratio: 3.795
2.33%
смутно помню но вроде классный фильм
glebbest
Стаж: 16 лет 6 мес.
Сообщений: 118
Ratio: 285.472
Раздал: 39.17 TB
100%
ukraine.gif
ТаняЗ писал(а): Перейти к сообщению
смутно помню но вроде классный фильм

А вот я его никогда не забуду.

Как сейчас помню: 1992 год, и я, 14-летний пацан, со своей матерью иду в кинотеатр, чтобы в воскресенье убить время (я учился в лицее-интернате не в родном городе и мать приехала "проведать". Мы гуляли по городу и ели заморское диво-блюдо - ХОТ ДОГ).

Сначала, по советской традиции, показали нравоучительный документальный фильм о колбасном производстве - подробно показали технологию производства варёной колбасы (до сих пор её из-за этого не ем).

А потом начался ОН! Ыротический фильм с голыми титьками и попами, с садо/мазо, с негром в постели с белявкой, с лесбо и прочими вкусностями.

Больше никогда мать не пытлась меня сводить в кино в городе. Видимо контраст на фоне колбасного производства и обычных индийских "аца-аца-уиуиуиу" был разителен...
Показать сообщения:   
Начать новую тему   Ответить на тему    Торрент-трекер NNM-Club -> Зарубежное кино -> Зарубежные Фильмы (HD, FHD) Часовой пояс: GMT + 3
Страница 1 из 1