Классический форум-трекер
canvas not supported
Нас вместе: 4 235 053

Роман с камнем / Romancing the Stone (1984) BDRip [H.264/720p-LQ] [Hi10P]


 
 
RSS
Начать новую тему   Ответить на тему    Торрент-трекер NNM-Club -> Классика кино и Старые фильмы до 90-х -> Зарубежная Классика (HD, FHD, UHD, 3D)
Автор Сообщение
sinteros ®
Стаж: 15 лет 5 мес.
Сообщений: 562
Ratio: 65.353
Поблагодарили: 62356
100%
Роман с камнем / Romancing the Stone (1984)
BDRip [H.264/720p-LQ] [Hi10P]

Год выпуска: 1984
Производство: Мексика, США
Жанр: боевик, приключения, комедия, мелодрама
Перевод: Дублированный, Многоголосый x4, Двухголосый, Авторский
Оригинальная аудио дорожка: Английская
Язык субтитров: Русский х5, Украинский, Английский
Вид субтитров: Вшитые (отключаемые)

Описание фильма: Джоан Уайлдер, автор популярных женских романов, находит в своем почтовом ящике пакет, присланный из Колумбии ее сестрой. Телефонный звонок подтверждает самые страшные опасения - сестра похищена, и похитители требуют вернуть пакет.
Забыв обо всем на свете, Джоан летит на помощь сестре и теряется в первые часы после прилета. Ее пытаются убить, и только вмешательство Джека Колтона, американского наемника, спасет девушку от гибели.
Вместе их ждут экстремальные приключения в джунглях, поиск сокровищ и, конечно, романтическая любовная история.

Режиссер: Роберт Земекис

Актеры: Майкл Дуглас, Кэтлин Тернер, Дэнни ДеВито, Зак Норман, Альфонсо Арау, Мануэль Ойеда, Холлэнд Тейлор, Мэри Эллен Трэйнор, Ив Смит, Joe Nesnow, Хосе Чавез, Эвита Муньос `Чачита`, Камилло Гарсия, Rodrigo Puebla, Пако Морайта, Джордже Замора, Kymberly Herrin, Уильям Х. Бертон, Тед Уайт, Мануэль Э. Сантьяго, Майкл Кэссиди

Качество видео: BDRip
Продолжительность: 01:45:46

< МОИ РЕЛИЗЫ >
Основной файл весит 1,94гб с одной звуковой дорожкой!

Видео: MPEG-4 AVC/H.264, 1280x540(2,40:1), 23,976fps, 2390 Кbps, 0.144bit/pixel
Аудио 1: DUB Russian, AC3, 2ch, 48 kHz, 192 kbps, (Советский дубляж)
Аудио 2: MVO Russian, AC3, 6ch, 48 kHz, 448 kbps, (Многоголосый - R5) - Отдельным файлом
Аудио 3: MVO Russian, AC3, 6ch, 48 kHz, 448 kbps, (Многоголосый - Киномания) - Отдельным файлом
Аудио 4: MVO Russian, AC3, 2ch, 48 kHz, 192 kbps, (Многоголосый - Лазер Видео) - Отдельным файлом
Аудио 5: MVO Russian, AC3, 2ch, 48 kHz, 192 kbps, (Многоголосый - Премьер Видео Фильм) - Отдельным файлом
Аудио 6: DVO Russian, AC3, 2ch, 48 kHz, 192 kbps, (Двухголосый - Позитив-Мультимедиа) - Отдельным файлом
Аудио 7: AVO Russian, AC3, 6ch, 48 kHz, 448 kbps, (Одноголосый - Гаврилов) - Отдельным файлом
Аудио 8: AVO Russian, AC3, 6ch, 48 kHz, 448 kbps, (Одноголосый - Горчаков) - Отдельным файлом
Аудио 9: AVO Russian, AC3, 2ch, 48 kHz, 192 kbps, (Одноголосый - Володарский) - Отдельным файлом
Аудио 10: AVO Russian, AC3, 2ch, 48 kHz, 192 kbps, (Одноголосый - Мишин) - Отдельным файлом
Аудио 11: DVO Ukranian, AC3, 6ch, 48 kHz, 448 kbps, (Двухголосый - 1+1) - Отдельным файлом
Аудио 12: DVO Ukranian, AC3, 6ch, 48 kHz, 448 kbps, (Двухголосый - Новый канал) - Отдельным файлом
Аудио 13: English, AC3, 6ch, 48 kHz, 448 kbps, (Оригинал) - Отдельным файлом

Примечание: Рип в High 10 Profile, в настоящее время не поддерживается большинством аппаратных проигрывателей, поэтому предназначен исключительно для воспроизведения на ПК. Для корректного воспроизведения может потребоваться обновление ПО.
Общее
Полное имя : Роман с камнем (1984) BDRip-AVC.mkv
Формат : Matroska
Версия формата : Version 4 / Version 2
Размер файла : 4,97 Гбайт
Продолжительность : 1 ч. 45 м.
Общий поток : 6733 Кбит/сек
Название фильма : Роман с камнем / Romancing the Stone (1984) BDRip-AVC (Sinteros)
Attachment : Yes

Видео
Идентификатор : 1
Формат : AVC
Формат/Информация : Advanced Video Codec
Профиль формата : High 10@L4.1
Параметр CABAC формата : Да
Параметр ReFrames формата : 11 кадров
Идентификатор кодека : V_MPEG4/ISO/AVC
Продолжительность : 1 ч. 45 м.
Битрейт : 2390 Кбит/сек
Ширина : 1280 пикселей
Высота : 540 пикселей
Соотношение сторон : 2,40:1
Режим частоты кадров : Постоянный
Частота кадров : 23,976 кадра/сек
Цветовое пространство : YUV
Субдискретизация насыщенности : 4:2:0
Битовая глубина : 10 бит
Тип развёртки : Прогрессивная
Бит/(Пиксели*Кадры) : 0.144
Размер потока : 1,71 Гбайт (34%)
Заголовок : MPEG-4 AVC/H.264, 1280x540(2,40:1), 23,976fps, 2390 Кbps, 0.144bit/pixel
Библиотека кодирования : x264 core 133 r2334 a3ac64b
Настройки программы : cabac=1 / ref=11 / deblock=1:-1:-1 / analyse=0x3:0x133 / me=tesa / subme=10 / psy=1 / psy_rd=1.00:0.15 / mixed_ref=1 / me_range=24 / chroma_me=1 / trellis=2 / 8x8dct=1 / cqm=0 / deadzone=21,11 / fast_pskip=1 / chroma_qp_offset=-3 / threads=12 / lookahead_threads=1 / sliced_threads=0 / nr=0 / decimate=1 / interlaced=0 / bluray_compat=0 / constrained_intra=0 / bframes=6 / b_pyramid=2 / b_adapt=2 / b_bias=0 / direct=1 / weightb=1 / open_gop=0 / weightp=2 / keyint=250 / keyint_min=23 / scenecut=40 / intra_refresh=0 / rc_lookahead=60 / rc=crf / mbtree=1 / crf=21.8 / qcomp=0.60 / qpmin=0 / qpmax=81 / qpstep=4 / ip_ratio=1.40 / aq=1:1.00
Язык : English
Default : Да
Forced : Нет

Аудио #1
Идентификатор : 2
Формат : AC-3
Формат/Информация : Audio Coding 3
Расширение режима : CM (complete main)
Параметр Endianness формата : Big
Идентификатор кодека : A_AC3
Продолжительность : 1 ч. 45 м.
Вид битрейта : Постоянный
Битрейт : 192 Кбит/сек
Каналы : 2 канала
Расположение каналов : Front: L R
Частота : 48,0 КГц
Битовая глубина : 16 бит
Метод сжатия : С потерями
Размер потока : 145 Мбайт (3%)
Заголовок : DUB Russian, AC3, 2ch, 48 kHz, 192 kbps, (Советский дубляж)
Язык : Russian
Default : Да
Forced : Нет

Аудио #2 - Отдельным файлом
Идентификатор : 3
Формат : AC-3
Формат/Информация : Audio Coding 3
Расширение режима : CM (complete main)
Параметр Endianness формата : Big
Идентификатор кодека : A_AC3
Продолжительность : 1 ч. 45 м.
Вид битрейта : Постоянный
Битрейт : 448 Кбит/сек
Каналы : 6 каналов
Расположение каналов : Front: L C R, Side: L R, LFE
Частота : 48,0 КГц
Битовая глубина : 16 бит
Метод сжатия : С потерями
Размер потока : 339 Мбайт (7%)
Заголовок : MVO Russian, AC3, 6ch, 48 kHz, 448 kbps, (Многоголосый - R5) - Отдельным файлом
Язык : Russian
Default : Нет
Forced : Нет

Аудио #3 - Отдельным файлом
Идентификатор : 4
Формат : AC-3
Формат/Информация : Audio Coding 3
Расширение режима : CM (complete main)
Параметр Endianness формата : Big
Идентификатор кодека : A_AC3
Продолжительность : 1 ч. 45 м.
Вид битрейта : Постоянный
Битрейт : 448 Кбит/сек
Каналы : 6 каналов
Расположение каналов : Front: L C R, Side: L R, LFE
Частота : 48,0 КГц
Битовая глубина : 16 бит
Метод сжатия : С потерями
Размер потока : 339 Мбайт (7%)
Заголовок : MVO Russian, AC3, 6ch, 48 kHz, 448 kbps, (Многоголосый - Киномания) - Отдельным файлом
Язык : Russian
Default : Нет
Forced : Нет

Аудио #4 - Отдельным файлом
Идентификатор : 5
Формат : AC-3
Формат/Информация : Audio Coding 3
Расширение режима : CM (complete main)
Параметр Endianness формата : Big
Идентификатор кодека : A_AC3
Продолжительность : 1 ч. 45 м.
Вид битрейта : Постоянный
Битрейт : 192 Кбит/сек
Каналы : 2 канала
Расположение каналов : Front: L R
Частота : 48,0 КГц
Битовая глубина : 16 бит
Метод сжатия : С потерями
Размер потока : 145 Мбайт (3%)
Заголовок : MVO Russian, AC3, 2ch, 48 kHz, 192 kbps, (Многоголосый - Лазер Видео) - Отдельным файлом
Язык : Russian
Default : Нет
Forced : Нет

Аудио #5 - Отдельным файлом
Идентификатор : 6
Формат : AC-3
Формат/Информация : Audio Coding 3
Расширение режима : CM (complete main)
Параметр Endianness формата : Big
Идентификатор кодека : A_AC3
Продолжительность : 1 ч. 45 м.
Вид битрейта : Постоянный
Битрейт : 192 Кбит/сек
Каналы : 2 канала
Расположение каналов : Front: L R
Частота : 48,0 КГц
Битовая глубина : 16 бит
Метод сжатия : С потерями
Размер потока : 145 Мбайт (3%)
Заголовок : MVO Russian, AC3, 2ch, 48 kHz, 192 kbps, (Многоголосый - Премьер Видео Фильм) - Отдельным файлом
Язык : Russian
Default : Нет
Forced : Нет

Аудио #6 - Отдельным файлом
Идентификатор : 7
Формат : AC-3
Формат/Информация : Audio Coding 3
Расширение режима : CM (complete main)
Параметр Endianness формата : Big
Идентификатор кодека : A_AC3
Продолжительность : 1 ч. 45 м.
Вид битрейта : Постоянный
Битрейт : 192 Кбит/сек
Каналы : 2 канала
Расположение каналов : Front: L R
Частота : 48,0 КГц
Битовая глубина : 16 бит
Метод сжатия : С потерями
Размер потока : 145 Мбайт (3%)
Заголовок : DVO Russian, AC3, 2ch, 48 kHz, 192 kbps, (Двухголосый - Позитив-Мультимедиа) - Отдельным файлом
Язык : Russian
Default : Нет
Forced : Нет

Аудио #7 - Отдельным файлом
Идентификатор : 8
Формат : AC-3
Формат/Информация : Audio Coding 3
Расширение режима : CM (complete main)
Параметр Endianness формата : Big
Идентификатор кодека : A_AC3
Продолжительность : 1 ч. 45 м.
Вид битрейта : Постоянный
Битрейт : 448 Кбит/сек
Каналы : 6 каналов
Расположение каналов : Front: L C R, Side: L R, LFE
Частота : 48,0 КГц
Битовая глубина : 16 бит
Метод сжатия : С потерями
Размер потока : 339 Мбайт (7%)
Заголовок : AVO Russian, AC3, 6ch, 48 kHz, 448 kbps, (Одноголосый - Гаврилов) - Отдельным файлом
Язык : Russian
Default : Нет
Forced : Нет

Аудио #8 - Отдельным файлом
Идентификатор : 9
Формат : AC-3
Формат/Информация : Audio Coding 3
Расширение режима : CM (complete main)
Параметр Endianness формата : Big
Идентификатор кодека : A_AC3
Продолжительность : 1 ч. 45 м.
Вид битрейта : Постоянный
Битрейт : 448 Кбит/сек
Каналы : 6 каналов
Расположение каналов : Front: L C R, Side: L R, LFE
Частота : 48,0 КГц
Битовая глубина : 16 бит
Метод сжатия : С потерями
Размер потока : 339 Мбайт (7%)
Заголовок : AVO Russian, AC3, 6ch, 48 kHz, 448 kbps, (Одноголосый - Горчаков) - Отдельным файлом
Язык : Russian
Default : Нет
Forced : Нет

Аудио #9 - Отдельным файлом
Идентификатор : 10
Формат : AC-3
Формат/Информация : Audio Coding 3
Расширение режима : CM (complete main)
Параметр Endianness формата : Big
Идентификатор кодека : A_AC3
Продолжительность : 1 ч. 45 м.
Вид битрейта : Постоянный
Битрейт : 192 Кбит/сек
Каналы : 2 канала
Расположение каналов : Front: L R
Частота : 48,0 КГц
Битовая глубина : 16 бит
Метод сжатия : С потерями
Размер потока : 145 Мбайт (3%)
Заголовок : AVO Russian, AC3, 2ch, 48 kHz, 192 kbps, (Одноголосый - Володарский) - Отдельным файлом
Язык : Russian
Default : Нет
Forced : Нет

Аудио #10 - Отдельным файлом
Идентификатор : 11
Формат : AC-3
Формат/Информация : Audio Coding 3
Расширение режима : CM (complete main)
Параметр Endianness формата : Big
Идентификатор кодека : A_AC3
Продолжительность : 1 ч. 45 м.
Вид битрейта : Постоянный
Битрейт : 192 Кбит/сек
Каналы : 2 канала
Расположение каналов : Front: L R
Частота : 48,0 КГц
Битовая глубина : 16 бит
Метод сжатия : С потерями
Размер потока : 145 Мбайт (3%)
Заголовок : AVO Russian, AC3, 2ch, 48 kHz, 192 kbps, (Одноголосый - Мишин) - Отдельным файлом
Язык : Russian
Default : Нет
Forced : Нет

Аудио #11 - Отдельным файлом
Идентификатор : 12
Формат : AC-3
Формат/Информация : Audio Coding 3
Расширение режима : CM (complete main)
Параметр Endianness формата : Big
Идентификатор кодека : A_AC3
Продолжительность : 1 ч. 45 м.
Вид битрейта : Постоянный
Битрейт : 448 Кбит/сек
Каналы : 6 каналов
Расположение каналов : Front: L C R, Side: L R, LFE
Частота : 48,0 КГц
Битовая глубина : 16 бит
Метод сжатия : С потерями
Размер потока : 339 Мбайт (7%)
Заголовок : DVO Ukranian, AC3, 6ch, 48 kHz, 448 kbps, (Двухголосый - 1+1) - Отдельным файлом
Язык : Ukrainian
Default : Нет
Forced : Нет

Аудио #12 - Отдельным файлом
Идентификатор : 13
Формат : AC-3
Формат/Информация : Audio Coding 3
Расширение режима : CM (complete main)
Параметр Endianness формата : Big
Идентификатор кодека : A_AC3
Продолжительность : 1 ч. 45 м.
Вид битрейта : Постоянный
Битрейт : 448 Кбит/сек
Каналы : 6 каналов
Расположение каналов : Front: L C R, Side: L R, LFE
Частота : 48,0 КГц
Битовая глубина : 16 бит
Метод сжатия : С потерями
Размер потока : 339 Мбайт (7%)
Заголовок : DVO Ukranian, AC3, 6ch, 48 kHz, 448 kbps, (Двухголосый - Новый канал) - Отдельным файлом
Язык : Ukrainian
Default : Нет
Forced : Нет

Аудио #13 - Отдельным файлом
Идентификатор : 14
Формат : AC-3
Формат/Информация : Audio Coding 3
Расширение режима : CM (complete main)
Параметр Endianness формата : Big
Идентификатор кодека : A_AC3
Продолжительность : 1 ч. 45 м.
Вид битрейта : Постоянный
Битрейт : 448 Кбит/сек
Каналы : 6 каналов
Расположение каналов : Front: L C R, Side: L R, LFE
Частота : 48,0 КГц
Битовая глубина : 16 бит
Метод сжатия : С потерями
Размер потока : 339 Мбайт (7%)
Заголовок : English, AC3, 6ch, 48 kHz, 448 kbps, (Оригинал) - Отдельным файлом
Язык : English
Default : Нет
Forced : Нет

Текст #1
Идентификатор : 15
Формат : UTF-8
Идентификатор кодека : S_TEXT/UTF8
Идентификатор кодека/Информация : UTF-8 Plain Text
Заголовок : Форсированные
Язык : Russian
Default : Да
Forced : Нет

Текст #2
Идентификатор : 16
Формат : UTF-8
Идентификатор кодека : S_TEXT/UTF8
Идентификатор кодека/Информация : UTF-8 Plain Text
Заголовок : R5
Язык : Russian
Default : Нет
Forced : Нет

Текст #3
Идентификатор : 17
Формат : UTF-8
Идентификатор кодека : S_TEXT/UTF8
Идентификатор кодека/Информация : UTF-8 Plain Text
Заголовок : Киномания
Язык : Russian
Default : Нет
Forced : Нет

Текст #4
Идентификатор : 18
Формат : UTF-8
Идентификатор кодека : S_TEXT/UTF8
Идентификатор кодека/Информация : UTF-8 Plain Text
Заголовок : Vinalord
Язык : Russian
Default : Нет
Forced : Нет

Текст #5
Идентификатор : 19
Формат : UTF-8
Идентификатор кодека : S_TEXT/UTF8
Идентификатор кодека/Информация : UTF-8 Plain Text
Язык : Russian
Default : Нет
Forced : Нет

Текст #6
Идентификатор : 20
Формат : UTF-8
Идентификатор кодека : S_TEXT/UTF8
Идентификатор кодека/Информация : UTF-8 Plain Text
Язык : Ukrainian
Default : Нет
Forced : Нет

Текст #7
Идентификатор : 21
Формат : UTF-8
Идентификатор кодека : S_TEXT/UTF8
Идентификатор кодека/Информация : UTF-8 Plain Text
Язык : English
Default : Нет
Forced : Нет

Меню
00:00:00.000 : en:00:00:00.000
00:00:50.676 : en:00:00:50.676
00:07:45.173 : en:00:07:45.173
00:12:32.377 : en:00:12:32.377
00:17:41.269 : en:00:17:41.269
00:24:36.517 : en:00:24:36.517
00:27:59.595 : en:00:27:59.595
00:33:34.054 : en:00:33:34.054
00:41:51.175 : en:00:41:51.175
00:46:55.354 : en:00:46:55.354
00:49:37.391 : en:00:49:37.391
00:54:11.290 : en:00:54:11.290
01:00:38.385 : en:01:00:38.385
01:05:30.468 : en:01:05:30.468
01:08:11.379 : en:01:08:11.379
01:14:34.970 : en:01:14:34.970
01:16:55.236 : en:01:16:55.236
01:20:10.139 : en:01:20:10.139
01:24:30.482 : en:01:24:30.482
01:26:04.284 : en:01:26:04.284
01:30:33.219 : en:01:30:33.219
01:35:42.195 : en:01:35:42.195
01:40:08.419 : en:01:40:08.419
01:42:36.609 : en:01:42:36.609
Жемчужина Нила (1985) BDRip [H.264/720p-LQ] [Hi10P] Скриншоты:


Роман с камнем на NNM-club

Время раздачи: 24/7 (жду до 10-15 скачавших а дальше могу уйти с радачи)
[NNM-Club.me]_Roman s kamnem (1984) BDRip-AVC.torrent
 Торрент: Платиновая раздача  Зарегистрирован
 
Скачать


Примагнититься
 Зарегистрирован:   04 Фев 2015 23:22:09
 Размер:   4.97 GB  (
 Рейтинг:   4.9 (Голосов: 58)
 Поблагодарили:   171
 Проверка:   Оформление проверено модератором 04 Фев 2015 23:37:56
Как cкачать  ·  Как раздать  ·  Правильно оформить  ·  Поднять ратио!  
KotVsapogakh
Стаж: 12 лет 2 мес.
Сообщений: 222
Ratio: 3.036
34.12%
Хороший фильм.
Bacha
Стаж: 14 лет 8 мес.
Сообщений: 1533
Ratio: 129.865
Поблагодарили: 2604
100%
Откуда: СССР
nnm-club.gif
Фильм отличный!Последний раз смотрел очень и очень давно на VHS на видаке,качаю,хочу посмотреть еще разок,да и пока оставлю в коллекции,тем более,что и качество приемлемо вполне!Спасибо релизеру!!! :клево:

_________________
Не старость сама по себе уважается, а прожитая жизнь. Если она была. /В. Шукшин/
busy11
Стаж: 10 лет 3 мес.
Сообщений: 51
Ratio: 32.376
Раздал: 4.157 TB
100%
Офигенно страрый, но от этого, не менее других, любимый фильм.

И качество... У меня монитор 1440 по короткой, то, что доктор прописал..... =)

Спасибо. :супер!:

Блин, только звук дребезжит на низких, как кассете старой. :(
garri2z
Стаж: 8 лет 2 мес.
Сообщений: 56
Ratio: 6.932
100%
sinteros
как скачать сей шедевр месяца три тому 41 процент ??!
Показать сообщения:   
Начать новую тему   Ответить на тему    Торрент-трекер NNM-Club -> Классика кино и Старые фильмы до 90-х -> Зарубежная Классика (HD, FHD, UHD, 3D) Часовой пояс: GMT + 3
Страница 1 из 1