Классический форум-трекер
canvas not supported
Нас вместе: 4 235 212

Жемчужина Нила / The Jewel of the Nile (1985) BDRip [H.264/720p-LQ] [Hi10P]


 
 
RSS
Начать новую тему   Ответить на тему    Торрент-трекер NNM-Club -> Классика кино и Старые фильмы до 90-х -> Зарубежная Классика (HD, FHD, UHD, 3D)
Автор Сообщение
sinteros ®
Стаж: 15 лет 5 мес.
Сообщений: 562
Ratio: 65.353
Поблагодарили: 62358
100%
Жемчужина Нила / The Jewel of the Nile (1985)
BDRip [H.264/720p-LQ] [Hi10P]

Год выпуска: 1985
Производство: Мексика, США
Жанр: боевик, приключения, комедия, мелодрама
Перевод: Многоголосый x4, Двухголосый, Авторский
Оригинальная аудио дорожка: Английская
Язык субтитров: Русский х3, Украинский, Английский
Вид субтитров: Вшитые (отключаемые)

Описание фильма: Герои предыдущей части Джэк и Джоан живут спокойной, размеренной жизнью богатых бездельников. У них есть все, что могут позволить деньги: яхта, виллы, прислуга. Но им скучно.
Скучно друг с другом, и этим обществом. Чтобы развлечь себя, Джоан принимает приглашение арабского шейха посетить его восточную резиденцию. Но сказка обернулась кошмаром: арабский красавец похищает Джоан и требует выкуп - «жемчужину».
Джэк, заручившись поддержкой своего нового партнера Ральфа, принимает непростое решение - спасти Джоан. Но есть одно осложнение, Джэку хочет отомстить старый напарник.

Режиссер: Льюис Тиг

Актеры: Майкл Дуглас, Кэтлин Тернер, Дэнни ДеВито, Spiros Focas, Avner Eisenberg, Пол Дэвид Магид, Ховард Джей Паттерсон, Рэндолл Эдвин Нельсон, Сэмюэл Росс Уильямс, Тимоти Дэниэл Ферст, Hamid Fillali, Холлэнд Тейлор, Guy Cuevas, Питер ДеПальма, Марк Дэйли Ричардс, Sadeke Colobanane, Hyacinthe N'Iaye, Дэниэл Пикок, Benyahim Ahed, Alaoui Hassen, Makoula Ahmed

Качество видео: BDRip
Продолжительность: 01:45:55

< МОИ РЕЛИЗЫ >
Основной файл весит 2,48гб с одной звуковой дорожкой!

Видео: MPEG-4 AVC/H.264, 1280x546(2,35:1), 23,976fps, 2848 Кbps, 0.170bit/pixel
Аудио 1: MVO Russian, AC3, 6ch, 48 kHz, 448 kbps, (Многоголосый - R5)
Аудио 2: MVO Russian, AC3, 6ch, 48 kHz, 448 kbps, (Многоголосый - Киномания) - Отдельным файлом
Аудио 3: MVO Russian, AC3, 2ch, 48 kHz, 192 kbps, (Многоголосый - Лазер Видео) - Отдельным файлом
Аудио 4: MVO Russian, AC3, 2ch, 48 kHz, 192 kbps, (Многоголосый - Премьер Видео Фильм) - Отдельным файлом
Аудио 5: DVO Russian, AC3, 2ch, 48 kHz, 192 kbps, (Двухголосый - Позитив-Мультимедиа) - Отдельным файлом
Аудио 6: AVO Russian, AC3, 6ch, 48 kHz, 448 kbps, (Одноголосый - Гаврилов) - Отдельным файлом
Аудио 7: DVO Ukranian, AC3, 6ch, 48 kHz, 448 kbps, (Двухголосый - 1+1) - Отдельным файлом
Аудио 8: DVO Ukranian, AC3, 6ch, 48 kHz, 448 kbps, (Двухголосый - Новый канал) - Отдельным файлом
Аудио 9: English, AC3, 6ch, 48 kHz, 448 kbps, (Оригинал) - Отдельным файлом
Аудио 10: English, AC3, 2ch, 48 kHz, 192 kbps, (Коментарии) - Отдельным файлом

Примечание: Рип в High 10 Profile, в настоящее время не поддерживается большинством аппаратных проигрывателей, поэтому предназначен исключительно для воспроизведения на ПК. Для корректного воспроизведения может потребоваться обновление ПО.
Общее
Полное имя : Жемчужина Нила (1985) BDRip-AVC.mkv
Формат : Matroska
Версия формата : Version 4 / Version 2
Размер файла : 4,72 Гбайт
Продолжительность : 1 ч. 45 м.
Общий поток : 6373 Кбит/сек
Название фильма : Жемчужина Нила / The Jewel of the Nile (1985) BDRip-AVC (Sinteros)
Attachment : Yes

Видео
Идентификатор : 1
Формат : AVC
Формат/Информация : Advanced Video Codec
Профиль формата : High 10@L4.1
Параметр CABAC формата : Да
Параметр ReFrames формата : 11 кадров
Идентификатор кодека : V_MPEG4/ISO/AVC
Продолжительность : 1 ч. 45 м.
Битрейт : 2848 Кбит/сек
Ширина : 1280 пикселей
Высота : 546 пикселей
Соотношение сторон : 2,35:1
Режим частоты кадров : Постоянный
Частота кадров : 23,976 кадра/сек
Цветовое пространство : YUV
Субдискретизация насыщенности : 4:2:0
Битовая глубина : 10 бит
Тип развёртки : Прогрессивная
Бит/(Пиксели*Кадры) : 0.170
Размер потока : 2,06 Гбайт (44%)
Заголовок : MPEG-4 AVC/H.264, 1280x546(2,35:1), 23,976fps, 2848 Кbps, 0.170bit/pixel
Библиотека кодирования : x264 core 133 r2334 a3ac64b
Настройки программы : cabac=1 / ref=11 / deblock=1:-1:-1 / analyse=0x3:0x133 / me=tesa / subme=10 / psy=1 / psy_rd=1.00:0.15 / mixed_ref=1 / me_range=24 / chroma_me=1 / trellis=2 / 8x8dct=1 / cqm=0 / deadzone=21,11 / fast_pskip=1 / chroma_qp_offset=-3 / threads=12 / lookahead_threads=1 / sliced_threads=0 / nr=0 / decimate=1 / interlaced=0 / bluray_compat=0 / constrained_intra=0 / bframes=6 / b_pyramid=2 / b_adapt=2 / b_bias=0 / direct=1 / weightb=1 / open_gop=0 / weightp=2 / keyint=250 / keyint_min=23 / scenecut=40 / intra_refresh=0 / rc_lookahead=60 / rc=crf / mbtree=1 / crf=23.0 / qcomp=0.60 / qpmin=0 / qpmax=81 / qpstep=4 / ip_ratio=1.40 / aq=1:1.00
Язык : English
Default : Да
Forced : Нет

Аудио #1
Идентификатор : 2
Формат : AC-3
Формат/Информация : Audio Coding 3
Расширение режима : CM (complete main)
Параметр Endianness формата : Big
Идентификатор кодека : A_AC3
Продолжительность : 1 ч. 45 м.
Вид битрейта : Постоянный
Битрейт : 448 Кбит/сек
Каналы : 6 каналов
Расположение каналов : Front: L C R, Side: L R, LFE
Частота : 48,0 КГц
Битовая глубина : 16 бит
Метод сжатия : С потерями
Размер потока : 339 Мбайт (7%)
Заголовок : MVO Russian, AC3, 6ch, 48 kHz, 448 kbps, (Многоголосый - R5)
Язык : Russian
Default : Да
Forced : Нет

Аудио #2 - Отдельным файлом
Идентификатор : 3
Формат : AC-3
Формат/Информация : Audio Coding 3
Расширение режима : CM (complete main)
Параметр Endianness формата : Big
Идентификатор кодека : A_AC3
Продолжительность : 1 ч. 45 м.
Вид битрейта : Постоянный
Битрейт : 448 Кбит/сек
Каналы : 6 каналов
Расположение каналов : Front: L C R, Side: L R, LFE
Частота : 48,0 КГц
Битовая глубина : 16 бит
Метод сжатия : С потерями
Размер потока : 339 Мбайт (7%)
Заголовок : MVO Russian, AC3, 6ch, 48 kHz, 448 kbps, (Многоголосый - Киномания) - Отдельным файлом
Язык : Russian
Default : Нет
Forced : Нет

Аудио #3 - Отдельным файлом
Идентификатор : 4
Формат : AC-3
Формат/Информация : Audio Coding 3
Расширение режима : CM (complete main)
Параметр Endianness формата : Big
Идентификатор кодека : A_AC3
Продолжительность : 1 ч. 45 м.
Вид битрейта : Постоянный
Битрейт : 192 Кбит/сек
Каналы : 2 канала
Расположение каналов : Front: L R
Частота : 48,0 КГц
Битовая глубина : 16 бит
Метод сжатия : С потерями
Размер потока : 145 Мбайт (3%)
Заголовок : MVO Russian, AC3, 2ch, 48 kHz, 192 kbps, (Многоголосый - Лазер Видео) - Отдельным файлом
Язык : Russian
Default : Нет
Forced : Нет

Аудио #4 - Отдельным файлом
Идентификатор : 5
Формат : AC-3
Формат/Информация : Audio Coding 3
Расширение режима : CM (complete main)
Параметр Endianness формата : Big
Идентификатор кодека : A_AC3
Продолжительность : 1 ч. 45 м.
Вид битрейта : Постоянный
Битрейт : 192 Кбит/сек
Каналы : 2 канала
Расположение каналов : Front: L R
Частота : 48,0 КГц
Битовая глубина : 16 бит
Метод сжатия : С потерями
Размер потока : 145 Мбайт (3%)
Заголовок : MVO Russian, AC3, 2ch, 48 kHz, 192 kbps, (Многоголосый - Премьер Видео Фильм) - Отдельным файлом
Язык : Russian
Default : Нет
Forced : Нет

Аудио #5 - Отдельным файлом
Идентификатор : 6
Формат : AC-3
Формат/Информация : Audio Coding 3
Расширение режима : CM (complete main)
Параметр Endianness формата : Big
Идентификатор кодека : A_AC3
Продолжительность : 1 ч. 45 м.
Вид битрейта : Постоянный
Битрейт : 192 Кбит/сек
Каналы : 2 канала
Расположение каналов : Front: L R
Частота : 48,0 КГц
Битовая глубина : 16 бит
Метод сжатия : С потерями
Размер потока : 145 Мбайт (3%)
Заголовок : DVO Russian, AC3, 2ch, 48 kHz, 192 kbps, (Двухголосый - Позитив-Мультимедиа) - Отдельным файлом
Язык : Russian
Default : Нет
Forced : Нет

Аудио #6 - Отдельным файлом
Идентификатор : 7
Формат : AC-3
Формат/Информация : Audio Coding 3
Расширение режима : CM (complete main)
Параметр Endianness формата : Big
Идентификатор кодека : A_AC3
Продолжительность : 1 ч. 45 м.
Вид битрейта : Постоянный
Битрейт : 448 Кбит/сек
Каналы : 6 каналов
Расположение каналов : Front: L C R, Side: L R, LFE
Частота : 48,0 КГц
Битовая глубина : 16 бит
Метод сжатия : С потерями
Размер потока : 339 Мбайт (7%)
Заголовок : AVO Russian, AC3, 6ch, 48 kHz, 448 kbps, (Одноголосый - Гаврилов) - Отдельным файлом
Язык : Russian
Default : Нет
Forced : Нет

Аудио #7 - Отдельным файлом
Идентификатор : 8
Формат : AC-3
Формат/Информация : Audio Coding 3
Расширение режима : CM (complete main)
Параметр Endianness формата : Big
Идентификатор кодека : A_AC3
Продолжительность : 1 ч. 45 м.
Вид битрейта : Постоянный
Битрейт : 448 Кбит/сек
Каналы : 6 каналов
Расположение каналов : Front: L C R, Side: L R, LFE
Частота : 48,0 КГц
Битовая глубина : 16 бит
Метод сжатия : С потерями
Размер потока : 339 Мбайт (7%)
Заголовок : DVO Ukranian, AC3, 6ch, 48 kHz, 448 kbps, (Двухголосый - 1+1) - Отдельным файлом
Язык : Ukrainian
Default : Нет
Forced : Нет

Аудио #8 - Отдельным файлом
Идентификатор : 9
Формат : AC-3
Формат/Информация : Audio Coding 3
Расширение режима : CM (complete main)
Параметр Endianness формата : Big
Идентификатор кодека : A_AC3
Продолжительность : 1 ч. 45 м.
Вид битрейта : Постоянный
Битрейт : 448 Кбит/сек
Каналы : 6 каналов
Расположение каналов : Front: L C R, Side: L R, LFE
Частота : 48,0 КГц
Битовая глубина : 16 бит
Метод сжатия : С потерями
Размер потока : 339 Мбайт (7%)
Заголовок : DVO Ukranian, AC3, 6ch, 48 kHz, 448 kbps, (Двухголосый - Новый канал) - Отдельным файлом
Язык : Ukrainian
Default : Нет
Forced : Нет

Аудио #9 - Отдельным файлом
Идентификатор : 10
Формат : AC-3
Формат/Информация : Audio Coding 3
Расширение режима : CM (complete main)
Параметр Endianness формата : Big
Идентификатор кодека : A_AC3
Продолжительность : 1 ч. 45 м.
Вид битрейта : Постоянный
Битрейт : 448 Кбит/сек
Каналы : 6 каналов
Расположение каналов : Front: L C R, Side: L R, LFE
Частота : 48,0 КГц
Битовая глубина : 16 бит
Метод сжатия : С потерями
Размер потока : 339 Мбайт (7%)
Заголовок : English, AC3, 6ch, 48 kHz, 448 kbps, (Оригинал) - Отдельным файлом
Язык : English
Default : Нет
Forced : Нет

Аудио #10 - Отдельным файлом
Идентификатор : 11
Формат : AC-3
Формат/Информация : Audio Coding 3
Расширение режима : CM (complete main)
Параметр Endianness формата : Big
Идентификатор кодека : A_AC3
Продолжительность : 1 ч. 45 м.
Вид битрейта : Постоянный
Битрейт : 192 Кбит/сек
Каналы : 2 канала
Расположение каналов : Front: L R
Частота : 48,0 КГц
Битовая глубина : 16 бит
Метод сжатия : С потерями
Размер потока : 145 Мбайт (3%)
Заголовок : English, AC3, 2ch, 48 kHz, 192 kbps, (Коментарии) - Отдельным файлом
Язык : English
Default : Нет
Forced : Нет

Текст #1
Идентификатор : 12
Формат : UTF-8
Идентификатор кодека : S_TEXT/UTF8
Идентификатор кодека/Информация : UTF-8 Plain Text
Заголовок : R5
Язык : Russian
Default : Нет
Forced : Нет

Текст #2
Идентификатор : 13
Формат : UTF-8
Идентификатор кодека : S_TEXT/UTF8
Идентификатор кодека/Информация : UTF-8 Plain Text
Заголовок : Киномания
Язык : Russian
Default : Нет
Forced : Нет

Текст #3
Идентификатор : 14
Формат : UTF-8
Идентификатор кодека : S_TEXT/UTF8
Идентификатор кодека/Информация : UTF-8 Plain Text
Заголовок : Vinalord
Язык : Russian
Default : Нет
Forced : Нет

Текст #4
Идентификатор : 15
Формат : UTF-8
Идентификатор кодека : S_TEXT/UTF8
Идентификатор кодека/Информация : UTF-8 Plain Text
Язык : Ukrainian
Default : Нет
Forced : Нет

Текст #5
Идентификатор : 16
Формат : UTF-8
Идентификатор кодека : S_TEXT/UTF8
Идентификатор кодека/Информация : UTF-8 Plain Text
Язык : English
Default : Нет
Forced : Нет

Меню
00:00:00.000 : en:00:00:00.000
00:03:45.434 : en:00:03:45.434
00:08:13.660 : en:00:08:13.660
00:11:28.521 : en:00:11:28.521
00:16:02.545 : en:00:16:02.545
00:19:47.395 : en:00:19:47.395
00:23:47.760 : en:00:23:47.760
00:24:49.279 : en:00:24:49.279
00:26:57.908 : en:00:26:57.908
00:30:26.867 : en:00:30:26.867
00:37:09.352 : en:00:37:09.352
00:44:07.144 : en:00:44:07.144
00:52:43.994 : en:00:52:43.994
00:57:07.758 : en:00:57:07.758
01:02:13.563 : en:01:02:13.563
01:08:39.782 : en:01:08:39.782
01:10:45.158 : en:01:10:45.158
01:13:48.090 : en:01:13:48.090
01:16:12.401 : en:01:16:12.401
01:23:52.736 : en:01:23:52.736
01:26:17.422 : en:01:26:17.422
01:29:53.555 : en:01:29:53.555
01:34:08.685 : en:01:34:08.685
01:40:50.336 : en:01:40:50.336
Роман с камнем (1984) BDRip [H.264/720p-LQ] [Hi10P] Скриншоты:


Жемчужина Нила на NNM-club

Время раздачи: 24/7 (жду до 10-15 скачавших а дальше могу уйти с радачи)
[NNM-Club.me]_ZHemchuzhina Nila (1985) BDRip-AVC.torrent
 Торрент: Платиновая раздача  Зарегистрирован
 
Скачать


Примагнититься
 Зарегистрирован:   04 Фев 2015 23:23:57
 Размер:   4.71 GB  (
 Рейтинг:   4.9 (Голосов: 44)
 Поблагодарили:   129
 Проверка:   Оформление проверено модератором 04 Фев 2015 23:41:32
Как cкачать  ·  Как раздать  ·  Правильно оформить  ·  Поднять ратио!  
Parad22
Стаж: 11 лет 5 мес.
Сообщений: 107
Ratio: 12.19
50.5%
russia.gif
за перевод с Гавриловым, отдельное спасибо!
sinteros ®
Стаж: 15 лет 5 мес.
Сообщений: 562
Ratio: 65.353
Поблагодарили: 62358
100%
Parad22 писал(а): Перейти к сообщению
за перевод с Гавриловым, отдельное спасибо!


Пожалуйста!
izomsk
Стаж: 14 лет 7 мес.
Сообщений: 764
Ratio: 45.496
Раздал: 34.18 TB
Поблагодарили: 39105
100%
russia.gif
Проверено: воспроизводится на Mistery MMP-70DT2 (не только этот фильм, но и всё [H.264/720p-LQ] [Hi10P] от sinteros)
Релизеру Большое Спасибо! :респект:

_________________
Бесшумный компьютер для кодирования, музыки и игр сделал себе сам...
Показать сообщения:   
Начать новую тему   Ответить на тему    Торрент-трекер NNM-Club -> Классика кино и Старые фильмы до 90-х -> Зарубежная Классика (HD, FHD, UHD, 3D) Часовой пояс: GMT + 3
Страница 1 из 1