Классический форум-трекер
canvas not supported
Нас вместе: 4 233 676

Hadashi no Gen / Barefoot Gen / Босоногий Ген [1983] raw rus


 
 
RSS
Начать новую тему   Ответить на тему    Торрент-трекер NNM-Club -> Аниме с озвучкой -> Аниме с озвучкой (SD)
Автор Сообщение
Hankel88 ®
Стаж: 15 лет 10 мес.
Сообщений: 30
Ratio: 3.481
Поблагодарили: 262
71.67%
Откуда: Из мрачной темноты...
germany.gif
Hadashi no Gen / Barefoot Gen / Босоногий Ген (1983) [Raw]

Жанр: драма
Продолжительность: 01:23:03
Производство/студия: Gen Productions
Режиссер: Мамору Шинзаки (Mamoru Shinzaki)

Битрейт видео: 1,38 Мбит/с
Размер кадра: 640 x 480
Качество видео: DVDRip
Аудио: MPEG Audio Layer 3 48000Hz stereo 160Kbps
Звук: Русский (поверх японского)

Описание:
Созданный по мотивам автобиографической манги Кэйдзи Накадзавы, он рассказывает о взрыве атомной бомбы в Хиросиме. Вторая Мировая Война подходит к концу, Япония постоянно подвергается воздушным нападениям, люди находятся на гране нищеты. Положение семилетнего Гена Накаока и его семьи усугубляется тем, что отец Гена не одобряет войну и открыто говорит об этом, за что многие считают его трусом и предателем. Однако даже во время войны люди способны находить и ценить радости в жизни, семья Накаока надеется на будущее и ждет рождения четвертого ребенка. Но вот, в один ясный летний день на город сбрасывают первую в мире атомную бомбу. Почти вся семья Гена погибает в пожаре, он остается "за старшего" с только что родившей матерью и крошечной сестренкой. И он не сдается. Свалившаяся на него ответственность не раздавила его, но сделала старше. Ген и его мать находят в себе силы бороться за жизнь в почти полностью разрушенном и вымершем городе. Но даже после самых страшных испытаний Ген не позволяет своему сердцу зачерстветь, он помогает людям, хотя временами ему приходится сталкиваться с собственной беспомощностью. Он живет без ненависти в душе и по-детски радуется, увидев всходящую пшеницу на поле, где по прогнозам еще семь лет ничего не должно было расти. "Босоногий Ген" будет интересен для зрителей любого возраста, он наглядно демонстрирует, насколько серьезной может быть нарисованная история. Фильм (и манга тоже) не пытается переписать историю, он просто показывает реальность. Одной из интересных черт фильма является то, что в нем нет отрицательных персонажей, единственное зло - это война. Накадзава о своем произведении сказал "Я назвал главного героя Гэн (по-японски - источник) в надежде, что он станет источником силы для новых поколений пройти босиком по выжженой земле Хиросимы и сказать "нет" ядерному оружию"
Код: выделить все
Общее
Уникальный идентификатор : 245524314127606044923150297488461621963 (0xB8B6434B24BF27A7947CAB58796F6ACB)
Полное имя :\Bosonogiy_Gen.avi
Формат : Matroska
Версия формата : Version 1
Размер файла : 821 Мбайт
Продолжительность : 1 ч. 23 м.
Общий поток : 1382 Кбит/сек
Дата кодирования : UTC 2007-01-15 17:17:07
Программа кодирования : mkvmerge v1.6.0 ('Ist das so') built on Oct 14 2005 15:22:41
Библиотека кодирования : libebml v0.7.5 + libmatroska v0.7.7
FileExtension_Invalid : mkv mk3d mka mks

Видео
Идентификатор : 1
Формат : AVC
Формат/Информация : Advanced Video Codec
Профиль формата : Main@L4
Настройки формата : CABAC / 2 Ref Frames
Параметр CABAC формата : Да
Параметр RefFrames формата : 2 кадра
Идентификатор кодека : V_MPEG4/ISO/AVC
Продолжительность : 1 ч. 23 м.
Битрейт : 1098 Кбит/сек
Ширина : 640 пикселей
Высота : 480 пикселей
Соотношение сторон : 4:3
Режим частоты кадров : Постоянный
Частота кадров : 23,976 (24000/1001) кадра/сек
Цветовое пространство : YUV
Субдискретизация насыщенности : 4:2:0
Битовая глубина : 8 бит
Тип развёртки : Прогрессивная
Бит/(Пиксели*Кадры) : 0.149
Размер потока : 653 Мбайт (79%)
Заголовок : Nero AVC H.264
Библиотека кодирования : eavc 1.0.2.2
Default : Да
Forced : Нет

Аудио #1
Идентификатор : 2
Формат : MPEG Audio
Версия формата : Version 1
Профиль формата : Layer 3
Настройки формата : Joint stereo
Идентификатор кодека : A_MPEG/L3
Идентификатор кодека/Подсказка : MP3
Продолжительность : 1 ч. 23 м.
Вид битрейта : Постоянный
Битрейт : 128 Кбит/сек
Каналы : 2 канала
Частота : 44,1 КГц
Метод сжатия : С потерями
Размер потока : 76,0 Мбайт (9%)
Default : Да
Forced : Нет

Аудио #2
Идентификатор : 3
Формат : MPEG Audio
Версия формата : Version 1
Профиль формата : Layer 3
Настройки формата : Joint stereo / MS Stereo
Идентификатор кодека : A_MPEG/L3
Идентификатор кодека/Подсказка : MP3
Продолжительность : 1 ч. 23 м.
Вид битрейта : Постоянный
Битрейт : 128 Кбит/сек
Каналы : 2 канала
Частота : 48,0 КГц
Метод сжатия : С потерями
Размер потока : 76,0 Мбайт (9%)
Default : Нет
Forced : Нет
Скриншоты:
[NNM-Club.info] Bosonogiy_Gen.avi.torrent
 Торрент: Платиновая раздача  Зарегистрирован
 
Скачать


Примагнититься
 Зарегистрирован:   06 Авг 2022 12:56:23
 Размер:   821 MB  (
 Рейтинг:   4.9 (Голосов: 39)
 Поблагодарили:   149
 Проверка:   Оформление проверено модератором 06 Авг 2022 13:04:32
Как cкачать  ·  Как раздать  ·  Правильно оформить  ·  Поднять ратио!  

_________________
Каждое действие имеет последствие... (с)
nesterov86
 
Стаж: 14 лет 6 мес.
Сообщений: 133
Ratio: 17.451
Раздал: 36.58 TB
Поблагодарили: 3010
100%
Откуда: SPb
russia.gif
лучший мульт про ядерную войну)
Arikosan
Стаж: 14 лет 9 мес.
Сообщений: 18
Ratio: 18.268
0.37%
смотрел в детстве этот фильм. очень был впечатлен. пересмотрел взрослым - конченое окно Овертона. Война плохо. Но ни слова про Штаты. Штаты это теперь Сегун для всей японии
pericl
Куратор форумов
Добрый самаритянин
Стаж: 13 лет 9 мес.
Сообщений: 5964
Ratio: 353.72
100%
confederate.gif
Arikosan

А,например,есть советские мультфильмы о В.О.В. где говорится именно о Германии?
Мультфильмы не для разжигания межнациональной розни,а чтобы помнили историю.
Кто думает - поймет всё правильно.

_________________

А жизнь - только слово, Есть лишь любовь и есть смерть... Эй,а кто будет петь, если все будут спать? Смерть стоит того, чтобы жить, А любовь стоит того, чтобы ждать...
ElSwanko
Куратор Аниме
Модератор Музыки
Стаж: 17 лет 8 мес.
Сообщений: 20231
Ratio: 1212.911
Поблагодарили: 87692
100%
Откуда: ур-пространство преконтинуума
roody.gif
pericl
Да ладно вам, как говорится:

_________________
Правила: Аниме, Манга, OST || Музыка
Помощь: Скриншоты || MediaInfo || auCDtect
saraconor
Стаж: 13 лет 6 мес.
Сообщений: 1055
Ratio: 9.93
52.63%
Откуда: Страна 1000 истин.
russia.gif
nesterov86 писал(а): Перейти к сообщению
лучший мульт про ядерную войну)

Есть еще "Могила светлячков"
st-MK
Стаж: 13 лет 11 мес.
Сообщений: 647
Ratio: 5.159
100%
pirates.png
Arikosan писал(а): Перейти к сообщению
Война плохо. Но ни слова про Штаты.

7-летние мальчики только и думают, что о политике. (Сарказм)
Показать сообщения:   
Начать новую тему   Ответить на тему    Торрент-трекер NNM-Club -> Аниме с озвучкой -> Аниме с озвучкой (SD) Часовой пояс: GMT + 3
Страница 1 из 1