Классический форум-трекер
canvas not supported
Нас вместе: 4 210 919

[Трейлер] Заражение / Contagion (2011) [720p] HDRip


 
 
RSS
Начать новую тему   Ответить на тему    Торрент-трекер NNM-Club -> Архив торрентов -> Архив Видео
Автор Сообщение
Strelok@46 ®
Стаж: 11 лет 5 мес.
Сообщений: 451
Ratio: 122.996
Раздал: 6.727 TB
Поблагодарили: 35128
100%
Откуда: Курская обл.
russia.gif
[Трейлер] Заражение / Contagion (2011) HDRip
Русское название: Заражение
Оригинальное название: Contagion
Год выпуска: 2011
Страна: США ОАЭ
Жанр: фантастика, боевик, триллер, ...
Перевод: Профессиональный многоголосый



Дата мировой премьеры: 3 сентября 2011
Дата российской премьеры: 13 октября 2011, «Каро-Премьер»
Дата выхода на DVD : 17 ноября 2011, «CP-Digital»

Режиссер:Стивен Содерберг
Сценарий: Скотт Бёрнс
Продюсеры: Грегори Джейкобс, Майкл Шамберг, Стейси Шер, ...
Оператор: Стивен Содерберг
Композитор: Клифф Мартинес
Актеры: Марион Котийяр, Мэтт Дэймон, Лоренс Фишбёрн, Джуд Лоу, Гвинет Пэлтроу, Кейт Уинслет, Брайан Крэнстон, Дженнифер Эль, Санаа Лэтэн, Джон Хоукс

Описание фильма:
Международная организация врачей совместно с Центром по контролю и профилактике заболеваний США пытается помешать распространению смертельного вируса.

Продолжительность: 00:02:34
Качество видео: HDRip
Видеокодек: MPEG-4 AVC/H.264
Битрейт видео: ~6098kb/s
Размер кадра: 1280x720
Аудиокодек: ACC (2канала)
Битрейт аудио: 109 Кбит/сек
Общее
Полное имя : D:\Мои видеозаписи\Фильмачки\NNM-Club\[NNM-Club.ru] Заражение. трейлер.mp4
Формат : MPEG-4
Профиль формата : Sony PSP
Идентификатор кодека : MSNV
Размер файла : 114 Мбайт
Продолжительность : 2 м. 34 с.
Общий поток : 6214 Кбит/сек
Дата кодирования : UTC 2011-07-15 21:19:42
Дата пометки : UTC 2011-07-15 21:19:42
Библиотека кодирования : AVS

Видео
Идентификатор : 1
Формат : AVC
Формат/Информация : Advanced Video Codec
Профиль формата : Baseline@L1.3
Параметр CABAC формата : Нет
Параметр ReFrames формата : 1 кадр
Идентификатор кодека : avc1
Идентификатор кодека/Информация : Advanced Video Coding
Продолжительность : 2 м. 34 с.
Битрейт : 6098 Кбит/сек
Ширина : 1280 пикс.
Высота : 720 пикс.
Соотношение сторон : 16:9
Режим частоты кадров : Постоянный
Частота кадров : 30,000 кадр/сек
Цветовое пространство : YUV
Подвыборка цветности : 4:2:0
Битовая глубина : 8 бит
Тип развёртки : Прогрессивная
Бит/(Пиксели*Кадры) : 0.221
Размер потока : 112 Мбайт (98%)
Язык : English
Дата кодирования : UTC 2011-07-15 21:19:42
Дата пометки : UTC 2011-07-15 21:19:42

Аудио
Идентификатор : 2
Формат : AAC
Формат/Информация : Advanced Audio Codec
Профиль формата : LC
Идентификатор кодека : 40
Продолжительность : 2 м. 34 с.
Вид битрейта : Постоянный
Битрейт : 109 Кбит/сек
Номинальный битрейт : 96,0 Кбит/сек
Каналы : 2 канала
Расположение каналов : Front: L R
Частота : 48,0 КГц
Метод сжатия : С потерями
Размер потока : 2,00 Мбайт (2%)
Язык : English
Дата кодирования : UTC 2011-07-15 21:19:42
Дата пометки : UTC 2011-07-15 21:19:42
Скриншоты:




Время раздачи: 24/7
Нажмите , буду признателен :смущение:
 Торрент: Платиновая раздача  Зарегистрирован
 
Скачать


Примагнититься
 Зарегистрирован:   27 Авг 2011 23:43:37
 Размер:   114 MB  (
 Рейтинг:   3.9 (Голосов: 10)
 Поблагодарили:   42
 Проверка:   Оформление проверено модератором 29 Авг 2011 06:13:50
Как cкачать  ·  Как раздать  ·  Правильно оформить  ·  Поднять ратио!  
ksodus
Стаж: 13 лет 3 мес.
Сообщений: 185
Ratio: 6.162
Поблагодарили: 2134
100%
ussr.gif
Казань под первым номером! Ужас! Обязательно посмотрю!)
Irbinss
Стаж: 13 лет 2 мес.
Сообщений: 133
Ratio: 47.917
Раздал: 64.63 TB
Поблагодарили: 23
100%
russia.gif
"Заражение в одно прикосновение..."
tipec
Стаж: 11 лет 4 мес.
Сообщений: 120
Ratio: 3.207
34.01%
nigeria.gif
Посмотрим че они там навояли на арабьи бабосы
y607ce
Стаж: 15 лет 1 мес.
Сообщений: 1718
Ratio: 1133.178
Раздал: 640.2 TB
Поблагодарили: 71421
100%
Откуда: Татарстан
ussr.gif
Казань, О ужас, это в 200 км от меня :D
dddaaarrrkkk
Стаж: 12 лет 1 мес.
Сообщений: 131
Ratio: 8.346
Раздал: 20.27 TB
Поблагодарили: 192
21.41%
Откуда: Чистополь
russia.gif
от меня 120 (((
Lelya_K
Стаж: 11 лет 8 мес.
Сообщений: 5536
Ratio: 7169.418
Раздал: 109.3 TB
Поблагодарили: 627415
100%
Откуда: Московская область
nnm-club.gif
Заражение / Contagion (2011) [H.264] HDRip
Заражение / Contagion (2011) [720p] BDRip
Заражение / Contagion (2011) [1080p] BDRemux
Показать сообщения:   
Начать новую тему   Ответить на тему    Торрент-трекер NNM-Club -> Архив торрентов -> Архив Видео Часовой пояс: GMT + 3
Страница 1 из 1