Классический форум-трекер
canvas not supported
Нас вместе: 4 210 919

Хороший доктор / The Good Doctor (2011) [H.264/1080р-LQ] HDRip [Трейлер]


 
 
RSS
Начать новую тему   Ответить на тему    Торрент-трекер NNM-Club -> Архив торрентов -> Архив Видео
Автор Сообщение
saw-ko ®
Стаж: 11 лет 2 мес.
Сообщений: 149
Ratio: 67.432
Раздал: 14.23 TB
Поблагодарили: 4432
100%
Откуда: Харьков
ukraine.gif
Хороший доктор / The Good Doctor (2011) [H.264/1080р-LQ] HDRip
Русское название: Хороший доктор
Оригинальное название: The Good Doctor
Год выпуска: 2011
Производство: США
Жанр: Триллер, Драма
Перевод: Двуголосый закадровый, профессиональный
Озвучка / Автор перевода: П. Гланц и И.Королева

Дата мировой премьеры: 23 апреля 2011

Режиссер: Лэнс Дэйли
Продюсер: Орландо Блум, Дэн Этеридж, Джонатан Кинг
Актеры: Орландо Блум, Райли Кеох, Тараджи П. Хенсон, Роб Морроу, Майкл Пенья, Трой Гэрити, Молли Прайс, Уэйд Уильямс, Сорел Кэрредин, Гэри Сервантес

Описание фильма:
Молодой врач стремится произвести впечатление на свое начальство и коллег. Когда в клинику, где он работает, попадает 18-летняя пациентка с инфекцией почек, доктор вмешивается в ее лечение, чтобы надолго оставить девушку в больнице.

Бюджет: $6 000 000



Продолжительность: 00:02:25
Качество видео: HDRip

Видеокодек: MPEG-4 AVC/H.264
Битрейт видео: ~8028 Kbps
Размер кадра: 1920 x 1080
Аудиокодек: AAC 2.0
Битрейт аудио: 128 Kbps (VBR)
Format : MPEG-4
Format profile : QuickTime
Codec ID : qt
File size : 141 MiB
Duration : 2mn 25s
Overall bit rate mode : Variable
Overall bit rate : 8 160 Kbps
Encoded date : UTC 2012-05-16 20:00:00
Tagged date : UTC 2012-05-16 20:00:00
Writing application : Lavf53.10.0

Video
ID : 1
Format : AVC
Format/Info : Advanced Video Codec
Format profile : Baseline@L1.3
Format settings, CABAC : No
Format settings, ReFrames : 1 frame
Codec ID : avc1
Codec ID/Info : Advanced Video Coding
Duration : 2mn 25s
Bit rate : 8 028 Kbps
Width : 1 920 pixels
Height : 1 080 pixels
Display aspect ratio : 16:9
Frame rate mode : Constant
Frame rate : 30.000 fps
Color space : YUV
Chroma subsampling : 4:2:0
Bit depth : 8 bits
Scan type : Progressive
Bits/(Pixel*Frame) : 0.129
Stream size : 139 MiB (98%)
Language : English
Encoded date : UTC 2012-05-16 20:00:00
Tagged date : UTC 2012-05-16 20:00:00

Audio
ID : 2
Format : AAC
Format/Info : Advanced Audio Codec
Format profile : LC
Codec ID : 40
Duration : 2mn 25s
Bit rate mode : Variable
Bit rate : 128 Kbps
Channel(s) : 2 channels
Channel positions : Front: L R
Sampling rate : 48.0 KHz
Compression mode : Lossy
Stream size : 2.20 MiB (2%)
Language : English
Encoded date : UTC 2012-05-16 20:00:00
Tagged date : UTC 2012-05-16 20:00:00
Скриншоты:



Время раздачи: будни с 19:00 до 7:00, выходные - круглосуточно
 Торрент: Платиновая раздача  Зарегистрирован
 
Скачать


Примагнититься
 Зарегистрирован:   20 Май 2012 13:29:17
 Размер:   141 MB  (
 Рейтинг:    (Голосов: 3)
 Поблагодарили:   7
 Проверка:   Оформление проверено модератором 22 Май 2012 10:18:54
Как cкачать  ·  Как раздать  ·  Правильно оформить  ·  Поднять ратио!  
Lelya_K
Стаж: 11 лет 8 мес.
Сообщений: 5536
Ratio: 7169.418
Раздал: 109.3 TB
Поблагодарили: 627415
100%
Откуда: Московская область
nnm-club.gif
Хороший доктор / The Good Doctor (2011) HDRip
Хороший доктор / The Good Doctor (2011) HDRip
Хороший доктор / The Good Doctor (2011) BDRip [720p]
Хороший доктор / The Good Doctor (2011) BDRip [1080p]
Топик был перенесен из форума Трейлеры в форум Архив Видео


Lelya_K
Показать сообщения:   
Начать новую тему   Ответить на тему    Торрент-трекер NNM-Club -> Архив торрентов -> Архив Видео Часовой пояс: GMT + 3
Страница 1 из 1