Классический форум-трекер
canvas not supported
Нас вместе: 4 210 997

Менталист / The Mentalist (2012) WEB-DLRip (Сезон 5 полный (22 серии)) (BaibaKo)


Страницы:  1, 2  След. 
 
RSS
Начать новую тему   Ответить на тему    Торрент-трекер NNM-Club -> Зарубежные сериалы -> Менталист / The Mentalist ; Теория Лжи / Lie To Me
Автор Сообщение
Дмитрий Валерьевич ®
Uploader 100+
Стаж: 13 лет
Сообщений: 6789
Ratio: 14K
Раздал: 276 TB
Поблагодарили: 336554
100%
Откуда: Есть такой город – Глазов
russia.gif
Менталист / The Mentalist
(Сезон 5 полный (22 серии)) (2012) WEB-DLRip (BaibaKo)

«He reads between the lies.»
Год выпуска: 2012
Страна: США
Жанр: Драма, криминал

Перевод: Профессиональный многоголосый закадровый - BaibaKo

Режиссер: Рэндалл Зиск, Крис Лонг
Актеры: Саймон Бейкер, Робин Танни, Аманда Риджетти, Тим Кенг, Овайн Йомен, Эммануэль Шрики и др.

Описание:
Патрик Джейн — детектив и независимый консультант из Калифорнийского Бюро Расследований (CBI), он использует свои отточенные, как лезвие, навыки наблюдения для раскрытия тяжких преступлений. В самом Бюро Джейн известен за частые нарушения протокола, а также за его звёздное прошлое: он работал медиумом, однако теперь сам признает, что симулировал паранормальные способности. Роль Джейна в раскрытии целой серии загадочных преступлений высоко ценится коллегами. Но суровая старший агент Тереза Лисбон против того, чтобы Джейн работал с её отрядом, и то вынужденно признает его успехи, то критикует его за театральность, нарциссизм и отсутствие границ.

СЭМПЛ

Продолжительность: ~00:42:00 серия
Качество видео: WEB-DLRip
Формат: AVI
Видео: 720x400 (16:9), 23.976 fps, XviD ~1510 kbps, ~0.219 bit/pixel
Аудио Rus: 48 kHz, MPEG Layer 3, 2 ch, 192 kbps CBR
Аудио Eng: 48 kHz, MPEG Layer 3, 2 ch, 192 kbps CBR

Релиз:
Озвучка: ChrisTref, Татьяна Оболевич, Алексей Кузнецов, Виталий Ткаченко и Александр Фурман
Автор перевода: Lub_a
Общее
Формат : AVI
Формат/Информация : Audio Video Interleave
Размер файла : 563 Мбайт
Продолжительность : 41 м.
Общий поток : 1900 Кбит/сек

Видео
Идентификатор : 0
Формат : MPEG-4 Visual
Профиль формата : Advanced Simple@L5
Параметр BVOP формата : 2
Параметр QPel формата : Нет
Параметр GMC формата : Без точки перехода
Параметр матрицы формата : Default (H.263)
Идентификатор кодека : XVID
Идентификатор кодека/Подсказка : XviD
Продолжительность : 41 м.
Битрейт : 1509 Кбит/сек
Ширина : 720 пикселей
Высота : 400 пикселей
Соотношение сторон : 16:9
Частота кадров : 23,976 кадра/сек
Цветовое пространство : YUV
Субдискретизация насыщенности : 4:2:0
Битовая глубина : 8 бит
Тип развёртки : Прогрессивная
Метод сжатия : С потерями
Бит/(Пиксели*Кадры) : 0.219
Размер потока : 447 Мбайт (79%)
Библиотека кодирования : XviD 1.2.1 (UTC 2008-12-04)

Аудио #1
Идентификатор : 1
Формат : MPEG Audio
Версия формата : Version 1
Профиль формата : Layer 3
Режим : Joint stereo
Расширение режима : MS Stereo
Идентификатор кодека : 55
Идентификатор кодека/Подсказка : MP3
Продолжительность : 41 м.
Вид битрейта : Постоянный
Битрейт : 192 Кбит/сек
Каналы : 2 канала
Частота : 48,0 КГц
Метод сжатия : С потерями
Размер потока : 56,9 Мбайт (10%)
Выравнивание : Соединение по промежуткам
Продолжительность промежутка : 167 мс. (4,00 видеокадра)
Время предзагрузки промежутка : 216 мс.
Заголовок : Mentalist.s05e01.The.Red.Glass.Bead.WEB-DLRip.x264.Rus.Eng.BaibaKo.tv.mp4_track_1_russian_audio
Библиотека кодирования : LAME3.99r
Настройки программы : -m j -V 4 -q 2 -lowpass 18.6 -b 192

Аудио #2
Идентификатор : 2
Формат : MPEG Audio
Версия формата : Version 1
Профиль формата : Layer 3
Режим : Joint stereo
Расширение режима : MS Stereo
Идентификатор кодека : 55
Идентификатор кодека/Подсказка : MP3
Продолжительность : 41 м.
Вид битрейта : Постоянный
Битрейт : 192 Кбит/сек
Каналы : 2 канала
Частота : 48,0 КГц
Метод сжатия : С потерями
Размер потока : 56,9 Мбайт (10%)
Выравнивание : Соединение по промежуткам
Продолжительность промежутка : 167 мс. (4,00 видеокадра)
Время предзагрузки промежутка : 216 мс.
Заголовок : Mentalist.s05e01.The.Red.Glass.Bead.WEB-DLRip.x264.Rus.Eng.BaibaKo.tv.mp4_track_2_english_audio
Библиотека кодирования : LAME3.99r
Настройки программы : -m j -V 4 -q 2 -lowpass 18.6 -b 192
01. The Red Glass Bead / Кроваво-красная бусина
02. Devil's Cherry / Вишня дьявола
03. Not One Red Cent / Ни одного кровавого цента
04. Blood Feud / Кровная месть
05. Red Dawn / Алая заря (100-я серия!)
06. Cherry Picked / Отборная вишня
07. If It Bleeds, It Leads / Кровавое - сенсационнее
08. Red Sails in the Sunset / Алые паруса на закате
09. Black Cherry / Чёрная вишня
10. Panama Red / Красная Панама
11. Days of Wine & Roses / Дни вина и роз
12. Little Red Corvette / Маленький красный Корвет
13. The Red Barn / Красный амбар
14. Red in Tooth and Claw / Кровавый естественный отбор
15. Red Lacquer Nail Polish / Красный лак для ногтей
16. There Will Be Blood / Да будет кровь
17. Red, White and Blue / Красный, белый и синий
18. Behind the Red Curtain / За красным занавесом
19. Red Letter Day / Красный день конверта
20. Red Velvet Cupcakes / Красные рассыпчатые кексы
21. Red and Itchy / Красная и зудящая
22. Red John's Rules / Правила Красного Джона



Сериал "Менталист / The Mentalist" на трекере NNM-Club
Время раздачи: 24/7
 Торрент: Платиновая раздача  Зарегистрирован
 
Скачать


 Зарегистрирован:   12 Май 2013 00:36:32
 Размер:   12.5 GB  (
 Рейтинг:   4.8 (Голосов: 382)
 Поблагодарили:   1383
 Проверка:   Оформление проверено модератором 12 Май 2013 00:42:04
Как cкачать  ·  Как раздать  ·  Правильно оформить  ·  Поднять ратио!  
Garybad
Стаж: 12 лет
Сообщений: 2
Ratio: 42.771
100%
russia.gif
Спасибо классный сериал :да:
tmax74
Стаж: 12 лет 1 мес.
Сообщений: 21
Ratio: 569.42
100%
russia.gif
Спасибо за раздачу.
Можно сказать у меня все сезоны с разной озвучкой. Мне озвучка Байбако больше понравилась.
Snake_1965
Стаж: 11 лет 4 мес.
Сообщений: 294
Ratio: 8.484
78.26%
Откуда: Кемерово, Кузбасс
russia.gif
Нажал бы кнопочку "Спасибо" по разу за каждую серию, но, почему то она не высвечивается. Очевидно можно только единожды. Все равно - очень вам благодарен за релиз.

_________________
divandiv
Стаж: 10 лет 1 мес.
Сообщений: 44
Ratio: 20.119
99.11%
ussr.gif
...кто же...кто же КрасныйДжон...?
kkb_graph
Стаж: 11 лет 11 мес.
Сообщений: 55
Ratio: 9.28
0.62%
cidcr
Стаж: 10 лет 3 мес.
Сообщений: 164
Ratio: 2.778
Поблагодарили: 8
100%
Dimon1808
Cпасибо!
BadWolf
Стаж: 14 лет 3 мес.
Сообщений: 2
Ratio: 8.926
100%
honduras.gif
cidcr писал(а): Перейти к сообщению
ZeFoN34rus
Стаж: 12 лет 5 мес.
Сообщений: 1
Ratio: 8.082
0%
на nnm-club клуб как всегда все гуд)
ru44
Стаж: 12 лет 3 мес.
Сообщений: 1
Ratio: 13.739
50%
russia.gif
А не знаете, где можно на английском сразу качать сериал и сабы?
право12
Стаж: 10 лет
Сообщений: 162
Ratio: 11.738
0%
zhuk.m
Стаж: 13 лет 4 мес.
Сообщений: 692
Ratio: 96.987
Раздал: 25.43 TB
Поблагодарили: 3820
100%
право12 писал(а): Перейти к сообщению

_________________
Est modus in rebus
право12
Стаж: 10 лет
Сообщений: 162
Ratio: 11.738
0%
Я все понял.
Raven Fire_BI
Стаж: 15 лет 5 мес.
Сообщений: 52
Ratio: 3.098
100%
pirates.png
право12 писал(а): Перейти к сообщению
BadWolf
Стаж: 14 лет 3 мес.
Сообщений: 2
Ratio: 8.926
100%
honduras.gif
право12 писал(а): Перейти к сообщению
Показать сообщения:   
Начать новую тему   Ответить на тему    Торрент-трекер NNM-Club -> Зарубежные сериалы -> Менталист / The Mentalist ; Теория Лжи / Lie To Me Часовой пояс: GMT + 3
Страницы:  1, 2  След.
Страница 1 из 2