Классический форум-трекер
canvas not supported
Нас вместе: 4 210 707

Street Fighter II: The Animated Movie / Уличный боец II - Фильм [1994, MV] DVDRip raw+rusx2+eng


 
 
RSS
Начать новую тему   Ответить на тему    Торрент-трекер NNM-Club -> Аниме с озвучкой -> Аниме с озвучкой (SD)
Автор Сообщение
gdfhs6t6we ®
Стаж: 11 лет 7 мес.
Сообщений: 675
Ratio: 780.298
Поблагодарили: 12917
100%
albania.gif
ストリートファイターII MOVIE / Street Fighter II: The Animated Movie / Уличный боец II - Фильм

Жанр: Боевые искусства, приключения
Тип: Полнометражный фильм
Продолжительность: 100 мин.
Дата премьеры / период выхода: 06.08.1994

Режиссер: Сугии Гисабуро
Автор оригинала: Имай Кэнъити
Производство/студия:

Качество видео: DVDRip
Видео: AVC, 720x416, 29,970 кадра/сек, ~2199 кбит/с
Аудио #1: AC-3, 48 КГц, 2 ch, ~384 кбит/с Звук: Японский.
Аудио #2: AC-3, 48 КГц, 2 ch, ~384 кбит/с Звук: Русский(поверх японского), Любительский (одноголосый). Озвучка: SPAWN
Аудио #3: Vorbis, 48 КГц, 2 ch, ~112 кбит/с Звук: Английский.
Аудио #4: AC-3, 48 КГц, 2 ch, ~192 кбит/с Звук: Русский(поверх японского), Любительский (одноголосый). Озвучка: Визгунов
Тип субтитров: Русские в контейнере.
Код:

Общее
Уникальный идентификатор                 : 181783214715722020211659746328528656500 (0x88C22C7508B97EC9B74FF95637BD9874)
Полное имя                               : R:\torrent\Street Fighter\Street Fighter II The Movie.mkv
Формат                                   : Matroska
Версия формата                           : Version 1
Размер файла                             : 2,29 Гбайт
Продолжительность                        : 1 ч. 40 м.
Режим общего битрейта                    : Переменный
Общий поток                              : 3260 Кбит/сек
Дата кодирования                         : UTC 2009-06-28 16:49:39
Программа кодирования                    : mkvmerge v2.4.1 ('Use Me') built on Dec 11 2008 15:41:36
Библиотека кодирования                   : libebml v0.7.7 + libmatroska v0.8.1

Видео
Идентификатор                            : 1
Формат                                   : AVC
Формат/Информация                        : Advanced Video Codec
Профиль формата                          : High@L3.1
Параметр CABAC формата                   : Да
Параметр ReFrames формата                : 8 кадров
Идентификатор кодека                     : V_MPEG4/ISO/AVC
Продолжительность                        : 1 ч. 40 м.
Битрейт                                  : 2199 Кбит/сек
Ширина                                   : 720 пикселей
Высота                                   : 416 пикселей
Соотношение сторон                       : 4:3
Соотношение сторон в оригинале           : 1,731
Режим частоты кадров                     : Постоянный
Частота кадров                           : 29,970 кадров/сек
Цветовое пространство                    : YUV
Субдискретизация насыщенности            : 4:2:0
Битовая глубина                          : 8 бит
Тип развёртки                            : Прогрессивная
Бит/(Пиксели*Кадры)                      : 0.245
Размер потока                            : 1,49 Гбайт (65%)
Библиотека кодирования                   : x264 core 66 r1109M 75b495f
Настройки программы                      : cabac=1 / ref=8 / deblock=1:1:1 / analyse=0x3:0x133 / me=umh / subme=6 / psy_rd=1.0:0.0 / mixed_ref=1 / me_range=16 / chroma_me=1 / trellis=2 / 8x8dct=1 / cqm=0 / deadzone=21,11 / chroma_qp_offset=-2 / threads=6 / nr=0 / decimate=0 / mbaff=0 / bframes=16 / b_pyramid=1 / b_adapt=1 / b_bias=0 / direct=3 / wpredb=0 / keyint=250 / keyint_min=25 / scenecut=40(pre) / rc=2pass / bitrate=2199 / ratetol=1.0 / qcomp=0.60 / qpmin=10 / qpmax=51 / qpstep=4 / cplxblur=20.0 / qblur=0.5 / ip_ratio=1.40 / pb_ratio=1.30 / aq=1:1.00
Default                                  : Да
Forced                                   : Нет

Аудио #1
Идентификатор                            : 2
Формат                                   : AC-3
Формат/Информация                        : Audio Coding 3
Расширение режима                        : CM (complete main)
Параметр Endianness формата              : Big
Идентификатор кодека                     : A_AC3
Продолжительность                        : 1 ч. 40 м.
Вид битрейта                             : Постоянный
Битрейт                                  : 384 Кбит/сек
Каналы                                   : 2 канала
Расположение каналов                     : Front: L R
Частота                                  : 48,0 КГц
Битовая глубина                          : 16 бит
Метод сжатия                             : С потерями
Размер потока                            : 276 Мбайт (12%)
Заголовок                                : Японский
Язык                                     : Japanese
Default                                  : Да
Forced                                   : Нет

Аудио #2
Идентификатор                            : 3
Формат                                   : AC-3
Формат/Информация                        : Audio Coding 3
Расширение режима                        : CM (complete main)
Параметр Endianness формата              : Big
Идентификатор кодека                     : A_AC3
Продолжительность                        : 1 ч. 40 м.
Вид битрейта                             : Постоянный
Битрейт                                  : 384 Кбит/сек
Каналы                                   : 2 канала
Расположение каналов                     : Front: L R
Частота                                  : 48,0 КГц
Битовая глубина                          : 16 бит
Метод сжатия                             : С потерями
Размер потока                            : 276 Мбайт (12%)
Заголовок                                : Русский
Default                                  : Нет
Forced                                   : Нет

Аудио #3
Идентификатор                            : 5
Формат                                   : Vorbis
Параметр Floor формата                   : 1
Идентификатор кодека                     : A_VORBIS
Продолжительность                        : 1 ч. 40 м.
Вид битрейта                             : Переменный
Битрейт                                  : 112 Кбит/сек
Каналы                                   : 2 канала
Частота                                  : 48,0 КГц
Метод сжатия                             : С потерями
Размер потока                            : 80,6 Мбайт (3%)
Библиотека кодирования                   : libVorbis 1.0 (UTC 2002-07-17)
Язык                                     : English
Default                                  : Нет
Forced                                   : Нет

Аудио #4
Идентификатор                            : 6
Формат                                   : AC-3
Формат/Информация                        : Audio Coding 3
Расширение режима                        : CM (complete main)
Параметр Endianness формата              : Big
Идентификатор кодека                     : A_AC3
Продолжительность                        : 1 ч. 40 м.
Вид битрейта                             : Постоянный
Битрейт                                  : 192 Кбит/сек
Каналы                                   : 2 канала
Расположение каналов                     : Front: L R
Частота                                  : 48,0 КГц
Битовая глубина                          : 16 бит
Метод сжатия                             : С потерями
Размер потока                            : 138 Мбайт (6%)
Заголовок                                : Визгунов
Язык                                     : Russian
Default                                  : Нет
Forced                                   : Нет

Текст
Идентификатор                            : 4
Формат                                   : VobSub
Режим смешивания                         : zlib
Идентификатор кодека                     : S_VOBSUB
Идентификатор кодека/Информация          : The same subtitle format used on DVDs
Заголовок                                : Русские
Язык                                     : Russian
Default                                  : Да
Forced                                   : Нет

Описание:
Байсон, безжалостный лидер международной террористической организации, долгие годы находился в поиске достойного соперника — величайшего бойца на планете. В конце концов он нашёл его в лице японца Рю, но в то же время заимел врагов в лице американца Гайла и китаянки Чан Ли, объединившихся, чтобы положить конец террору Байсона.

Эта серия состоит из:
#1 Уличный боец II - Фильм - п/ф, адаптация игры, 1994
#2 Уличный боец II [ТВ] - ТВ (29 эп.), адаптация игры, 1995
#3 Уличный боец [ТВ] - ТВ (26 эп.), адаптация игры, 1995
#4 Уличный боец Альфа OVA-1 - OVA (2 эп.), адаптация игры, 1999
#5 Уличный боец Альфа OVA-2 - OVA (1 эп.), адаптация игры, 2005
#6 Уличный боец IV OVA-1 - OVA (1 эп.), адаптация игры, 2009
#7 Уличный боец IV OVA-2 - OVA (1 эп.), адаптация игры, 2010

Ссылки:
Ani-DB ::: World Art

Скриншоты:


Время раздачи: 24/7 до первых 3х скачавших
 Торрент: Платиновая раздача  Зарегистрирован
 
Скачать


Примагнититься
 Зарегистрирован:   13 Окт 2012 18:10:43
 Размер:   2.29 GB  (
 Рейтинг:   4.5 (Голосов: 37)
 Поблагодарили:   66
 Проверка:   Оформление проверено модератором 13 Окт 2012 18:34:20
Как cкачать  ·  Как раздать  ·  Правильно оформить  ·  Поднять ратио!  
ShinDaemon
Стаж: 12 лет
Сообщений: 34
Ratio: 14.695
100%
ussr.gif
Ща проверим. Я надеюсь, это та версия.
Upd: да, это та самая версия. Я даже скажу, что это лучшая версия из всех, что есть в сети!
Leofang
Стаж: 9 лет 10 мес.
Сообщений: 24
Ratio: 4.198
Поблагодарили: 72
45.45%
Нет, к сожалению. Странно..4 Дорожка...Визгунов озвучивал англоязычную версию...
Вот та лучшая.
madmankind
Стаж: 12 лет 1 мес.
Сообщений: 3
Ratio: 22.565
26.08%
Блин, у мнея на инглише идет жуткий рассинхрон аудио =\ Пичаль(
Leofang
Стаж: 9 лет 10 мес.
Сообщений: 24
Ratio: 4.198
Поблагодарили: 72
45.45%
Готовлю версию 1280*720 с Eng/Rus дорожками

Нужно умение обращаться с видео, побольше чем у меня....
Версий видео две 1ч41мин и 1ч35 мин. На короткую версию дорожек сколько хочешь и каких хочешь. А длинная у меня есть в качестве хорошем, но на неё дорожки кладутся с рассинхроном
ятуркенже​нсерхив​
Стаж: 12 лет 5 мес.
Сообщений: 37
Ratio: 12.394
13.94%
И правда ощутимый рассинхрон в "Визгуновской" дорожке. "Спавновская" без рассинхрона.
Показать сообщения:   
Начать новую тему   Ответить на тему    Торрент-трекер NNM-Club -> Аниме с озвучкой -> Аниме с озвучкой (SD) Часовой пояс: GMT + 3
Страница 1 из 1