Классический форум-трекер
canvas not supported
Нас вместе: 4 232 387

Предел риска / Margin Call (2011) BDRip [H.264/1080p]


 
 
RSS
Начать новую тему   Ответить на тему    Торрент-трекер NNM-Club -> Зарубежное кино -> Зарубежные Фильмы (HD, FHD)
Автор Сообщение
Луць ®
Стаж: 11 лет 4 мес.
Сообщений: 880
Ratio: 649.72
Раздал: 52.25 TB
Поблагодарили: 47551
100%
Откуда: г.Луцк
ukraine.gif
Предел риска / Margin Call (2011) BDRip [H.264/1080p]
Производство: США / Before The Door Pictures, Benaroya Pictures, Untitled Entertainment
Жанр: триллер, драма

Режиссер: Джей Си Чендор
Актеры: Кевин Спейси, Пол Беттани, Джереми Айронс, Закари Куинто, Пенн Бэджли, Саймон Бэйкер, Мэри МакДоннелл, Деми Мур, Стэнли Туччи, Аасиф Мандви

Описание:
Сентябрь 2008 года. Мировой экономический кризис уже начался, но Америка еще не знает, какая катастрофа ждет впереди, и только группа топ-менеджеров на Уолл-Стрит ищет рецепт спасения. Это были самые страшные часы в их жизни… Сотрудник одного из крупнейших инвестиционных банков Lehman Brothers с помощью новейшей программы рыночного анализа получает ошеломляющий прогноз — акции упадут, рынок рухнет, банк потеряет все. Утром следующего дня он попадает под сокращение и перед уходом передает флэшку с опасной информацией своему бывшему помощнику. К вечеру лучшие аналитики банка, проверив эти вычисления, осознали ужасную перспективу: крах неминуем. Теперь они стоят перед выбором: начать срочный сброс акций, что оставит и крупных акционеров во всем мире, и миллионы рядовых вкладчиков ни с чем — или ждать развития событий, что чревато потерей вообще всего. Решать нужно здесь и сейчас. На кону — огромные деньги и будущее каждого. В эту ночь у риска нет предела.


Возраст: 16+ (зрителям, достигшим 16 лет)
Рейтинг MPAA: R (лицам до 17 лет обязательно присутствие взрослого)

Продолжительность: 01:47:38
Качество видео: BDRip
Перевод: Дублированный
Субтитры: Русские, английские

Видео: AVC/H.264, 1920x1080p, ~11,2 Мbps
Аудио 1: DTS, 6 ch, 1536 Kbps, Русский (Дублированный)
Аудио 2: DTS, 6 ch, 1536 Kbps, Английский
Аудио 3: AAC, 2 ch, 66 Kbps, Английский
Общее
Уникальный идентификатор : 201957874261961619879727167741708523265 (0x97EFABF81BDCC1328E996B54CEE4D701)
Полное имя : D:\Blu-Ray\Тимчасові (Кинозал.ТВ)\Margin.Call.2011.BluRay.1080p.Rus.Eng.DTS.x264-CHD.mkv
Формат : Matroska
Версия формата : Version 2
Размер файла : 10,7 Гбайт
Продолжительность : 1 ч. 47 м.
Общий поток : 14,2 Мбит/сек
Название фильма : Специально для  
Дата кодирования : UTC 2011-12-15 16:10:01
Программа кодирования : mkvmerge v5.0.1 ('Es ist Sommer') built on Oct 9 2011 11:55:43
Библиотека кодирования : libebml v1.2.2 + libmatroska v1.3.0

Видео
Идентификатор : 1
Формат : AVC
Формат/Информация : Advanced Video Codec
Профиль формата : High@L4.1
Параметр CABAC формата : Да
Параметр ReFrames формата : 4 кадра
Идентификатор кодека : V_MPEG4/ISO/AVC
Продолжительность : 1 ч. 47 м.
Номинальный битрейт : 11,2 Мбит/сек
Ширина : 1920 пикселей
Высота : 1080 пикселей
Соотношение сторон : 16:9
Режим частоты кадров : Постоянный
Частота кадров : 23,976 кадра/сек
Цветовое пространство : YUV
Субдискретизация насыщенности : 4:2:0
Битовая глубина : 8 бит
Тип развёртки : Прогрессивная
Бит/(Пиксели*Кадры) : 0.225
Заголовок : Margin.Call.2011.BluRay.1080p.DTS.x264-CHD
Библиотека кодирования : x264 core 115 r2008 4c552d8
Настройки программы : cabac=1 / ref=4 / deblock=1:-3:-3 / analyse=0x3:0x113 / me=umh / subme=10 / psy=1 / psy_rd=1.10:0.15 / mixed_ref=1 / me_range=32 / chroma_me=1 / trellis=2 / 8x8dct=1 / cqm=2 / deadzone=21,11 / fast_pskip=0 / chroma_qp_offset=-2 / threads=12 / sliced_threads=0 / nr=0 / decimate=1 / interlaced=0 / bluray_compat=0 / constrained_intra=0 / bframes=6 / b_pyramid=2 / b_adapt=2 / b_bias=0 / direct=3 / weightb=1 / open_gop=0 / weightp=2 / keyint=250 / keyint_min=23 / scenecut=40 / intra_refresh=0 / rc_lookahead=60 / rc=2pass / mbtree=1 / bitrate=11186 / ratetol=1.0 / qcomp=0.60 / qpmin=1 / qpmax=63 / qpstep=4 / cplxblur=20.0 / qblur=0.5 / vbv_maxrate=40000 / vbv_bufsize=30000 / nal_hrd=none / ip_ratio=1.40 / aq=1:0.80
Язык : English
Default : Да
Forced : Да

Аудио #1
Идентификатор : 2
Формат : DTS
Формат/Информация : Digital Theater Systems
Режим : 16
Параметр Endianness формата : Big
Идентификатор кодека : A_DTS
Продолжительность : 1 ч. 47 м.
Вид битрейта : Постоянный
Битрейт : 1510 Кбит/сек
Каналы : 6 каналов
Расположение каналов : Front: L C R, Side: L R, LFE
Частота : 48,0 КГц
Битовая глубина : 16 бит
Метод сжатия : С потерями
Размер потока : 1,14 Гбайт (11%)
Заголовок : Дубляж, Blu-ray
Язык : Russian
Default : Да
Forced : Да

Аудио #2
Идентификатор : 3
Формат : DTS
Формат/Информация : Digital Theater Systems
Режим : 16
Параметр Endianness формата : Big
Идентификатор кодека : A_DTS
Продолжительность : 1 ч. 47 м.
Вид битрейта : Постоянный
Битрейт : 1509 Кбит/сек
Каналы : 6 каналов
Расположение каналов : Front: L C R, Side: L R, LFE
Частота : 48,0 КГц
Битовая глубина : 24 бит
Метод сжатия : С потерями
Размер потока : 1,13 Гбайт (11%)
Язык : English
Default : Нет
Forced : Нет

Аудио #3
Идентификатор : 4
Формат : AAC
Формат/Информация : Advanced Audio Codec
Профиль формата : HE-AAC / LC
Идентификатор кодека : A_AAC
Продолжительность : 1 ч. 47 м.
Каналы : 2 канала
Расположение каналов : Front: L R
Частота : 48,0 КГц / 24,0 КГц
Метод сжатия : С потерями
Заголовок : Commentary with writer/director J.C. Chandor and producer Neal Dodson
Язык : English
Default : Нет
Forced : Нет

Текст #1
Идентификатор : 5
Формат : UTF-8
Идентификатор кодека : S_TEXT/UTF8
Идентификатор кодека/Информация : UTF-8 Plain Text
Заголовок : Перевод voronine
Язык : Russian
Default : Да
Forced : Нет

Текст #2
Идентификатор : 6
Формат : UTF-8
Идентификатор кодека : S_TEXT/UTF8
Идентификатор кодека/Информация : UTF-8 Plain Text
Язык : English
Default : Нет
Forced : Нет
Скриншоты:


Все релизы "Предел риска" на NNM-Club
Время раздачи: с 10:00 до 00:30
[NNM-Club.ru]_Predel riska (2011) BDRip.torrent
 Торрент: Платиновая раздача  Зарегистрирован
 
Скачать


Примагнититься
 Зарегистрирован:   12 Ноя 2023 23:25:09
 Размер:   10.7 GB  (
 Рейтинг:   4.6 (Голосов: 107)
 Поблагодарили:   407
 Проверка:   Оформление проверено модератором 12 Ноя 2023 23:35:14
Как cкачать  ·  Как раздать  ·  Правильно оформить  ·  Поднять ратио!  
Луць ®
Стаж: 11 лет 4 мес.
Сообщений: 880
Ratio: 649.72
Раздал: 52.25 TB
Поблагодарили: 47551
100%
Откуда: г.Луцк
ukraine.gif
Всем прятного просмотра!
nogard22
Стаж: 13 лет 3 мес.
Сообщений: 6
Ratio: 3.33
17.23%
Несколько раз перечитал описание.... Как-то не понял в чем же суть фильма? Сплошная болтология и моральная дилемма у ГГ без каких-либо действий?
dx2003
 
Стаж: 14 лет 9 мес.
Сообщений: 20
Ratio: 62.347
100%
Отменный фильм!
Этот кин будет особенно интересен работникам банков, переживших 2008 и конечно же всем инвесторам

PS
Всегда следите за уровнем вашего ГО :)
STITCH
Стаж: 13 лет 3 мес.
Сообщений: 10
Ratio: 2.601
100%
russia.gif
я не работник банка !!! фильм отличный.
Vosik85
Стаж: 12 лет
Сообщений: 302
Ratio: 5.451
67.32%
ukraine.gif
Сюжет фильма слишком прост, игра актёров супер
katyairkutsk
Стаж: 9 лет 3 мес.
Сообщений: 193
Ratio: 1.989
100%
фильм, просто шедевр
Alone_Kedr
Куратор Сериалов
Зам. Куратора Видео, Модератор Талантов, Uploader 500+,
DJ Настроения
Стаж: 9 лет 10 мес.
Сообщений: 13355
Ratio: 10K
Поблагодарили: 545539
100%
Откуда: CCCP
ussr.gif
Торрент обновлен в рамках акции Включаем DHT в древних раздачах
Просьба к скачавшим ранее и желающим подключиться к раздаче, перекачать торрент-файл.
Показать сообщения:   
Начать новую тему   Ответить на тему    Торрент-трекер NNM-Club -> Зарубежное кино -> Зарубежные Фильмы (HD, FHD) Часовой пояс: GMT + 3
Страница 1 из 1