Классический форум-трекер
canvas not supported
Нас вместе: 4 210 998

Менталист / The Mentalist (2012-2013) WEB-DLRip (Сезон 5, серии 1-22 из 22) [Universal]


Страницы:  1, 2  След. 
 
RSS
Начать новую тему   Ответить на тему    Торрент-трекер NNM-Club -> Зарубежные сериалы -> Менталист / The Mentalist ; Теория Лжи / Lie To Me
Автор Сообщение
kill_01 ®
Стаж: 13 лет 2 мес.
Сообщений: 70
Ratio: 5.005
Поблагодарили: 737
100%
Откуда: Петропавловск
kazakhstan.gif
Менталист / The Mentalist (2012-2013) WEB-DLRip (Сезон 5, серии 1-22 из 22) [Universal]
Год выпуска: 2012
Жанр: Детектив

Перевод: Профессиональный многоголосый (Universal Russia)
Вид субтитров: Отсутствуют



Дата мировой премьеры: 23 сентября 2008
Дата российской премьеры: 12 апреля 2010

Режиссер: Рэндолл Зиск, Крис Лонг, Антон Кроппер
Актеры: Саймон Бейкер, Робин Танни, Тим Кенг, Овайн Йомэн, Аманда Риджетти, Онжаню Эллис, Грегори Итцин, Прюитт Тэйлор Винс, Майкл Гэстон, Эрик Винтер

Описание фильма:
Патрик Джейн — детектив и независимый консультант из Калифорнийского Бюро Расследований (КБР), он использует свои отточенные, как лезвие, навыки наблюдения для раскрытия тяжких преступлений. В самом Бюро Джейн известен за частые нарушения протокола, а также за его звездное прошлое: он работал медиумом, однако теперь сам признает, что симулировал паранормальные способности. Роль Джейна в раскрытии целой серии загадочных преступлений высоко ценится коллегами. Но суровый старший агент Тереза Лисбон против того, чтоб Джейн работал с ее отрядом, и то вынужденно признает его успехи, то критикует его за театральность, нарциссизм и отсутствие границ.

Продолжительность: ~00:43:00 серия
Качество видео: WEB-DLRip
Формат: AVI
Видеокодек: Xvid
Битрейт видео: ~1500 кбит/с, 25 fps, 0.207 bit/pixel
Размер кадра: 720х400
Аудиокодек: MP3
Битрейт аудио: 128kbps
Сэмпл обновлен! 01.06.2013
01. Кроваво-красная бусина / The Red Glass Bead
02. Вишня дьявола / Devil's Cherry
03. Ни одного кровавого цента / Not One Red Cent
04. Кровавая месть / Blood Feud
05. Алая заря / Red Dawn
06. Отборная вишня / Cherry Picked
07. Кровавое - сенсационнее / If It Bleeds, It Leads
08. Алые паруса на закате / Red Sails in the Sunset
09. Черная вишня / Black Cherry
10. Красная Панама / Panama Red
11. Дни вина и роз / Days of Wine and Roses
12. Маленький красный Корвет / Little Red Corvette
13. Красный амбар / The Red Barn
14. Кровавый естественный отбор / Red in Tooth and Claw
15. Красный лак для ногтей / Red Lacquer Nail Polish
16. Да будет кровь / There Will Be Blood
17. Красный, белый и синий / Red, White and Blue
18. За красным занавесом / Behind the Red Curtain
19. Красный день календаря / Red Letter Day

20. Красные бархатные кексы / Red Velvet Cupcakes
21. Красный и зудящий / Red and Itchy
22. Правила Кровавого Джона / Red John's Rules
General
Complete name : G:\Сериаль4ики\Mentalist.s05 (Universal Russia)\01. Кроваво-красная бусина (The Red Glass Bead).avi
Format : AVI
Format/Info : Audio Video Interleave
File size : 482 MiB
Duration : 41mn 25s
Overall bit rate : 1 628 Kbps
Writing application : TMPGEnc Video Mastering Works 5 Version. 5.0.6.38
Writing library : TMPGEnc Video Mastering Works 5 Version. 5.0.6.38

Video
ID : 0
Format : MPEG-4 Visual
Format profile : Advanced Simple@L5
Format settings, BVOP : 2
Format settings, QPel : No
Format settings, GMC : No warppoints
Format settings, Matrix : Default (H.263)
Muxing mode : Packed bitstream
Codec ID : XVID
Codec ID/Hint : XviD
Duration : 41mn 25s
Bit rate : 1 487 Kbps
Width : 720 pixels
Height : 400 pixels
Display aspect ratio : 16:9
Frame rate : 25.000 fps
Color space : YUV
Chroma subsampling : 4:2:0
Bit depth : 8 bits
Scan type : Progressive
Compression mode : Lossy
Bits/(Pixel*Frame) : 0.207
Stream size : 440 MiB (91%)
Writing library : XviD 64

Audio
ID : 1
Format : MPEG Audio
Format version : Version 1
Format profile : Layer 3
Mode : Joint stereo
Codec ID : 55
Codec ID/Hint : MP3
Duration : 41mn 25s
Bit rate mode : Constant
Bit rate : 128 Kbps
Channel(s) : 2 channels
Sampling rate : 48.0 KHz
Compression mode : Lossy
Stream size : 37.9 MiB (8%)
Alignment : Aligned on interleaves
Interleave, duration : 40 ms (1.00 video frame)
Interleave, preload duration : 384 ms
General
Complete name : G:\Сериаль4ики\Mentalist.s05 (Universal Russia)\02. Вишня дьявола (Devil's Cherry).avi
Format : AVI
Format/Info : Audio Video Interleave
File size : 557 MiB
Duration : 42mn 52s
Overall bit rate : 1 818 Kbps
Writing application : TMPGEnc Video Mastering Works 5 Version. 5.0.6.38
Writing library : TMPGEnc Video Mastering Works 5 Version. 5.0.6.38

Video
ID : 0
Format : MPEG-4 Visual
Format profile : Advanced Simple@L5
Format settings, BVOP : 2
Format settings, QPel : No
Format settings, GMC : No warppoints
Format settings, Matrix : Default (H.263)
Muxing mode : Packed bitstream
Codec ID : XVID
Codec ID/Hint : XviD
Duration : 42mn 52s
Bit rate : 1 485 Kbps
Width : 720 pixels
Height : 400 pixels
Display aspect ratio : 16:9
Frame rate : 23.976 fps
Color space : YUV
Chroma subsampling : 4:2:0
Bit depth : 8 bits
Scan type : Progressive
Compression mode : Lossy
Bits/(Pixel*Frame) : 0.215
Stream size : 456 MiB (82%)
Writing library : XviD 64

Audio
ID : 1
Format : MPEG Audio
Format version : Version 1
Format profile : Layer 3
Codec ID : 55
Codec ID/Hint : MP3
Duration : 42mn 52s
Bit rate mode : Constant
Bit rate : 320 Kbps
Channel(s) : 2 channels
Sampling rate : 48.0 KHz
Compression mode : Lossy
Stream size : 98.1 MiB (18%)
Alignment : Aligned on interleaves
Interleave, duration : 42 ms (1.00 video frame)
Interleave, preload duration : 432 ms
General
Complete name : G:\Сериаль4ики\Mentalist.s05 (Universal Russia)\03. Ни одного кровавого цента (Not One Red Cent).avi
Format : AVI
Format/Info : Audio Video Interleave
File size : 500 MiB
Duration : 42mn 57s
Overall bit rate : 1 627 Kbps
Writing application : TMPGEnc Video Mastering Works 5 Version. 5.0.6.38
Writing library : TMPGEnc Video Mastering Works 5 Version. 5.0.6.38

Video
ID : 0
Format : MPEG-4 Visual
Format profile : Advanced Simple@L5
Format settings, BVOP : 2
Format settings, QPel : No
Format settings, GMC : No warppoints
Format settings, Matrix : Default (H.263)
Muxing mode : Packed bitstream
Codec ID : XVID
Codec ID/Hint : XviD
Duration : 42mn 57s
Bit rate : 1 486 Kbps
Width : 720 pixels
Height : 400 pixels
Display aspect ratio : 16:9
Frame rate : 25.000 fps
Color space : YUV
Chroma subsampling : 4:2:0
Bit depth : 8 bits
Scan type : Progressive
Compression mode : Lossy
Bits/(Pixel*Frame) : 0.206
Stream size : 457 MiB (91%)
Writing library : XviD 64

Audio
ID : 1
Format : MPEG Audio
Format version : Version 1
Format profile : Layer 3
Mode : Joint stereo
Mode extension : MS Stereo
Codec ID : 55
Codec ID/Hint : MP3
Duration : 42mn 57s
Bit rate mode : Constant
Bit rate : 128 Kbps
Channel(s) : 2 channels
Sampling rate : 48.0 KHz
Compression mode : Lossy
Stream size : 39.3 MiB (8%)
Alignment : Aligned on interleaves
Interleave, duration : 40 ms (1.01 video frame)
Interleave, preload duration : 384 ms
General
Complete name : G:\Сериаль4ики\Mentalist.s05 (Universal Russia)\04. Кровавая месть (Blood Feud).avi
Format : AVI
Format/Info : Audio Video Interleave
File size : 484 MiB
Duration : 41mn 36s
Overall bit rate : 1 627 Kbps
Writing application : TMPGEnc Video Mastering Works 5 Version. 5.0.6.38
Writing library : TMPGEnc Video Mastering Works 5 Version. 5.0.6.38

Video
ID : 0
Format : MPEG-4 Visual
Format profile : Advanced Simple@L5
Format settings, BVOP : 2
Format settings, QPel : No
Format settings, GMC : No warppoints
Format settings, Matrix : Default (H.263)
Muxing mode : Packed bitstream
Codec ID : XVID
Codec ID/Hint : XviD
Duration : 41mn 36s
Bit rate : 1 486 Kbps
Width : 720 pixels
Height : 400 pixels
Display aspect ratio : 16:9
Frame rate : 25.000 fps
Color space : YUV
Chroma subsampling : 4:2:0
Bit depth : 8 bits
Scan type : Progressive
Compression mode : Lossy
Bits/(Pixel*Frame) : 0.206
Stream size : 442 MiB (91%)
Writing library : XviD 64

Audio
ID : 1
Format : MPEG Audio
Format version : Version 1
Format profile : Layer 3
Mode : Joint stereo
Mode extension : MS Stereo
Codec ID : 55
Codec ID/Hint : MP3
Duration : 41mn 36s
Bit rate mode : Constant
Bit rate : 128 Kbps
Channel(s) : 2 channels
Sampling rate : 48.0 KHz
Compression mode : Lossy
Stream size : 38.1 MiB (8%)
Alignment : Aligned on interleaves
Interleave, duration : 40 ms (1.01 video frame)
Interleave, preload duration : 384 ms
General
Complete name : G:\Сериаль4ики\Mentalist.s05 (Universal Russia)\05. Алая заря (Red Dawn).avi
Format : AVI
Format/Info : Audio Video Interleave
File size : 503 MiB
Duration : 43mn 13s
Overall bit rate : 1 627 Kbps
Writing application : TMPGEnc Video Mastering Works 5 Version. 5.0.6.38
Writing library : TMPGEnc Video Mastering Works 5 Version. 5.0.6.38

Video
ID : 0
Format : MPEG-4 Visual
Format profile : Advanced Simple@L5
Format settings, BVOP : 2
Format settings, QPel : No
Format settings, GMC : No warppoints
Format settings, Matrix : Default (H.263)
Muxing mode : Packed bitstream
Codec ID : XVID
Codec ID/Hint : XviD
Duration : 43mn 13s
Bit rate : 1 486 Kbps
Width : 720 pixels
Height : 400 pixels
Display aspect ratio : 16:9
Frame rate : 25.000 fps
Color space : YUV
Chroma subsampling : 4:2:0
Bit depth : 8 bits
Scan type : Progressive
Compression mode : Lossy
Bits/(Pixel*Frame) : 0.206
Stream size : 459 MiB (91%)
Writing library : XviD 64

Audio
ID : 1
Format : MPEG Audio
Format version : Version 1
Format profile : Layer 3
Mode : Joint stereo
Mode extension : MS Stereo
Codec ID : 55
Codec ID/Hint : MP3
Duration : 43mn 13s
Bit rate mode : Constant
Bit rate : 128 Kbps
Channel(s) : 2 channels
Sampling rate : 48.0 KHz
Compression mode : Lossy
Stream size : 39.6 MiB (8%)
Alignment : Aligned on interleaves
Interleave, duration : 40 ms (1.01 video frame)
Interleave, preload duration : 384 ms
General
Complete name : G:\Сериаль4ики\Mentalist.s05 (Universal Russia)\06. Отборная вишня (Cherry Picked).avi
Format : AVI
Format/Info : Audio Video Interleave
File size : 476 MiB
Duration : 40mn 54s
Overall bit rate : 1 627 Kbps
Writing application : TMPGEnc Video Mastering Works 5 Version. 5.0.6.38
Writing library : TMPGEnc Video Mastering Works 5 Version. 5.0.6.38

Video
ID : 0
Format : MPEG-4 Visual
Format profile : Advanced Simple@L5
Format settings, BVOP : 2
Format settings, QPel : No
Format settings, GMC : No warppoints
Format settings, Matrix : Default (H.263)
Muxing mode : Packed bitstream
Codec ID : XVID
Codec ID/Hint : XviD
Duration : 40mn 54s
Bit rate : 1 486 Kbps
Width : 720 pixels
Height : 400 pixels
Display aspect ratio : 16:9
Frame rate : 25.000 fps
Color space : YUV
Chroma subsampling : 4:2:0
Bit depth : 8 bits
Scan type : Progressive
Compression mode : Lossy
Bits/(Pixel*Frame) : 0.206
Stream size : 435 MiB (91%)
Writing library : XviD 64

Audio
ID : 1
Format : MPEG Audio
Format version : Version 1
Format profile : Layer 3
Mode : Joint stereo
Mode extension : MS Stereo
Codec ID : 55
Codec ID/Hint : MP3
Duration : 40mn 54s
Bit rate mode : Constant
Bit rate : 128 Kbps
Channel(s) : 2 channels
Sampling rate : 48.0 KHz
Compression mode : Lossy
Stream size : 37.5 MiB (8%)
Alignment : Aligned on interleaves
Interleave, duration : 40 ms (1.01 video frame)
Interleave, preload duration : 384 ms
General
Complete name : G:\Сериаль4ики\Mentalist.s05 (Universal Russia)\07. Кровавое - сенсационнее (If It Bleeds, It Leads).avi
Format : AVI
Format/Info : Audio Video Interleave
File size : 485 MiB
Duration : 41mn 44s
Overall bit rate : 1 626 Kbps
Writing application : TMPGEnc Video Mastering Works 5 Version. 5.0.6.38
Writing library : TMPGEnc Video Mastering Works 5 Version. 5.0.6.38

Video
ID : 0
Format : MPEG-4 Visual
Format profile : Advanced Simple@L5
Format settings, BVOP : 2
Format settings, QPel : No
Format settings, GMC : No warppoints
Format settings, Matrix : Default (H.263)
Muxing mode : Packed bitstream
Codec ID : XVID
Codec ID/Hint : XviD
Duration : 41mn 44s
Bit rate : 1 485 Kbps
Width : 720 pixels
Height : 400 pixels
Display aspect ratio : 16:9
Frame rate : 25.000 fps
Color space : YUV
Chroma subsampling : 4:2:0
Bit depth : 8 bits
Scan type : Progressive
Compression mode : Lossy
Bits/(Pixel*Frame) : 0.206
Stream size : 443 MiB (91%)
Writing library : XviD 64

Audio
ID : 1
Format : MPEG Audio
Format version : Version 1
Format profile : Layer 3
Mode : Joint stereo
Mode extension : MS Stereo
Codec ID : 55
Codec ID/Hint : MP3
Duration : 41mn 44s
Bit rate mode : Constant
Bit rate : 128 Kbps
Channel(s) : 2 channels
Sampling rate : 48.0 KHz
Compression mode : Lossy
Stream size : 38.2 MiB (8%)
Alignment : Aligned on interleaves
Interleave, duration : 40 ms (1.01 video frame)
Interleave, preload duration : 384 ms
General
Complete name : G:\Сериаль4ики\Mentalist.s05 (Universal Russia)\08. Алые паруса на закате (Red Sails in the Sunset).avi
Format : AVI
Format/Info : Audio Video Interleave
File size : 503 MiB
Duration : 43mn 14s
Overall bit rate : 1 626 Kbps
Writing application : TMPGEnc Video Mastering Works 5 Version. 5.0.6.38
Writing library : TMPGEnc Video Mastering Works 5 Version. 5.0.6.38

Video
ID : 0
Format : MPEG-4 Visual
Format profile : Advanced Simple@L5
Format settings, BVOP : 2
Format settings, QPel : No
Format settings, GMC : No warppoints
Format settings, Matrix : Default (H.263)
Muxing mode : Packed bitstream
Codec ID : XVID
Codec ID/Hint : XviD
Duration : 43mn 14s
Bit rate : 1 485 Kbps
Width : 720 pixels
Height : 400 pixels
Display aspect ratio : 16:9
Frame rate : 25.000 fps
Color space : YUV
Chroma subsampling : 4:2:0
Bit depth : 8 bits
Scan type : Progressive
Compression mode : Lossy
Bits/(Pixel*Frame) : 0.206
Stream size : 460 MiB (91%)
Writing library : XviD 64

Audio
ID : 1
Format : MPEG Audio
Format version : Version 1
Format profile : Layer 3
Mode : Joint stereo
Mode extension : MS Stereo
Codec ID : 55
Codec ID/Hint : MP3
Duration : 43mn 14s
Bit rate mode : Constant
Bit rate : 128 Kbps
Channel(s) : 2 channels
Sampling rate : 48.0 KHz
Compression mode : Lossy
Stream size : 39.6 MiB (8%)
Alignment : Aligned on interleaves
Interleave, duration : 40 ms (1.00 video frame)
Interleave, preload duration : 384 ms
General
Complete name : G:\Сериаль4ики\Mentalist.s05 (Universal Russia)\09. Черная вишня (Black Cherry).avi
Format : AVI
Format/Info : Audio Video Interleave
File size : 501 MiB
Duration : 43mn 2s
Overall bit rate : 1 627 Kbps
Writing application : TMPGEnc Video Mastering Works 5 Version. 5.0.6.38
Writing library : TMPGEnc Video Mastering Works 5 Version. 5.0.6.38

Video
ID : 0
Format : MPEG-4 Visual
Format profile : Advanced Simple@L5
Format settings, BVOP : 2
Format settings, QPel : No
Format settings, GMC : No warppoints
Format settings, Matrix : Default (H.263)
Muxing mode : Packed bitstream
Codec ID : XVID
Codec ID/Hint : XviD
Duration : 43mn 2s
Bit rate : 1 486 Kbps
Width : 720 pixels
Height : 400 pixels
Display aspect ratio : 16:9
Frame rate : 25.000 fps
Color space : YUV
Chroma subsampling : 4:2:0
Bit depth : 8 bits
Scan type : Progressive
Compression mode : Lossy
Bits/(Pixel*Frame) : 0.206
Stream size : 457 MiB (91%)
Writing library : XviD 64

Audio
ID : 1
Format : MPEG Audio
Format version : Version 1
Format profile : Layer 3
Mode : Joint stereo
Codec ID : 55
Codec ID/Hint : MP3
Duration : 43mn 2s
Bit rate mode : Constant
Bit rate : 128 Kbps
Channel(s) : 2 channels
Sampling rate : 48.0 KHz
Compression mode : Lossy
Stream size : 39.4 MiB (8%)
Alignment : Aligned on interleaves
Interleave, duration : 40 ms (1.01 video frame)
Interleave, preload duration : 384 ms
General
Complete name : G:\Сериаль4ики\Mentalist.s05 (Universal Russia)\10. Красная Панама (Panama Red).avi
Format : AVI
Format/Info : Audio Video Interleave
File size : 501 MiB
Duration : 43mn 4s
Overall bit rate : 1 627 Kbps
Writing application : TMPGEnc Video Mastering Works 5 Version. 5.0.6.38
Writing library : TMPGEnc Video Mastering Works 5 Version. 5.0.6.38

Video
ID : 0
Format : MPEG-4 Visual
Format profile : Advanced Simple@L5
Format settings, BVOP : 2
Format settings, QPel : No
Format settings, GMC : No warppoints
Format settings, Matrix : Default (H.263)
Muxing mode : Packed bitstream
Codec ID : XVID
Codec ID/Hint : XviD
Duration : 43mn 4s
Bit rate : 1 486 Kbps
Width : 720 pixels
Height : 400 pixels
Display aspect ratio : 16:9
Frame rate : 25.000 fps
Color space : YUV
Chroma subsampling : 4:2:0
Bit depth : 8 bits
Scan type : Progressive
Compression mode : Lossy
Bits/(Pixel*Frame) : 0.206
Stream size : 458 MiB (91%)
Writing library : XviD 64

Audio
ID : 1
Format : MPEG Audio
Format version : Version 1
Format profile : Layer 3
Mode : Joint stereo
Mode extension : MS Stereo
Codec ID : 55
Codec ID/Hint : MP3
Duration : 43mn 4s
Bit rate mode : Constant
Bit rate : 128 Kbps
Channel(s) : 2 channels
Sampling rate : 48.0 KHz
Compression mode : Lossy
Stream size : 39.4 MiB (8%)
Alignment : Aligned on interleaves
Interleave, duration : 40 ms (1.01 video frame)
Interleave, preload duration : 384 ms
General
Complete name : G:\Сериаль4ики\Mentalist.s05 (Universal Russia)\Created by DeathN2 for Кинозал.ТВ.avi
Format : AVI
Format/Info : Audio Video Interleave
File size : 495 MiB
Duration : 42mn 31s
Overall bit rate : 1 627 Kbps
Writing application : TMPGEnc Video Mastering Works 5 Version. 5.0.6.38
Writing library : TMPGEnc Video Mastering Works 5 Version. 5.0.6.38

Video
ID : 0
Format : MPEG-4 Visual
Format profile : Advanced Simple@L5
Format settings, BVOP : 2
Format settings, QPel : No
Format settings, GMC : No warppoints
Format settings, Matrix : Default (H.263)
Muxing mode : Packed bitstream
Codec ID : XVID
Codec ID/Hint : XviD
Duration : 42mn 31s
Bit rate : 1 487 Kbps
Width : 720 pixels
Height : 400 pixels
Display aspect ratio : 16:9
Frame rate : 25.000 fps
Color space : YUV
Chroma subsampling : 4:2:0
Bit depth : 8 bits
Scan type : Progressive
Compression mode : Lossy
Bits/(Pixel*Frame) : 0.206
Stream size : 452 MiB (91%)
Writing library : XviD 64

Audio
ID : 1
Format : MPEG Audio
Format version : Version 1
Format profile : Layer 3
Mode : Joint stereo
Codec ID : 55
Codec ID/Hint : MP3
Duration : 42mn 31s
Bit rate mode : Constant
Bit rate : 128 Kbps
Channel(s) : 2 channels
Sampling rate : 48.0 KHz
Compression mode : Lossy
Stream size : 38.9 MiB (8%)
Alignment : Aligned on interleaves
Interleave, duration : 40 ms (1.01 video frame)
Interleave, preload duration : 384 ms
General
Complete name : G:\Сериаль4ики\Mentalist.s05 (Universal Russia)\12. Маленький красный Корвет (Little Red Corvette).avi
Format : AVI
Format/Info : Audio Video Interleave
File size : 486 MiB
Duration : 41mn 47s
Overall bit rate : 1 627 Kbps
Writing application : TMPGEnc Video Mastering Works 5 Version. 5.0.6.38
Writing library : TMPGEnc Video Mastering Works 5 Version. 5.0.6.38

Video
ID : 0
Format : MPEG-4 Visual
Format profile : Advanced Simple@L5
Format settings, BVOP : 2
Format settings, QPel : No
Format settings, GMC : No warppoints
Format settings, Matrix : Default (H.263)
Muxing mode : Packed bitstream
Codec ID : XVID
Codec ID/Hint : XviD
Duration : 41mn 47s
Bit rate : 1 486 Kbps
Width : 720 pixels
Height : 400 pixels
Display aspect ratio : 16:9
Frame rate : 25.000 fps
Color space : YUV
Chroma subsampling : 4:2:0
Bit depth : 8 bits
Scan type : Progressive
Compression mode : Lossy
Bits/(Pixel*Frame) : 0.206
Stream size : 444 MiB (91%)
Writing library : XviD 64

Audio
ID : 1
Format : MPEG Audio
Format version : Version 1
Format profile : Layer 3
Mode : Joint stereo
Mode extension : MS Stereo
Codec ID : 55
Codec ID/Hint : MP3
Duration : 41mn 47s
Bit rate mode : Constant
Bit rate : 128 Kbps
Channel(s) : 2 channels
Sampling rate : 48.0 KHz
Compression mode : Lossy
Stream size : 38.3 MiB (8%)
Alignment : Aligned on interleaves
Interleave, duration : 40 ms (1.00 video frame)
Interleave, preload duration : 384 ms
General
Complete name : G:\Сериаль4ики\Mentalist.s05 (Universal Russia)\13. Красный амбар (The Red Barn).avi
Format : AVI
Format/Info : Audio Video Interleave
File size : 495 MiB
Duration : 42mn 33s
Overall bit rate : 1 627 Kbps
Writing application : TMPGEnc Video Mastering Works 5 Version. 5.0.6.38
Writing library : TMPGEnc Video Mastering Works 5 Version. 5.0.6.38

Video
ID : 0
Format : MPEG-4 Visual
Format profile : Advanced Simple@L5
Format settings, BVOP : 2
Format settings, QPel : No
Format settings, GMC : No warppoints
Format settings, Matrix : Default (H.263)
Muxing mode : Packed bitstream
Codec ID : XVID
Codec ID/Hint : XviD
Duration : 42mn 33s
Bit rate : 1 486 Kbps
Width : 720 pixels
Height : 400 pixels
Display aspect ratio : 16:9
Frame rate : 25.000 fps
Color space : YUV
Chroma subsampling : 4:2:0
Bit depth : 8 bits
Scan type : Progressive
Compression mode : Lossy
Bits/(Pixel*Frame) : 0.206
Stream size : 452 MiB (91%)
Writing library : XviD 64

Audio
ID : 1
Format : MPEG Audio
Format version : Version 1
Format profile : Layer 3
Mode : Joint stereo
Mode extension : MS Stereo
Codec ID : 55
Codec ID/Hint : MP3
Duration : 42mn 33s
Bit rate mode : Constant
Bit rate : 128 Kbps
Channel(s) : 2 channels
Sampling rate : 48.0 KHz
Compression mode : Lossy
Stream size : 39.0 MiB (8%)
Alignment : Aligned on interleaves
Interleave, duration : 40 ms (1.00 video frame)
Interleave, preload duration : 384 ms
General
Complete name : G:\Сериаль4ики\Mentalist.s05 (Universal Russia)\14. Кровавый естественный отбор (Red in Tooth and Claw).avi
Format : AVI
Format/Info : Audio Video Interleave
File size : 469 MiB
Duration : 40mn 19s
Overall bit rate : 1 626 Kbps
Writing application : TMPGEnc Video Mastering Works 5 Version. 5.0.6.38
Writing library : TMPGEnc Video Mastering Works 5 Version. 5.0.6.38

Video
ID : 0
Format : MPEG-4 Visual
Format profile : Advanced Simple@L5
Format settings, BVOP : 2
Format settings, QPel : No
Format settings, GMC : No warppoints
Format settings, Matrix : Default (H.263)
Muxing mode : Packed bitstream
Codec ID : XVID
Codec ID/Hint : XviD
Duration : 40mn 19s
Bit rate : 1 485 Kbps
Width : 720 pixels
Height : 400 pixels
Display aspect ratio : 16:9
Frame rate : 25.000 fps
Color space : YUV
Chroma subsampling : 4:2:0
Bit depth : 8 bits
Scan type : Progressive
Compression mode : Lossy
Bits/(Pixel*Frame) : 0.206
Stream size : 428 MiB (91%)
Writing library : XviD 64

Audio
ID : 1
Format : MPEG Audio
Format version : Version 1
Format profile : Layer 3
Mode : Joint stereo
Mode extension : MS Stereo
Codec ID : 55
Codec ID/Hint : MP3
Duration : 40mn 19s
Bit rate mode : Constant
Bit rate : 128 Kbps
Channel(s) : 2 channels
Sampling rate : 48.0 KHz
Compression mode : Lossy
Stream size : 36.9 MiB (8%)
Alignment : Aligned on interleaves
Interleave, duration : 40 ms (1.00 video frame)
Interleave, preload duration : 384 ms
General
Complete name : G:\Сериаль4ики\Mentalist.s05 (Universal Russia)\15. Красный лак для ногтей (Red Lacquer Nail Polish).avi
Format : AVI
Format/Info : Audio Video Interleave
File size : 487 MiB
Duration : 41mn 53s
Overall bit rate : 1 625 Kbps
Writing application : TMPGEnc Video Mastering Works 5 Version. 5.0.6.38
Writing library : TMPGEnc Video Mastering Works 5 Version. 5.0.6.38

Video
ID : 0
Format : MPEG-4 Visual
Format profile : Advanced Simple@L5
Format settings, BVOP : 2
Format settings, QPel : No
Format settings, GMC : No warppoints
Format settings, Matrix : Default (H.263)
Muxing mode : Packed bitstream
Codec ID : XVID
Codec ID/Hint : XviD
Duration : 41mn 53s
Bit rate : 1 484 Kbps
Width : 720 pixels
Height : 400 pixels
Display aspect ratio : 16:9
Frame rate : 25.000 fps
Color space : YUV
Chroma subsampling : 4:2:0
Bit depth : 8 bits
Scan type : Progressive
Compression mode : Lossy
Bits/(Pixel*Frame) : 0.206
Stream size : 445 MiB (91%)
Writing library : XviD 64

Audio
ID : 1
Format : MPEG Audio
Format version : Version 1
Format profile : Layer 3
Mode : Joint stereo
Mode extension : MS Stereo
Codec ID : 55
Codec ID/Hint : MP3
Duration : 41mn 53s
Bit rate mode : Constant
Bit rate : 128 Kbps
Channel(s) : 2 channels
Sampling rate : 48.0 KHz
Compression mode : Lossy
Stream size : 38.3 MiB (8%)
Alignment : Aligned on interleaves
Interleave, duration : 40 ms (1.00 video frame)
Interleave, preload duration : 384 ms
General
Complete name : G:\Сериаль4ики\Mentalist.s05 (Universal Russia)\16. Да будет кровь (There Will Be Blood).avi
Format : AVI
Format/Info : Audio Video Interleave
File size : 501 MiB
Duration : 43mn 3s
Overall bit rate : 1 627 Kbps
Writing application : TMPGEnc Video Mastering Works 5 Version. 5.0.6.38
Writing library : TMPGEnc Video Mastering Works 5 Version. 5.0.6.38

Video
ID : 0
Format : MPEG-4 Visual
Format profile : Advanced Simple@L5
Format settings, BVOP : 2
Format settings, QPel : No
Format settings, GMC : No warppoints
Format settings, Matrix : Default (H.263)
Muxing mode : Packed bitstream
Codec ID : XVID
Codec ID/Hint : XviD
Duration : 43mn 3s
Bit rate : 1 486 Kbps
Width : 720 pixels
Height : 400 pixels
Display aspect ratio : 16:9
Frame rate : 25.000 fps
Color space : YUV
Chroma subsampling : 4:2:0
Bit depth : 8 bits
Scan type : Progressive
Compression mode : Lossy
Bits/(Pixel*Frame) : 0.206
Stream size : 458 MiB (91%)
Writing library : XviD 64

Audio
ID : 1
Format : MPEG Audio
Format version : Version 1
Format profile : Layer 3
Mode : Joint stereo
Codec ID : 55
Codec ID/Hint : MP3
Duration : 43mn 3s
Bit rate mode : Constant
Bit rate : 128 Kbps
Channel(s) : 2 channels
Sampling rate : 48.0 KHz
Compression mode : Lossy
Stream size : 39.4 MiB (8%)
Alignment : Aligned on interleaves
Interleave, duration : 40 ms (1.00 video frame)
Interleave, preload duration : 384 ms
General
Complete name : G:\Сериаль4ики\Mentalist.s05 (Universal Russia)\17. Красный, белый и синий (Red, White and Blue).avi
Format : AVI
Format/Info : Audio Video Interleave
File size : 503 MiB
Duration : 43mn 14s
Overall bit rate : 1 628 Kbps
Writing application : TMPGEnc Video Mastering Works 5 Version. 5.0.6.38
Writing library : TMPGEnc Video Mastering Works 5 Version. 5.0.6.38

Video
ID : 0
Format : MPEG-4 Visual
Format profile : Advanced Simple@L5
Format settings, BVOP : 2
Format settings, QPel : No
Format settings, GMC : No warppoints
Format settings, Matrix : Default (H.263)
Muxing mode : Packed bitstream
Codec ID : XVID
Codec ID/Hint : XviD
Duration : 43mn 14s
Bit rate : 1 487 Kbps
Width : 720 pixels
Height : 400 pixels
Display aspect ratio : 16:9
Frame rate : 25.000 fps
Color space : YUV
Chroma subsampling : 4:2:0
Bit depth : 8 bits
Scan type : Progressive
Compression mode : Lossy
Bits/(Pixel*Frame) : 0.207
Stream size : 460 MiB (91%)
Writing library : XviD 64

Audio
ID : 1
Format : MPEG Audio
Format version : Version 1
Format profile : Layer 3
Mode : Joint stereo
Mode extension : MS Stereo
Codec ID : 55
Codec ID/Hint : MP3
Duration : 43mn 14s
Bit rate mode : Constant
Bit rate : 128 Kbps
Channel(s) : 2 channels
Sampling rate : 48.0 KHz
Compression mode : Lossy
Stream size : 39.6 MiB (8%)
Alignment : Aligned on interleaves
Interleave, duration : 40 ms (1.00 video frame)
Interleave, preload duration : 384 ms
General
Complete name : G:\Сериаль4ики\Mentalist.s05 (Universal Russia)\18. За красным занавесом (Behind the Red Curtain).avi
Format : AVI
Format/Info : Audio Video Interleave
File size : 498 MiB
Duration : 42mn 46s
Overall bit rate : 1 627 Kbps
Writing application : TMPGEnc Video Mastering Works 5 Version. 5.0.6.38
Writing library : TMPGEnc Video Mastering Works 5 Version. 5.0.6.38

Video
ID : 0
Format : MPEG-4 Visual
Format profile : Advanced Simple@L5
Format settings, BVOP : 2
Format settings, QPel : No
Format settings, GMC : No warppoints
Format settings, Matrix : Default (H.263)
Muxing mode : Packed bitstream
Codec ID : XVID
Codec ID/Hint : XviD
Duration : 42mn 46s
Bit rate : 1 486 Kbps
Width : 720 pixels
Height : 400 pixels
Display aspect ratio : 16:9
Frame rate : 25.000 fps
Color space : YUV
Chroma subsampling : 4:2:0
Bit depth : 8 bits
Scan type : Progressive
Compression mode : Lossy
Bits/(Pixel*Frame) : 0.206
Stream size : 455 MiB (91%)
Writing library : XviD 64

Audio
ID : 1
Format : MPEG Audio
Format version : Version 1
Format profile : Layer 3
Mode : Joint stereo
Mode extension : MS Stereo
Codec ID : 55
Codec ID/Hint : MP3
Duration : 42mn 46s
Bit rate mode : Constant
Bit rate : 128 Kbps
Channel(s) : 2 channels
Sampling rate : 48.0 KHz
Compression mode : Lossy
Stream size : 39.2 MiB (8%)
Alignment : Aligned on interleaves
Interleave, duration : 40 ms (1.00 video frame)
Interleave, preload duration : 384 ms
General
Complete name : G:\Сериаль4ики\Mentalist.s05 (Universal Russia)\19. Красный день календаря (Red Letter Day).avi
Format : AVI
Format/Info : Audio Video Interleave
File size : 496 MiB
Duration : 42mn 39s
Overall bit rate : 1 626 Kbps
Writing application : TMPGEnc Video Mastering Works 5 Version. 5.0.6.38
Writing library : TMPGEnc Video Mastering Works 5 Version. 5.0.6.38

Video
ID : 0
Format : MPEG-4 Visual
Format profile : Advanced Simple@L5
Format settings, BVOP : 2
Format settings, QPel : No
Format settings, GMC : No warppoints
Format settings, Matrix : Default (H.263)
Muxing mode : Packed bitstream
Codec ID : XVID
Codec ID/Hint : XviD
Duration : 42mn 39s
Bit rate : 1 486 Kbps
Width : 720 pixels
Height : 400 pixels
Display aspect ratio : 16:9
Frame rate : 25.000 fps
Color space : YUV
Chroma subsampling : 4:2:0
Bit depth : 8 bits
Scan type : Progressive
Compression mode : Lossy
Bits/(Pixel*Frame) : 0.206
Stream size : 453 MiB (91%)
Writing library : XviD 64

Audio
ID : 1
Format : MPEG Audio
Format version : Version 1
Format profile : Layer 3
Mode : Joint stereo
Codec ID : 55
Codec ID/Hint : MP3
Duration : 42mn 39s
Bit rate mode : Constant
Bit rate : 128 Kbps
Channel(s) : 2 channels
Sampling rate : 48.0 KHz
Compression mode : Lossy
Stream size : 39.0 MiB (8%)
Alignment : Aligned on interleaves
Interleave, duration : 40 ms (1.00 video frame)
Interleave, preload duration : 384 ms
General
Complete name : G:\Сериаль4ики\Mentalist.s05 (Universal Russia)\20. Красные бархатные кексы (Red Velvet Cupcakes).avi
Format : AVI
Format/Info : Audio Video Interleave
File size : 502 MiB
Duration : 43mn 8s
Overall bit rate : 1 627 Kbps
Writing application : TMPGEnc Video Mastering Works 5 Version. 5.0.6.38
Writing library : TMPGEnc Video Mastering Works 5 Version. 5.0.6.38

Video
ID : 0
Format : MPEG-4 Visual
Format profile : Advanced Simple@L5
Format settings, BVOP : 2
Format settings, QPel : No
Format settings, GMC : No warppoints
Format settings, Matrix : Default (H.263)
Muxing mode : Packed bitstream
Codec ID : XVID
Codec ID/Hint : XviD
Duration : 43mn 8s
Bit rate : 1 486 Kbps
Width : 720 pixels
Height : 400 pixels
Display aspect ratio : 16:9
Frame rate : 25.000 fps
Color space : YUV
Chroma subsampling : 4:2:0
Bit depth : 8 bits
Scan type : Progressive
Compression mode : Lossy
Bits/(Pixel*Frame) : 0.206
Stream size : 459 MiB (91%)
Writing library : XviD 64

Audio
ID : 1
Format : MPEG Audio
Format version : Version 1
Format profile : Layer 3
Mode : Joint stereo
Mode extension : MS Stereo
Codec ID : 55
Codec ID/Hint : MP3
Duration : 43mn 8s
Bit rate mode : Constant
Bit rate : 128 Kbps
Channel(s) : 2 channels
Sampling rate : 48.0 KHz
Compression mode : Lossy
Stream size : 39.5 MiB (8%)
Alignment : Aligned on interleaves
Interleave, duration : 40 ms (1.01 video frame)
Interleave, preload duration : 384 ms
General
Complete name : G:\Сериаль4ики\Mentalist.s05 (Universal Russia)\21. Красный и зудящий (Red and Itchy).avi
Format : AVI
Format/Info : Audio Video Interleave
File size : 496 MiB
Duration : 42mn 36s
Overall bit rate : 1 627 Kbps
Writing application : TMPGEnc Video Mastering Works 5 Version. 5.0.6.38
Writing library : TMPGEnc Video Mastering Works 5 Version. 5.0.6.38

Video
ID : 0
Format : MPEG-4 Visual
Format profile : Advanced Simple@L5
Format settings, BVOP : 2
Format settings, QPel : No
Format settings, GMC : No warppoints
Format settings, Matrix : Default (H.263)
Muxing mode : Packed bitstream
Codec ID : XVID
Codec ID/Hint : XviD
Duration : 42mn 36s
Bit rate : 1 486 Kbps
Width : 720 pixels
Height : 400 pixels
Display aspect ratio : 16:9
Frame rate : 25.000 fps
Color space : YUV
Chroma subsampling : 4:2:0
Bit depth : 8 bits
Scan type : Progressive
Compression mode : Lossy
Bits/(Pixel*Frame) : 0.206
Stream size : 453 MiB (91%)
Writing library : XviD 64

Audio
ID : 1
Format : MPEG Audio
Format version : Version 1
Format profile : Layer 3
Mode : Joint stereo
Codec ID : 55
Codec ID/Hint : MP3
Duration : 42mn 36s
Bit rate mode : Constant
Bit rate : 128 Kbps
Channel(s) : 2 channels
Sampling rate : 48.0 KHz
Compression mode : Lossy
Stream size : 39.0 MiB (8%)
Alignment : Aligned on interleaves
Interleave, duration : 40 ms (1.01 video frame)
Interleave, preload duration : 384 ms
General
Complete name : G:\Сериаль4ики\Mentalist.s05 (Universal Russia)\22. Правила Кровавого Джона (Red John's Rules).avi
Format : AVI
Format/Info : Audio Video Interleave
File size : 499 MiB
Duration : 42mn 54s
Overall bit rate : 1 627 Kbps
Writing application : TMPGEnc Video Mastering Works 5 Version. 5.0.6.38
Writing library : TMPGEnc Video Mastering Works 5 Version. 5.0.6.38

Video
ID : 0
Format : MPEG-4 Visual
Format profile : Advanced Simple@L5
Format settings, BVOP : 2
Format settings, QPel : No
Format settings, GMC : No warppoints
Format settings, Matrix : Default (H.263)
Muxing mode : Packed bitstream
Codec ID : XVID
Codec ID/Hint : XviD
Duration : 42mn 54s
Bit rate : 1 486 Kbps
Width : 720 pixels
Height : 400 pixels
Display aspect ratio : 16:9
Frame rate : 25.000 fps
Color space : YUV
Chroma subsampling : 4:2:0
Bit depth : 8 bits
Scan type : Progressive
Compression mode : Lossy
Bits/(Pixel*Frame) : 0.206
Stream size : 456 MiB (91%)
Writing library : XviD 64

Audio
ID : 1
Format : MPEG Audio
Format version : Version 1
Format profile : Layer 3
Mode : Joint stereo
Mode extension : MS Stereo
Codec ID : 55
Codec ID/Hint : MP3
Duration : 42mn 54s
Bit rate mode : Constant
Bit rate : 128 Kbps
Channel(s) : 2 channels
Sampling rate : 48.0 KHz
Compression mode : Lossy
Stream size : 39.3 MiB (8%)
Alignment : Aligned on interleaves
Interleave, duration : 40 ms (1.01 video frame)
Interleave, preload duration : 384 ms
DeathN2 - за релиз
lehacom - За звуковые дорожки
WOLF 80 - за исходник
Все релизы (Менталист)

Скриншоты:


Время раздачи: 24/7 - круглосуточно
 Торрент: Платиновая раздача  Зарегистрирован
 
Скачать


 Зарегистрирован:   02 Авг 2013 08:59:32
 Размер:   10.7 GB  (
 Рейтинг:   4.6 (Голосов: 175)
 Поблагодарили:   609
 Проверка:   Оформление проверено модератором 02 Авг 2013 10:35:00
Как cкачать  ·  Как раздать  ·  Правильно оформить  ·  Поднять ратио!  

_________________
А я не сотка баксов чтобы нравиться всем...
Deamonda
Стаж: 10 лет 6 мес.
Сообщений: 10
Ratio: 3.306
100%
israel.gif
Спасибо огромное сериал просто бомба.

:респект: :выпивают: :респект:
Wraith_82
Стаж: 12 лет 6 мес.
Сообщений: 4
Ratio: 1.299
9.68%
russia.gif
СПАСИЬБО!!!!!!!!!!!!!!!!!!!!!!!!
20971
Стаж: 12 лет 9 мес.
Сообщений: 217
Ratio: 24.231
100%
Откуда: Одесса
india.gif
kill_01, спасибо Вам огромное !!! Это самый адекватная и приятная уху озвучка! =) Еще раз Вам огромнейшее спасибо!!! :цветок: :цветок: :цветок:

_________________
Дурная мысль подобна гвоздю.Её легко забить но трудно вытащить...Ничто не вызывает такой сильной паники, как крик "Только без паники!"...
JCorvin
Стаж: 9 лет 11 мес.
Сообщений: 46
Ratio: 32.53
100%
russia.gif
Спасибо всем организаторам релиза.
Наконец то нормальная озвучка.
ven_dal
Стаж: 11 лет 8 мес.
Сообщений: 6
Ratio: 96.023
100%
Качаю и останусь на раздаче. Отдача около 5 мега бит.
Mohh
Стаж: 15 лет 11 мес.
Сообщений: 77
Ratio: 1.846
1.24%
EdPM
Стаж: 12 лет 3 мес.
Сообщений: 6
Ratio: 3.982
Поблагодарили: 98
69.44%
Откуда: Минск
belarus.gif
Ой, сколько я этой озвучки ждал. Спасибо огромное!
Осталось еще дождаться пока 3-й сезон Шерлока доснимут и нормально дублируют :)

_________________
Русский украинец с белорусским гражданством.
Official Arsenal Russian Speaking Supporters Club
lehacom
Стаж: 10 лет 10 мес.
Сообщений: 34
Ratio: 9.409
100%
Откуда: msk
russia.gif
serega987
Стаж: 11 лет 8 мес.
Сообщений: 18
Ratio: 3.142
Раздал: 1.66 TB
100%
Откуда: от Туда
france.gif
Автору спасибо
punkito
 
Стаж: 13 лет 8 мес.
Сообщений: 173
Ratio: 16.957
Раздал: 5.648 TB
Поблагодарили: 93
100%
Откуда: Баку
azerbaijan.gif
Спасибо.
=Alex=
Стаж: 13 лет 8 мес.
Сообщений: 156
Ratio: 10.891
100%
Откуда: Korolev
russia.gif
если кому интнресно, мне понравился этот сезон,
Популярный американский сериал Менталист продлевается на шестой сезон. Об этом официально заявил телеканал CBS. Скорее всего, этот сезон будет для сериала последним, из-за существенного падения рейтинга в последнем пятом сезоне (8,1 млн человек).

Когда же выйдет Менталист 6 сезон?
Напомним, что впервые это телешоу вышло на экраны на телеканале CBS в 2008 году. Зрительская аудитория пилотного сезона составила 17 миллионов зрителей, что обусловило все последующие сезоны. И вот шоу дошло до шестого сезона, в котором Патрик Джейн продолжит работать над запутанными и интереснымиделами.

Дата выхода Менталист 6 сезон –29 сентября 2013 года.
Также известно, что время показа нового сезона останется прежним.
Radogiz
Стаж: 12 лет 9 мес.
Сообщений: 151
Ratio: 7.795
4.69%
=Alex= писал(а): Перейти к сообщению
если кому интнресно, мне понравился этот сезон,
Популярный американский сериал Менталист продлевается на шестой сезон. Об этом официально заявил телеканал CBS. Скорее всего, этот сезон будет для сериала последним, из-за существенного падения рейтинга в последнем пятом сезоне (8,1 млн человек).

Когда же выйдет Менталист 6 сезон?
Напомним, что впервые это телешоу вышло на экраны на телеканале CBS в 2008 году. Зрительская аудитория пилотного сезона составила 17 миллионов зрителей, что обусловило все последующие сезоны. И вот шоу дошло до шестого сезона, в котором Патрик Джейн продолжит работать над запутанными и интереснымиделами.

Дата выхода Менталист 6 сезон –29 сентября 2013 года.
Также известно, что время показа нового сезона останется прежним.


Блин жаль, что 6й сезон последний, и хорошо что он вообще будет.
hudgisala
Стаж: 9 лет 7 мес.
Сообщений: 7
Ratio: 4.891
100%
спасибо за нормальную озвучку))
serg_erem
Стаж: 10 лет 10 мес.
Сообщений: 19
Ratio: 161.846
100%
Спустя год, я благодарю ребят, что выполнили озвучку этого сезона, слушать других просто невозможно, Патрик должен говорить в русской озвучки именно этим голосом, он очень подходит и по тембру и по манере разговора к своему герою.
Спасибо еще раз.
Показать сообщения:   
Начать новую тему   Ответить на тему    Торрент-трекер NNM-Club -> Зарубежные сериалы -> Менталист / The Mentalist ; Теория Лжи / Lie To Me Часовой пояс: GMT + 3
Страницы:  1, 2  След.
Страница 1 из 2