Классический форум-трекер
canvas not supported
Нас вместе: 4 165 124

Презумпция невиновности / Presumed Innocent (1990) BDRip [H.264/1080p]


 
 
RSS
Начать новую тему   Ответить на тему    Торрент-трекер NNM-Club -> Классика кино и Старые фильмы до 90-х -> Старые Зарубежные Фильмы (HD, UHD, UHD-LQ, 3D)
Автор Сообщение
Galar ®
Стаж: 12 лет 2 мес.
Сообщений: 56
Ratio: 164.597
Поблагодарили: 3904
48.31%
Откуда: DNEPR
ukraine.gif
Презумпция невиновности / Presumed Innocent (1990) BDRip
«Some people would kill for love.»

Производство: США - Warner Bros., Mirage
Жанр: Драма, Триллер, Криминал
Перевод: Дублированный, Одноголосый закадровый, Двуголосый закадровый

Режиссер: Алан Дж. Пакула
Продюсер: Сидни Поллак, Марк Розенберг, Сьюзэн Солт
Актеры: Харрисон Форд, Брайан Деннехи, Рауль Хулиа, Бонни Беделиа, Пол Уинфилд, Грета Скакки, Джон Спенсер, Джо Грифази, Том Мардиросян, Анна Мария Хорсфорд.

Описание:
Главный герой Расти Сэбич — окружной прокурор, который за долгие годы своей карьеры привык выступать лишь в роли обвинителя. Неожиданно его начальник поручает ему провести срочное расследование убийства сотрудницы прокуратуры.
Но дело осложняется тем, что погибшая, привлекательная молодая блондинка Каролин Полимус, была любовницей Сэбича, и, в конце концов, подозрение в ее убийстве падает на него. Затевается шумный судебный процесс, и Расти обращается к очень дорогому адвокату...



Продолжительность: 02:06:56
Качество видео: BDRip

Формат: MKV
Видео кодек: H.264
Аудио кодек: AC-3
Видео: 1920x1080p, 16:9 (1.78:1), 23.976 fps, x264, ~8321 Kbps
Аудио #1: (ENG) DD 2.0, 48.0 KHz, 640 Kbps
Аудио #2: (RUS) DD 2.0, 48.0 KHz, 192 Kbps — дубляж от Варус Видео
Аудио #3: (RUS) DD 2.0, 48.0 KHz, 192 Kbps — авторский А. Гаврилов
Аудио #4: (RUS) DD 2.0, 48.0 KHz, 192 Kbps — авторский А. Михалев
Субтитры: English SDH (Субтитры для глухих и слабослышащих), French, Spanish
General
Complete name : Presumed.Innocent.1990.BDRip.1080p.Eng-DUB-2AVO.x264-LCHD.mkv
Format : Matroska
File size : 8.46 GiB
Duration : 2h 6mn
Overall bit rate : 9 539 Kbps
Movie name : Presumed Innocent (1990) BDRip.1080p [-=pan812=-]
Encoded date : UTC 2010-04-12 11:54:24
Writing application : mkvmerge v3.2.0 ('Beginnings') built on Feb 12 2010 16:46:17
Writing library : libebml v0.7.9 + libmatroska v0.8.1

Video
ID : 1
Format : AVC
Format/Info : Advanced Video Codec
Format profile : High@L4.1
Format settings, CABAC : Yes
Format settings, ReFrames : 4 frames
Muxing mode : Container profile=Unknown@4.1
Codec ID : V_MPEG4/ISO/AVC
Duration : 2h 6mn
Bit rate : 8 133 Kbps
Nominal bit rate : 8 321 Kbps
Width : 1 920 pixels
Height : 1 080 pixels
Display aspect ratio : 16:9
Frame rate : 23.976 fps
Resolution : 8 bits
Colorimetry : 4:2:0
Scan type : Progressive
Bits/(Pixel*Frame) : 0.164
Stream size : 7.20 GiB (85%)
Writing library : x264 core 84 r1416 fcf70c2
Encoding settings : cabac=1 / ref=4 / deblock=1:-1:-1 / analyse=0x3:0x113 / me=umh / subme=7 / psy=1 / psy_rd=1.0:0.0 / mixed_ref=1 / me_range=16 / chroma_me=1 / trellis=2 / 8x8dct=1 / cqm=0 / deadzone=21,11 / fast_pskip=1 / chroma_qp_offset=-2 / threads=6 / sliced_threads=0 / nr=0 / decimate=1 / mbaff=0 / constrained_intra=0 / bframes=3 / b_pyramid=0 / b_adapt=2 / b_bias=0 / direct=3 / wpredb=1 / wpredp=2 / keyint=250 / keyint_min=25 / scenecut=40 / intra_refresh=0 / rc_lookahead=40 / rc=2pass / mbtree=1 / bitrate=8321 / ratetol=1.0 / qcomp=0.60 / qpmin=10 / qpmax=51 / qpstep=4 / cplxblur=20.0 / qblur=0.5 / vbv_maxrate=50000 / vbv_bufsize=50000 / ip_ratio=1.40 / aq=1:1.00
Language : English

Audio #1
ID : 2
Format : AC-3
Format/Info : Audio Coding 3
Codec ID : A_AC3
Duration : 2h 6mn
Bit rate mode : Constant
Bit rate : 640 Kbps
Channel(s) : 2 channels
Channel positions : Front: L R
Sampling rate : 48.0 KHz
Stream size : 581 MiB (7%)
Title : DD 2.0
Language : English

Audio #2
ID : 3
Format : AC-3
Format/Info : Audio Coding 3
Codec ID : A_AC3
Duration : 2h 6mn
Bit rate mode : Constant
Bit rate : 192 Kbps
Channel(s) : 2 channels
Channel positions : Front: L R
Sampling rate : 48.0 KHz
Stream size : 174 MiB (2%)
Title : DD 2.0 — дубляж от Варус Видео
Language : Russian

Audio #3
ID : 4
Format : AC-3
Format/Info : Audio Coding 3
Codec ID : A_AC3
Duration : 2h 6mn
Bit rate mode : Constant
Bit rate : 192 Kbps
Channel(s) : 2 channels
Channel positions : Front: L R
Sampling rate : 48.0 KHz
Stream size : 174 MiB (2%)
Title : DD 2.0 — авторский А. Михалев
Language : Russian

Audio #4
ID : 5
Format : AC-3
Format/Info : Audio Coding 3
Codec ID : A_AC3
Duration : 2h 6mn
Bit rate mode : Constant
Bit rate : 192 Kbps
Channel(s) : 2 channels
Channel positions : Front: L R
Sampling rate : 48.0 KHz
Stream size : 174 MiB (2%)
Title : DD 2.0 — авторский А. Гаврилов
Language : Russian

Text #1
ID : 6
Format : UTF-8
Codec ID : S_TEXT/UTF8
Codec ID/Info : UTF-8 Plain Text
Title : SDH
Language : English

Text #2
ID : 7
Format : UTF-8
Codec ID : S_TEXT/UTF8
Codec ID/Info : UTF-8 Plain Text
Language : French

Text #3
ID : 8
Format : UTF-8
Codec ID : S_TEXT/UTF8
Codec ID/Info : UTF-8 Plain Text
Language : Spanish

Menu
00:00:00.000 : en:Chapter 01
00:03:43.348 : en:Chapter 02
00:07:49.594 : en:Chapter 03
00:11:56.925 : en:Chapter 04
00:14:29.035 : en:Chapter 05
00:18:57.094 : en:Chapter 06
00:24:28.217 : en:Chapter 07
00:26:27.211 : en:Chapter 08
00:29:34.648 : en:Chapter 09
00:32:21.815 : en:Chapter 10
00:35:44.809 : en:Chapter 11
00:39:03.883 : en:Chapter 12
00:40:37.101 : en:Chapter 13
00:43:40.785 : en:Chapter 14
00:47:38.314 : en:Chapter 15
00:49:33.137 : en:Chapter 16
00:51:53.986 : en:Chapter 17
00:57:31.698 : en:Chapter 18
01:00:54.985 : en:Chapter 19
01:04:35.330 : en:Chapter 20
01:08:36.738 : en:Chapter 21
01:12:46.696 : en:Chapter 22
01:15:44.582 : en:Chapter 23
01:24:27.771 : en:Chapter 24
01:28:12.120 : en:Chapter 25
01:32:08.648 : en:Chapter 26
01:36:33.746 : en:Chapter 27
01:38:23.606 : en:Chapter 28
01:45:23.859 : en:Chapter 29
01:46:33.345 : en:Chapter 30
01:49:11.545 : en:Chapter 31
01:51:03.490 : en:Chapter 32
01:53:04.111 : en:Chapter 33
01:56:54.549 : en:Chapter 34
02:02:33.513 : en:Chapter 35



Время раздачи: 24/7 мультитрекер
[NNMClub.to]_Presumed.Innocent.1990.torrent
 Торрент: Платиновая раздача  Зарегистрирован
 
Скачать


Примагнититься
 Зарегистрирован:   11 Июл 2021 08:42:19
 Размер:   8.46 GB  (
 Рейтинг:   4.9 (Голосов: 40)
 Поблагодарили:   187
 Проверка:   Оформление проверено модератором 11 Июл 2021 09:36:49
Как cкачать  ·  Как раздать  ·  Правильно оформить  ·  Поднять ратио!  
Как кино?
Стаж: 12 лет
Сообщений: 733
Ratio: 5.804
Поблагодарили: 118
100%
Откуда: OttYDA
krevedko.png
Кино серьезное и не для всех. Режиссер снял хитрое, адвокатское кино в стиле непредсказуемого расследования.
Любителям Форда и тем, кому нравятся запутанные истории.
QWERTYAZERTY
Стаж: 6 лет 3 мес.
Сообщений: 16
Ratio: 2.642
0.74%
krevedko.png
Жаль нет русских субтитров
Показать сообщения:   
Начать новую тему   Ответить на тему    Торрент-трекер NNM-Club -> Классика кино и Старые фильмы до 90-х -> Старые Зарубежные Фильмы (HD, UHD, UHD-LQ, 3D) Часовой пояс: GMT + 3
Страница 1 из 1