Классический форум-трекер
canvas not supported
Нас вместе: 4 232 304

Ошибка резидента (1968) DVD9


 
 
RSS
Начать новую тему   Ответить на тему    Торрент-трекер NNM-Club -> Классика кино и Старые фильмы до 90-х -> Отечественная Классика (DVD)
Автор Сообщение
futura3000 ®
Uploader 100+
Стаж: 16 лет 6 мес.
Сообщений: 5676
Ratio: 328.447
Поблагодарили: 22069
100%
Ошибка резидента (1968) DVD9
Год выпуска: 1968
Жанр: Детектив
Производство: CCCP / Киностудия им. М. Горького

Описание:
Первый фильм тетралогии о судьбе опытного разведчика, сына русского эмигранта графа Тульева. Резидент должен добыть сведения о разработках в атомной промышленности, но чекисты нападают на его след — и он допускает роковую ошибку… В фильме две серии: "По старой легенде", "Возвращение Бекаса".
Режиссер: Вениамин Дорман
Актеры: Георгий Жжёнов, Михаил Ножкин, Олег Жаков, Ефим Копелян, Элеонора Шашкова, Владимир Гусев, Ирина Мирошниченко, Вадим Захарченко, Николай Прокопович, Николай Граббе, Эрвин Кнаусмюллер, Юрий Волынцев, Софья Фадеева, Эрнест Зорин, Георгий Оболенский, Ростислав Плятт, Николай Бриллинг, Николай Скоробогатов, Владимир Пицек, Вера Петрова, Глеб Плаксин, Виктор Яковлев


Дата мировой премьеры: 12 ноября 1968
Дата выхода DVD релиза: 4 декабря 2008, «Ruscico»

Продолжительность: 01:07:51 + 01:06:07
Субтитры:Нет
Дополнительно: Фильмографии, Фотоальбом, Фотоальбом памяти Г. Жженова, Смотрите на DVD
Видеокодек: MPEG-2
Битрейт видео: ~5765 Кбит/с
Размер кадра: PAL 4:3 (720x576) VBR
Качество видео: DVD9
Аудио:
#1: AC3, 5 ch, 224 Кбит/с (Русский)
#2: AC3, 1 ch, 192 Кбит/с (Русский)
Код: выделить все
Title: OSHIBKA REZIDENTA
Size: 7.13 Gb ( 7 472 144,00 KBytes ) - DVD-9
Enabled regions: 1, 2, 3, 4, 5, 6, 7, 8

VTS_01 :
  Play Length: 00:00:10
  Video: PAL 4:3 (720x576) VBR

VTS_02 :
  Play Length: 00:00:21
  Video: PAL 4:3 (720x576) VBR
  Audio:
      Not specified (Dolby AC3, 6 ch)

VTS_03 :
  Play Length: 01:07:51
  Video: PAL 4:3 (720x576) VBR
  Audio:
      Russian, AC3, 3/2 (L,C,R,SL,SR) ch, 224 kbps, Delay 1800 mSec
      Russian, AC3, 1/0 (C) ch, 192 kbps, Delay 0 mSec

VTS_04 :
  Play Length: 01:06:07
  Video: PAL 4:3 (720x576) VBR
  Audio:
      Russian (Dolby AC3, 5 ch)
      Russian (Dolby AC3, 1 ch)

VTS_05 :
  Play Length: 00:01:19
  Video: PAL 4:3 (720x576) VBR
  Audio:
      Not specified (Dolby AC3, 6 ch)

VTS_06 :
  Play Length: 00:06:24
  Video: PAL 4:3 (720x576) VBR
  Audio:
      Not specified (Dolby AC3, 6 ch)

VTS_07 :
  Play Length: 00:01:26
  Video: PAL 4:3 (720x576) VBR
  Audio:
      Russian (Dolby AC3, 3 ch)

VTS_08 :
  Play Length: 00:02:05
  Video: PAL 4:3 (720x576) VBR
  Audio:
      Russian (Dolby AC3, 3 ch)

VTS_09 :
  Play Length: 00:01:33
  Video: PAL 4:3 (720x576) VBR
  Audio:
      Russian (Dolby AC3, 3 ch)

VTS_10 :
  Play Length: 00:00:57
  Video: PAL 4:3 (720x576) VBR
  Audio:
      Russian (Dolby AC3, 3 ch)

VTS_11 :
  Play Length: 00:01:06
  Video: PAL 4:3 (720x576) VBR
  Audio:
      Russian (Dolby AC3, 3 ch)
Код: выделить все
General
Complete name                    : E:\OSHIBKA REZIDENTA\VIDEO_TS\VTS_03_1.VOB
Format                           : MPEG-PS
File size                        : 1 024 MiB
Duration                         : 22mn 14s
Overall bit rate                 : 6 436 Kbps

Video
ID                               : 224 (0xE0)
Format                           : MPEG Video
Format version                   : Version 2
Format profile                   : Main@Main
Format settings, BVOP            : Yes
Format settings, Matrix          : Default
Format_Settings_GOP              : M=3, N=4
Duration                         : 22mn 14s
Bit rate mode                    : Variable
Bit rate                         : 5 765 Kbps
Nominal bit rate                 : 9 000 Kbps
Width                            : 720 pixels
Height                           : 576 pixels
Display aspect ratio             : 4:3
Frame rate                       : 25.000 fps
Standard                         : PAL
Resolution                       : 8 bits
Colorimetry                      : 4:2:0
Scan type                        : Interlaced
Scan order                       : Bottom Field First
Bits/(Pixel*Frame)               : 0.556
Stream size                      : 917 MiB (90%)

Audio #1
ID                               : 128 (0x80)
Format                           : AC-3
Format/Info                      : Audio Coding 3
Duration                         : 22mn 12s
Bit rate mode                    : Constant
Bit rate                         : 224 Kbps
Channel(s)                       : 5 channels
Channel positions                : Front: L C R, Side: L R
Sampling rate                    : 48.0 KHz
Video delay                      : 1s 800ms
Stream size                      : 35.6 MiB (3%)

Audio #2
ID                               : 129 (0x81)
Format                           : AC-3
Format/Info                      : Audio Coding 3
Duration                         : 22mn 14s
Bit rate mode                    : Constant
Bit rate                         : 192 Kbps
Channel(s)                       : 1 channel
Channel positions                : Front: C
Sampling rate                    : 48.0 KHz
Stream size                      : 30.5 MiB (3%)

Menu
Скриншоты:



Время раздачи: 24/7 Тетралогия «Резидент» на трекереОшибка резидента (1968) DVD9 Судьба резидента (1970) DVD9 Возвращение резидента (1982) DVD9 Конец операции «Резидент» (1986) DVD9
OSHIBKA REZIDENTA.torrent
 Торрент: Платиновая раздача  Зарегистрирован
 
Скачать


Примагнититься
 Зарегистрирован:   10 Дек 2019 15:30:17
 Размер:   7.13 GB  (
 Рейтинг:   4.9 (Голосов: 108)
 Поблагодарили:   346
 Проверка:   Оформление проверено модератором 10 Дек 2019 15:49:49
Как cкачать  ·  Как раздать  ·  Правильно оформить  ·  Поднять ратио!  
artart
Стаж: 16 лет 7 мес.
Сообщений: 58
Ratio: 2.145
86.29%
latvia.gif
superrrr, blin, kajjff
eidoss
Стаж: 17 лет
Сообщений: 2195
Ratio: 1.893
Поблагодарили: 10184
100%
Откуда: Северная Пальмира
russia.gif
Сколько раз слышал, но ни разу не видел фильм. Хоть на сей раз гляну...
antoshkov2
Стаж: 14 лет 3 мес.
Сообщений: 43
Ratio: 31.757
100%
Откуда: Луцк
ukraine.gif
Огромное спасибо раздающему! Извините только меня, буду качать с 10 часов утра до 01 ночи.
SKVSM
Покровитель талантов
Uploader 100+ Реставратор
Стаж: 13 лет 6 мес.
Сообщений: 2012
Ratio: 557.708
Поблагодарили: 34861
100%
nnm-club.gif
Kalitenga
Стаж: 14 лет 2 мес.
Сообщений: 278
Ratio: 3.224
100%
russia.gif
Отличный фильм! Сколько раз смотрел, никогда не надоедает.
err0r07
Стаж: 14 лет 7 мес.
Сообщений: 87
Ratio: 426.308
100%
russia.gif
Да, фильм великолепен! Прекрасные работы Жжёнова и Ножкина, Плятта и Жакова да и других актёров. Лучший из цикла о "резиденте"!
Asphyx
Uploaders
Стаж: 13 лет 7 мес.
Сообщений: 32
Ratio: 213.84
100%
russia.gif
Встаньте на раздачу пожалуйста
ram0973
Стаж: 10 лет 9 мес.
Сообщений: 179
Ratio: 7.346
2.37%
7 лет лагерей ни за что и ссылка. Зато пломбир был вкусный
hmatffey
Стаж: 13 лет 9 мес.
Сообщений: 95
Ratio: 12.627
9.23%
Откуда: Maykop
russia.gif
ram0973
https://www.youtube.com/watch?v=AFCZR7FNVbs - ни за что. И так все...
КарКарыч
Стаж: 4 года 6 мес.
Сообщений: 846
Ratio: 8.227
0%
witch.png
ram0973 писал(а): Перейти к сообщению
7 лет лагерей ни за что и ссылка. Зато пломбир был вкусный


еще и в кино снимался, прям курорт. а сломали бы правую и левую челюсти, так и ракеты бы делал.
vbe
Стаж: 15 лет 6 мес.
Сообщений: 148
Ratio: 4.014
100%
Откуда: Омск
russia.gif
Жалко, что не рип. С просмотром проблема.
balu109
Стаж: 12 лет 4 мес.
Сообщений: 337
Ratio: 5.049
1.24%
Откуда: Kharkiv
ukraine.gif
сильный фильм, еще и с потрясающей музыкой
ApeZ
Стаж: 11 лет 3 мес.
Сообщений: 529
Ratio: 113.048
100%
Откуда: СССР
ussr.gif
КарКарыч писал(а): Перейти к сообщению
еще и в кино снимался, прям курорт. а сломали бы правую и левую челюсти, так и ракеты бы делал.

:клево:
Тоже Егора Иванова смотришь? Хороший канал!
Показать сообщения:   
Начать новую тему   Ответить на тему    Торрент-трекер NNM-Club -> Классика кино и Старые фильмы до 90-х -> Отечественная Классика (DVD) Часовой пояс: GMT + 3
Страница 1 из 1