Классический форум-трекер
canvas not supported
Нас вместе: 4 232 307

Судьба резидента (1970) DVD-9


 
 
RSS
Начать новую тему   Ответить на тему    Торрент-трекер NNM-Club -> Классика кино и Старые фильмы до 90-х -> Отечественная Классика (DVD)
Автор Сообщение
futura3000 ®
Uploader 100+
Стаж: 16 лет 6 мес.
Сообщений: 5676
Ratio: 328.447
Поблагодарили: 22069
100%
Судьба резидента (1970) DVD9

Жанр: Детектив
Производство: CCCP / Киностудия им. М. Горького
Описание:
Второй фильм тетралогии, объединившей киноленты: "Ошибка резидента", "Судьба резидента", "Возвращение резидента", "Конец операции "Резидент". Разоблаченный органами КГБ Михаил Зароков (оказавшийся профессиональным разведчиком Михаилом Тульевым, графом и сыном русского эмигранта) принимает предложение советских контрразведчиков о сотрудничестве. Фильм состоит из двух серий: "С открытыми картами" и "Западный шлейф" .

Режиссер: Вениамин Дорман
Актеры: Георгий Жжёнов, Михаил Ножкин, Андрей Вертоградов, Ефим Копелян, Ростислав Плятт, Николай Прокопович, Николай Граббе, Жанна Болотова, Ээве Киви, Элеонора Шашкова, Елизавета Алексеева, Евгений Жуков, В. Арсентьев, Евгений Супонев, Николай Бриллинг, Эрвин Кнаусмюллер, Георгий Тусузов, Эрнест Зорин, Владимир Рудый, Вадим Захарченко, Николай Рыжов, Георгий Шаповалов, Олев Эскола, Бронюс Бабкаускас, Эдита Пьеха


Дата мировой премьеры: 20 августа 1970
Дата выхода DVD релиза: 19 ноября 2009, «Новый Диск»
Ограничения:
6+
Продолжительность: 01:19:27 + 01:08:57
Субтитры: Нет
Дополнительно: Фильмографии, Фотоальбом, Фотоальбом памяти Г. Жженова, Смотрите на DVD
Видеокодек: MPEG-2
Битрейт видео: ~6244 Кбит/с
Размер кадра: PAL 4:3 (720x576) VBR
Качество видео: DVD9
Аудио:
#1: AC3, 6 ch, 448 Кбит/с (Русский)
#2: AC3, 2 ch, 192 Кбит/с (Русский)
Код: выделить все
Title: SUDBA_REZIDENTA
Size: 7.90 Gb ( 8 281 056,00 KBytes ) - DVD-9
Enabled regions: 1, 2, 3, 4, 5, 6, 7, 8

VTS_01 :
  Play Length: 00:00:10
  Video: PAL 4:3 (720x576) VBR

VTS_02 :
  Play Length: 00:00:21
  Video: PAL 4:3 (720x576) VBR
  Audio:
      Not specified (Dolby AC3, 6 ch)

VTS_03 :
  Play Length: 01:19:27+{01:19:27}
  Video: PAL 4:3 (720x576) VBR
  Audio:
      Russian, AC3, 3/2 (L,C,R,SL,SR)+LFE ch, 448 kbps, Delay 0 mSec
      Russian, AC3, 2/0 (L,R) ch, 192 kbps, Delay 0 mSec

VTS_04 :
  Play Length: 01:08:57+{01:08:57}
  Video: PAL 4:3 (720x576) VBR
  Audio:
      Russian (Dolby AC3, 6 ch)
      Russian (Dolby AC3, 2 ch)

VTS_05 :
  Play Length: 00:01:17
  Video: PAL 4:3 (720x576) VBR
  Audio:
      Not specified (Dolby AC3, 6 ch)

VTS_06 :
  Play Length: 00:06:24
  Video: PAL 4:3 (720x576) VBR
  Audio:
      Not specified (Dolby AC3, 6 ch)

VTS_07 :
  Play Length: 00:02:00
  Video: PAL 4:3 (720x576) VBR
  Audio:
      Russian (Dolby AC3, 3 ch)

VTS_08 :
  Play Length: 00:02:05
  Video: PAL 4:3 (720x576) VBR
  Audio:
      Russian (Dolby AC3, 3 ch)

VTS_09 :
  Play Length: 00:01:33
  Video: PAL 4:3 (720x576) VBR
  Audio:
      Russian (Dolby AC3, 3 ch)

VTS_10 :
  Play Length: 00:00:57
  Video: PAL 4:3 (720x576) VBR
  Audio:
      Russian (Dolby AC3, 3 ch)

VTS_11 :
  Play Length: 00:01:06
  Video: PAL 4:3 (720x576) VBR
  Audio:
      Russian (Dolby AC3, 3 ch)

* Menus Information *

VIDEO_TS Menu
Video:
      PAL 4:3 (720x576) VBR
English Language Unit :
      Title Menu

VTS_01 Menu
Video:
      PAL 4:3 (720x576) VBR
Audio:
      Not specified (Dolby AC3, 6 ch)
English Language Unit :
      Root Menu

VTS_02 Menu
Video:
      PAL 4:3 (720x576) VBR
English Language Unit :
      Root Menu

VTS_03 Menu
Video:
      PAL 4:3 (720x576) VBR
English Language Unit :
      Root Menu

VTS_04 Menu
Video:
      PAL 4:3 (720x576) VBR
English Language Unit :
      Root Menu

VTS_05 Menu
Video:
      PAL 4:3 (720x576) VBR
English Language Unit :
      Root Menu

VTS_06 Menu
Video:
      PAL 4:3 (720x576) VBR
English Language Unit :
      Root Menu

VTS_07 Menu
Video:
      PAL 4:3 (720x576) VBR
English Language Unit :
      Root Menu

VTS_08 Menu
Video:
      PAL 4:3 (720x576) VBR
English Language Unit :
      Root Menu

VTS_09 Menu
Video:
      PAL 4:3 (720x576) VBR
English Language Unit :
      Root Menu

VTS_10 Menu
Video:
      PAL 4:3 (720x576) VBR
English Language Unit :
      Root Menu

VTS_11 Menu
Video:
      PAL 4:3 (720x576) VBR
English Language Unit :
      Root Menu
Код: выделить все
General
Complete name                    : E:\SUDBA_REZIDENTA\VIDEO_TS\VTS_03_1.VOB
Format                           : MPEG-PS
File size                        : 1 024 MiB
Duration                         : 19mn 58s
Overall bit rate                 : 7 169 Kbps

Video
ID                               : 224 (0xE0)
Format                           : MPEG Video
Format version                   : Version 2
Format profile                   : Main@Main
Format settings, BVOP            : Yes
Format settings, Matrix          : Default
Format_Settings_GOP              : M=3, N=4
Duration                         : 19mn 58s
Bit rate mode                    : Variable
Bit rate                         : 6 244 Kbps
Nominal bit rate                 : 9 000 Kbps
Width                            : 720 pixels
Height                           : 576 pixels
Display aspect ratio             : 4:3
Frame rate                       : 25.000 fps
Standard                         : PAL
Resolution                       : 8 bits
Colorimetry                      : 4:2:0
Scan type                        : Interlaced
Scan order                       : Bottom Field First
Bits/(Pixel*Frame)               : 0.602
Stream size                      : 892 MiB (87%)

Audio #1
ID                               : 128 (0x80)
Format                           : AC-3
Format/Info                      : Audio Coding 3
Duration                         : 19mn 57s
Bit rate mode                    : Constant
Bit rate                         : 448 Kbps
Channel(s)                       : 6 channels
Channel positions                : Front: L C R, Side: L R, LFE
Sampling rate                    : 48.0 KHz
Stream size                      : 64.0 MiB (6%)

Audio #2
ID                               : 129 (0x81)
Format                           : AC-3
Format/Info                      : Audio Coding 3
Duration                         : 19mn 57s
Bit rate mode                    : Constant
Bit rate                         : 192 Kbps
Channel(s)                       : 2 channels
Channel positions                : Front: L R
Sampling rate                    : 48.0 KHz
Stream size                      : 27.4 MiB (3%)

Menu
Скриншоты:


Время раздачи: 24/7 Тетралогия «Резидент» на трекереОшибка резидента (1968) DVD9 Судьба резидента (1970) DVD9 Возвращение резидента (1982) DVD9 Конец операции «Резидент» (1986) DVD9
SUDBA REZIDENTA.torrent
 Торрент: Платиновая раздача  Зарегистрирован
 
Скачать


Примагнититься
 Зарегистрирован:   10 Дек 2019 15:33:50
 Размер:   7.9 GB  (
 Рейтинг:   4.9 (Голосов: 93)
 Поблагодарили:   303
 Проверка:   Оформление проверено модератором 10 Дек 2019 15:49:30
Как cкачать  ·  Как раздать  ·  Правильно оформить  ·  Поднять ратио!  
antoshkov2
Стаж: 14 лет 3 мес.
Сообщений: 43
Ratio: 31.757
100%
Откуда: Луцк
ukraine.gif
Огромное спасибо раздающему! С помню молодость. Извините только меня, буду качать с 10 часов утра до 01 ночи.
Bizon52
Стаж: 13 лет 2 мес.
Сообщений: 20
Ratio: 1.621
100%
russia.gif
Спасибо раздающему
хочу собрать вместе
всего Резидента
17 мгновений
ТАСС уполномочен заявить
вопрос в том - как буду писать ДВД 9 на диск.
Неро что то иногда бунтует
А какая ещё есть программа - чтоб тихо мирно и без заковырок.
заранее спасибо
Сергей
alekslu
Стаж: 13 лет 7 мес.
Сообщений: 384
Ratio: 5.997
100%
Откуда: New York
usa.gif
Спасибо за этот релиз!
=)

Вот программа, которая пишет отлично болванки DVD 9:
ImgBurn 2.5.6.0 RePack by CTYDEHT [Eng / Rus / Ukr]
Я ее скачал с этого форума
SKVSM
Покровитель талантов
Uploader 100+ Реставратор
Стаж: 13 лет 6 мес.
Сообщений: 2012
Ratio: 557.708
Поблагодарили: 34861
100%
nnm-club.gif
Dr. Lector
Стаж: 12 лет 9 мес.
Сообщений: 58
Ratio: 140.116
100%
ukraine.gif
Подскажите, есть ли у кого обложка на диск и накатка на него же? А то на три части есть, а на эту - нет :(
Спасибо
Показать сообщения:   
Начать новую тему   Ответить на тему    Торрент-трекер NNM-Club -> Классика кино и Старые фильмы до 90-х -> Отечественная Классика (DVD) Часовой пояс: GMT + 3
Страница 1 из 1