Классический форум-трекер
canvas not supported
Нас вместе: 4 232 304

Возвращение резидента (1982) DVD-9


 
 
RSS
Начать новую тему   Ответить на тему    Торрент-трекер NNM-Club -> Классика кино и Старые фильмы до 90-х -> Отечественная Классика (DVD)
Автор Сообщение
futura3000 ®
Uploader 100+
Стаж: 16 лет 6 мес.
Сообщений: 5676
Ratio: 328.447
Поблагодарили: 22069
100%
Возвращение резидента (1982) DVD9

Жанр: Детектив
Производство: CCCP / Киностудия им. М. Горького
Описание:
Продолжение фильмов "Ошибка резидента" и "Судьба резидента". Теперь советский разведчик Михаил Тульев снова работает в разведцентре одной из западных стран. По ходу сбора сведений о диверсиях, готовящихся против СССР, Тульев устанавливает местонахождение гитлеровского преступника, некогда приговоренного к смертной казни, и помогает властям его арестовать. Пребывание Тульева за границей становится опасным - и он возвращается в Союз. Фильм состоит из двух серий.

Режиссер: Вениамин Дорман
Актеры: Георгий Жжёнов, Пётр Вельяминов, Леонид Броневой, Борис Химичев, Ирен Азер, Евгений Киндинов, Вадим Захарченко, Николай Прокопович, Любовь Соколова, Николай Граббе, Леонид Ярмольник, Татьяна Окуневская, Евгений Герасимов, Борис Иванов, Элеонора Шашкова, Готлиб Ронинсон, Георгий Тусузов, Ервант Арзуманян, Владимир Мащенко, Александр Филиппенко, Александр Яковлев, Семен Фарада, Георгий Тейх, Григорий Лямпе, Рогволд Суховерко, Эрменгельд Коновалов, Алексей Михайлов, Юрий Гусев, Николай Кейль

Дата мировой премьеры: 17 декабря 1982
Дата выхода DVD релиза: 19 ноября 2009, «Новый Диск»
Продолжительность: 01:05:00 + 01:04:00
Субтитры: Нет
Дополнительно: Фильмографии, Фотоальбом, Фотоальбом памяти Г. Жженова, Смотрите на DVD
Видеокодек: MPEG-2
Битрейт видео: ~6204 Кбит/с
Размер кадра: PAL 4:3 (720x576) VBR
Качество видео: DVD9
Аудио:
#1: AC3, 6 ch, 448 Кбит/с (Русский)
#2: AC3, 1 ch, 192 Кбит/с (Русский)
Title: VOZVRASCHENIE_REZIDENTA
Size: 6.99 Gb ( 7 326 472,00 KBytes ) - DVD-9
Enabled regions: 1, 2, 3, 4, 5, 6, 7, 8

VTS_01 :
Play Length: 00:00:10
Video: PAL 4:3 (720x576) VBR

VTS_02 :
Play Length: 00:00:21
Video: PAL 4:3 (720x576) VBR
Audio:
Not specified (Dolby AC3, 6 ch)

VTS_03 :
Play Length: 01:05:00+{01:05:00}
Video: PAL 4:3 (720x576) VBR
Audio:
Russian, AC3, 3/2 (L,C,R,SL,SR)+LFE ch, 448 kbps, Delay 0 mSec
Russian, AC3, 1/0 (C) ch, 192 kbps, Delay 0 mSec

VTS_04 :
Play Length: 01:04:00+{01:04:00}
Video: PAL 4:3 (720x576) VBR
Audio:
Russian (Dolby AC3, 6 ch)
Russian (Dolby AC3, 1 ch)

VTS_05 :
Play Length: 00:01:10
Video: PAL 4:3 (720x576) VBR
Audio:
Not specified (Dolby AC3, 6 ch)

VTS_06 :
Play Length: 00:06:24
Video: PAL 4:3 (720x576) VBR
Audio:
Not specified (Dolby AC3, 6 ch)

VTS_07 :
Play Length: 00:02:00
Video: PAL 4:3 (720x576) VBR
Audio:
Russian (Dolby AC3, 3 ch)

VTS_08 :
Play Length: 00:01:26
Video: PAL 4:3 (720x576) VBR
Audio:
Russian (Dolby AC3, 3 ch)

VTS_09 :
Play Length: 00:01:33
Video: PAL 4:3 (720x576) VBR
Audio:
Russian (Dolby AC3, 3 ch)

VTS_10 :
Play Length: 00:00:57
Video: PAL 4:3 (720x576) VBR
Audio:
Russian (Dolby AC3, 3 ch)

VTS_11 :
Play Length: 00:01:06
Video: PAL 4:3 (720x576) VBR
Audio:
Russian (Dolby AC3, 3 ch)

* Menus Information *

VIDEO_TS Menu
Video:
PAL 4:3 (720x576) VBR
English Language Unit :
Title Menu

VTS_01 Menu
Video:
PAL 4:3 (720x576) VBR
Audio:
Not specified (Dolby AC3, 6 ch)
English Language Unit :
Root Menu

VTS_02 Menu
Video:
PAL 4:3 (720x576) VBR
English Language Unit :
Root Menu

VTS_03 Menu
Video:
PAL 4:3 (720x576) VBR
English Language Unit :
Root Menu

VTS_04 Menu
Video:
PAL 4:3 (720x576) VBR
English Language Unit :
Root Menu

VTS_05 Menu
Video:
PAL 4:3 (720x576) VBR
English Language Unit :
Root Menu

VTS_06 Menu
Video:
PAL 4:3 (720x576) VBR
English Language Unit :
Root Menu

VTS_07 Menu
Video:
PAL 4:3 (720x576) VBR
English Language Unit :
Root Menu

VTS_08 Menu
Video:
PAL 4:3 (720x576) VBR
English Language Unit :
Root Menu

VTS_09 Menu
Video:
PAL 4:3 (720x576) VBR
English Language Unit :
Root Menu

VTS_10 Menu
Video:
PAL 4:3 (720x576) VBR
English Language Unit :
Root Menu

VTS_11 Menu
Video:
PAL 4:3 (720x576) VBR
English Language Unit :
Root Menu
Код: выделить все
General
Complete name                    : E:\VOZVRASCHENIE_REZIDENTA\VIDEO_TS\VTS_03_1.VOB
Format                           : MPEG-PS
File size                        : 1 024 MiB
Duration                         : 20mn 5s
Overall bit rate                 : 7 127 Kbps

Video
ID                               : 224 (0xE0)
Format                           : MPEG Video
Format version                   : Version 2
Format profile                   : Main@Main
Format settings, BVOP            : Yes
Format settings, Matrix          : Default
Format_Settings_GOP              : M=3, N=4
Duration                         : 20mn 5s
Bit rate mode                    : Variable
Bit rate                         : 6 204 Kbps
Nominal bit rate                 : 9 000 Kbps
Width                            : 720 pixels
Height                           : 576 pixels
Display aspect ratio             : 4:3
Frame rate                       : 25.000 fps
Standard                         : PAL
Resolution                       : 8 bits
Colorimetry                      : 4:2:0
Scan type                        : Interlaced
Scan order                       : Bottom Field First
Bits/(Pixel*Frame)               : 0.598
Stream size                      : 891 MiB (87%)

Audio #1
ID                               : 128 (0x80)
Format                           : AC-3
Format/Info                      : Audio Coding 3
Duration                         : 20mn 4s
Bit rate mode                    : Constant
Bit rate                         : 448 Kbps
Channel(s)                       : 6 channels
Channel positions                : Front: L C R, Side: L R, LFE
Sampling rate                    : 48.0 KHz
Stream size                      : 64.3 MiB (6%)

Audio #2
ID                               : 129 (0x81)
Format                           : AC-3
Format/Info                      : Audio Coding 3
Duration                         : 20mn 4s
Bit rate mode                    : Constant
Bit rate                         : 192 Kbps
Channel(s)                       : 1 channel
Channel positions                : Front: C
Sampling rate                    : 48.0 KHz
Stream size                      : 27.6 MiB (3%)

Menu
Скриншоты:



Время раздачи: 24/7 Тетралогия «Резидент» на трекереОшибка резидента (1968) DVD9 Судьба резидента (1970) DVD9 Возвращение резидента (1982) DVD9 Конец операции «Резидент» (1986) DVD9
VOZVRASCHENIE REZIDENTA.torrent
 Торрент: Платиновая раздача  Зарегистрирован
 
Скачать


Примагнититься
 Зарегистрирован:   10 Дек 2019 15:38:44
 Размер:   6.99 GB  (
 Рейтинг:   4.8 (Голосов: 80)
 Поблагодарили:   281
 Проверка:   Оформление проверено модератором 10 Дек 2019 15:49:14
Как cкачать  ·  Как раздать  ·  Правильно оформить  ·  Поднять ратио!  
antoshkov2

Online
Стаж: 14 лет 3 мес.
Сообщений: 43
Ratio: 31.756
100%
Откуда: Луцк
ukraine.gif
Огромное спасибо раздающему! Так держать!С помню молодость. Извините только меня, буду качать с 10 часов утра до 01 ночи.
SKVSM
Покровитель талантов
Uploader 100+ Реставратор
Стаж: 13 лет 6 мес.
Сообщений: 2012
Ratio: 557.708
Поблагодарили: 34861
100%
nnm-club.gif
gnomich_ap
Стаж: 13 лет 5 мес.
Сообщений: 3
Ratio: 4.118
2.33%
Ребята встаньте пожалуйста на раздачу, качаю уже пятый день
Показать сообщения:   
Начать новую тему   Ответить на тему    Торрент-трекер NNM-Club -> Классика кино и Старые фильмы до 90-х -> Отечественная Классика (DVD) Часовой пояс: GMT + 3
Страница 1 из 1