Классический форум-трекер
canvas not supported
Нас вместе: 4 232 303

Конец операции «Резидент» (1986) DVD9


 
 
RSS
Начать новую тему   Ответить на тему    Торрент-трекер NNM-Club -> Классика кино и Старые фильмы до 90-х -> Отечественная Классика (DVD)
Автор Сообщение
futura3000 ®
Uploader 100+
Стаж: 16 лет 6 мес.
Сообщений: 5676
Ratio: 328.447
Поблагодарили: 22069
100%
Конец операции «Резидент» (1986) DVD9
Русское название: Конец операции «Резидент»
Год выпуска: 1986
Жанр: Детектив
Производство: CCCP / Киностудия им. М. Горького
Описание фильма:
Четвертая, заключительная, часть знаменитого киноцикла по произведениям Олега Шмелева и Владимира Востокова. Перед тем, как операция "Резидент", длившаяся 15 лет, окончательно завершится в нашу пользу, империалисты решаются на страшное злодеяние: посылают матерого диверсанта Брикмана убить изобретателя сверхсекретного противоракетного оружия Нестерова. Фильм состоит из двух серий.
Режиссер: Вениамин Дорман
Актеры: Георгий Жжёнов, Пётр Вельяминов, Николай Прокопович, Евгений Герасимов, Леонид Броневой, Ирен Азер, Евгений Киндинов, Александр Граве, Ирина Розанова, Юлия Жженова, Борис Химичев, Леонид Ярмольник, Андрей Харитонов, Татьяна Окуневская, Леонардас Зельчус, Николай Бриллинг, Вадим Андреев, Вацлав Дворжецкий, Борис Иванов, Борис Клюев, Хейно Мандри, Нина Меньшикова, Алексей Миронов, Виктор Незнанов, Раиса Рязанова, Николай Засухин, Анна Фроловцева, Александр Савченко, Николай Кейль

Дата мировой премьеры: 12 мая 1986
Дата выхода DVD релиза: 19 ноября 2009, «Новый Диск»
Продолжительность: 01:07:04 + 01:09:34
Субтитры: Нет
Дополнительно: Фильмографии, Фотоальбом, Фотоальбом памяти Г. Жженова, Смотрите на DVD
Видеокодек: MPEG-2
Битрейт видео: ~5996 Кбит/с
Размер кадра: PAL 4:3 (720x576) VBR
Качество видео: DVD9
Аудио:
#1: AC3, 5 ch, 448 Кбит/с (Русский)
#2: AC3, 1 ch, 192 Кбит/с (Русский)
Код: выделить все
Title: THE_END_OF_REZIDENT
Size: 7.37 Gb ( 7 732 766,00 KBytes ) - DVD-9
Enabled regions: 1, 2, 3, 4, 5, 6, 7, 8

VTS_01 :
  Play Length: 00:00:10
  Video: PAL 4:3 (720x576) VBR

VTS_02 :
  Play Length: 00:00:21
  Video: PAL 4:3 (720x576) VBR
  Audio:
      Not specified (Dolby AC3, 6 ch)

VTS_03 :
  Play Length: 01:07:04
  Video: PAL 4:3 (720x576) VBR
  Audio:
      Russian (Dolby AC3, 5 ch)
      Russian (Dolby AC3, 1 ch)

VTS_04 :
  Play Length: 01:09:34
  Video: PAL 4:3 (720x576) VBR
  Audio:
      Russian, AC3, 3/2 (L,C,R,SL,SR)+LFE ch, 448 kbps, Delay 0 mSec
      Russian, AC3, 1/0 (C) ch, 192 kbps, Delay 0 mSec

VTS_05 :
  Play Length: 00:01:10
  Video: PAL 4:3 (720x576) VBR
  Audio:
      Not specified (Dolby AC3, 6 ch)

VTS_06 :
  Play Length: 00:06:24
  Video: PAL 4:3 (720x576) VBR
  Audio:
      Not specified (Dolby AC3, 6 ch)

VTS_07 :
  Play Length: 00:00:57
  Video: PAL 4:3 (720x576) VBR
  Audio:
      Russian (Dolby AC3, 3 ch)

VTS_08 :
  Play Length: 00:01:06
  Video: PAL 4:3 (720x576) VBR
  Audio:
      Russian (Dolby AC3, 3 ch)

VTS_09 :
  Play Length: 00:01:26
  Video: PAL 4:3 (720x576) VBR
  Audio:
      Russian (Dolby AC3, 3 ch)

VTS_10 :
  Play Length: 00:02:05
  Video: PAL 4:3 (720x576) VBR
  Audio:
      Russian (Dolby AC3, 3 ch)

VTS_11 :
  Play Length: 00:02:00
  Video: PAL 4:3 (720x576) VBR
  Audio:
      Russian (Dolby AC3, 3 ch)
Код: выделить все
General
Complete name                    : E:\THE_END_OF_REZIDENT\VIDEO_TS\VTS_03_1.VOB
Format                           : MPEG-PS
File size                        : 1 024 MiB
Duration                         : 20mn 42s
Overall bit rate                 : 6 910 Kbps

Video
ID                               : 224 (0xE0)
Format                           : MPEG Video
Format version                   : Version 2
Format profile                   : Main@Main
Format settings, BVOP            : Yes
Format settings, Matrix          : Default
Format_Settings_GOP              : M=3, N=4
Duration                         : 20mn 42s
Bit rate mode                    : Variable
Bit rate                         : 5 996 Kbps
Nominal bit rate                 : 9 000 Kbps
Width                            : 720 pixels
Height                           : 576 pixels
Display aspect ratio             : 4:3
Frame rate                       : 25.000 fps
Standard                         : PAL
Resolution                       : 8 bits
Colorimetry                      : 4:2:0
Scan type                        : Interlaced
Scan order                       : Bottom Field First
Bits/(Pixel*Frame)               : 0.578
Stream size                      : 888 MiB (87%)

Audio #1
ID                               : 128 (0x80)
Format                           : AC-3
Format/Info                      : Audio Coding 3
Duration                         : 20mn 42s
Bit rate mode                    : Constant
Bit rate                         : 448 Kbps
Channel(s)                       : 5 channels
Channel positions                : Front: L C R, Side: L R
Sampling rate                    : 48.0 KHz
Stream size                      : 66.4 MiB (6%)

Audio #2
ID                               : 129 (0x81)
Format                           : AC-3
Format/Info                      : Audio Coding 3
Duration                         : 20mn 42s
Bit rate mode                    : Constant
Bit rate                         : 192 Kbps
Channel(s)                       : 1 channel
Channel positions                : Front: C
Sampling rate                    : 48.0 KHz
Stream size                      : 28.4 MiB (3%)

Menu
Скриншоты:



Время раздачи: 24/7 Тетралогия «Резидент» на трекереОшибка резидента (1968) DVD9 Судьба резидента (1970) DVD9 Возвращение резидента (1982) DVD9 Конец операции «Резидент» (1986) DVD9
THE END OF REZIDENT.torrent
 Торрент: Платиновая раздача  Зарегистрирован
 
Скачать


Примагнититься
 Зарегистрирован:   10 Дек 2019 15:39:33
 Размер:   7.37 GB  (
 Рейтинг:   4.9 (Голосов: 65)
 Поблагодарили:   256
 Проверка:   Оформление проверено модератором 10 Дек 2019 15:48:38
Как cкачать  ·  Как раздать  ·  Правильно оформить  ·  Поднять ратио!  
antoshkov2
Стаж: 14 лет 3 мес.
Сообщений: 43
Ratio: 31.757
100%
Откуда: Луцк
ukraine.gif
Огромное спасибо раздающему! В вспомню молодость.
SKVSM
Покровитель талантов
Uploader 100+ Реставратор
Стаж: 13 лет 6 мес.
Сообщений: 2012
Ratio: 557.708
Поблагодарили: 34861
100%
nnm-club.gif
Asphyx
Uploaders
Стаж: 13 лет 7 мес.
Сообщений: 32
Ratio: 213.84
100%
russia.gif
Встаньте на раздачу пожалуйста
Показать сообщения:   
Начать новую тему   Ответить на тему    Торрент-трекер NNM-Club -> Классика кино и Старые фильмы до 90-х -> Отечественная Классика (DVD) Часовой пояс: GMT + 3
Страница 1 из 1