Классический форум-трекер
canvas not supported
Нас вместе: 4 235 046

Шесть демонов Эмили Роуз [Расширенная версия] / The Exorcism of Emily Rose [Unrated] (2005) BDRip [H.264/720p-LQ] [Hi10P]


 
 
RSS
Начать новую тему   Ответить на тему    Торрент-трекер NNM-Club -> Зарубежное кино -> Зарубежные Фильмы (HD, FHD)
Автор Сообщение
sinteros ®
Стаж: 15 лет 5 мес.
Сообщений: 562
Ratio: 65.353
Поблагодарили: 62356
100%
Шесть демонов Эмили Роуз [Расширенная версия] (2005)
BDRip [H.264/720p-LQ] [Hi10P]

Год выпуска: 2005
Страна: США
Жанр: ужасы, триллер, драма, криминал
Перевод: Професиональное (полное дублирование)
Оригинальная аудио дорожка: Английская + Коментарии
Язык субтитров: Русский (на непереведенные места), Русский, Английский
Вид субтитров: Вшитые (отключаемые)

Описание фильма: Фильм основан на реальных событиях. В 1976 году сеанс изгнания дьявола из молодой девушки закончился ее смертью. Священнику-экзорцисту, проводившему обряд, было предъявлено обвинение в убийстве, хотя процесс был официально инициирован католической церковью.
В поиске справедливости священник изучает историю появления на земле демона, погубившего девушку, и пытается доказать в суде факт существования потусторонних сил и их способность вмешиваться в жизнь людей…

Режиссер: Скотт Дерриксон

Актеры: Лаура Линни, Том Уилкинсон, Кэмпбелл Скотт, Дженнифер Карпентер, Колм Фиори, Джошуа Клоуз, Кеннет Уэлш, Дункан Фрайзер, ДжейАр Борн, Мэри Бет Херт, Генри Черны, Шоре Агдашлу, Стив Арчер, Arlene Belcastro, David Berner, Мэри Блэк, Джулиан Кристофер, Аарон Дуглас, Лорена Гэйл, Джордж Гордон, Ирис Грэхэм, Тейлор Хилл, Чела Хорсдэл, Джон Иннес, Джефф Джонсон, Michael Jonsson, Кэти Китинг, Теренс Келли, Darrin Maharaj, Райан МакДональд, Marilyn Norry, Joanna Piros, Марша Режис, Бобби Стюарт, Клэй Ст. Томас, Cori Lee Urhahn, Liduina Vanderspek, Эндрю Вилер

Качество видео: BDRip
Продолжительность: 02:01:45

< МОИ РЕЛИЗЫ >
Основной файл весит 1,94гб с одной звуковой дорожкой!

Видео: MPEG-4 AVC/H.264, 1280x534(2,40:1), 23,976fps, 1790 Кbps, 0.109bit/pixel
Аудио 1: DUB Russian, AC3, 6ch, 48 kHz, 448 kbps, (Дубляж)
Аудио 2: English, AC3, 6ch, 48 kHz, 448 kbps, (Оригинал) - Отдельным файлом
Аудио 3: English, AC3, 6ch, 48 kHz, 448 kbps, (Коментарии) - Отдельным файлом
Общее
Полное имя : Шесть демонов Эмили Роуз (2005) BDRip-AVC.mkv
Формат : Matroska
Версия формата : Version 4 / Version 2
Размер файла : 2,49 Гбайт
Продолжительность : 2 ч. 1 м.
Общий поток : 2924 Кбит/сек
Название фильма : Шесть демонов Эмили Роуз [Расширенная версия] / The Exorcism of Emily Rose [Unrated] (2005) BDRip-AVC (Sinteros)
Attachment : Yes

Видео
Идентификатор : 1
Формат : AVC
Формат/Информация : Advanced Video Codec
Профиль формата : High 10@L4.1
Параметр CABAC формата : Да
Параметр ReFrames формата : 11 кадров
Идентификатор кодека : V_MPEG4/ISO/AVC
Продолжительность : 2 ч. 1 м.
Битрейт : 1790 Кбит/сек
Ширина : 1280 пикселей
Высота : 534 пикселя
Соотношение сторон : 2,40:1
Режим частоты кадров : Постоянный
Частота кадров : 23,976 кадра/сек
Цветовое пространство : YUV
Субдискретизация насыщенности : 4:2:0
Битовая глубина : 10 бит
Тип развёртки : Прогрессивная
Бит/(Пиксели*Кадры) : 0.109
Размер потока : 1,51 Гбайт (61%)
Заголовок : MPEG-4 AVC/H.264, 1280x534(2,40:1), 23,976fps, 1790 Кbps, 0.109bit/pixel
Библиотека кодирования : x264 core 133 r2334 a3ac64b
Настройки программы : cabac=1 / ref=11 / deblock=1:-1:-1 / analyse=0x3:0x133 / me=tesa / subme=10 / psy=1 / psy_rd=1.00:0.15 / mixed_ref=1 / me_range=24 / chroma_me=1 / trellis=2 / 8x8dct=1 / cqm=0 / deadzone=21,11 / fast_pskip=1 / chroma_qp_offset=-3 / threads=12 / lookahead_threads=1 / sliced_threads=0 / nr=0 / decimate=1 / interlaced=0 / bluray_compat=0 / constrained_intra=0 / bframes=6 / b_pyramid=2 / b_adapt=2 / b_bias=0 / direct=1 / weightb=1 / open_gop=0 / weightp=2 / keyint=250 / keyint_min=23 / scenecut=40 / intra_refresh=0 / rc_lookahead=60 / rc=crf / mbtree=1 / crf=19.0 / qcomp=0.60 / qpmin=0 / qpmax=81 / qpstep=4 / ip_ratio=1.40 / aq=1:1.00
Язык : English
Default : Да
Forced : Нет

Аудио #1
Идентификатор : 2
Формат : AC-3
Формат/Информация : Audio Coding 3
Расширение режима : CM (complete main)
Параметр Endianness формата : Big
Идентификатор кодека : A_AC3
Продолжительность : 2 ч. 1 м.
Вид битрейта : Постоянный
Битрейт : 448 Кбит/сек
Каналы : 6 каналов
Расположение каналов : Front: L C R, Side: L R, LFE
Частота : 48,0 КГц
Битовая глубина : 16 бит
Метод сжатия : С потерями
Размер потока : 390 Мбайт (15%)
Заголовок : DUB Russian, AC3, 6ch, 48 kHz, 448 kbps, (Дубляж) - Отдельным файлом
Язык : Russian
Default : Да
Forced : Нет

Аудио #2 - Отдельным файлом
Идентификатор : 3
Формат : AC-3
Формат/Информация : Audio Coding 3
Расширение режима : CM (complete main)
Параметр Endianness формата : Big
Идентификатор кодека : A_AC3
Продолжительность : 2 ч. 1 м.
Вид битрейта : Постоянный
Битрейт : 448 Кбит/сек
Каналы : 6 каналов
Расположение каналов : Front: L C R, Side: L R, LFE
Частота : 48,0 КГц
Битовая глубина : 16 бит
Метод сжатия : С потерями
Размер потока : 390 Мбайт (15%)
Заголовок : English, AC3, 6ch, 48 kHz, 448 kbps, (Оригинал) - Отдельным файлом
Язык : English
Default : Нет
Forced : Нет

Аудио #3 - Отдельным файлом
Идентификатор : 4
Формат : AC-3
Формат/Информация : Audio Coding 3
Профиль формата : Dolby Digital
Расширение режима : CM (complete main)
Параметр Endianness формата : Big
Идентификатор кодека : A_AC3
Продолжительность : 2 ч. 1 м.
Вид битрейта : Постоянный
Битрейт : 192 Кбит/сек
Каналы : 2 канала
Расположение каналов : Front: L R
Частота : 48,0 КГц
Битовая глубина : 16 бит
Метод сжатия : С потерями
Размер потока : 167 Мбайт (7%)
Заголовок : English, AC3, 6ch, 48 kHz, 448 kbps, (Коментарии) - Отдельным файлом
Язык : English
Default : Нет
Forced : Нет

Текст #1
Идентификатор : 5
Формат : UTF-8
Идентификатор кодека : S_TEXT/UTF8
Идентификатор кодека/Информация : UTF-8 Plain Text
Заголовок : На непереведенные места
Язык : Russian
Default : Да
Forced : Нет

Текст #2
Идентификатор : 6
Формат : UTF-8
Идентификатор кодека : S_TEXT/UTF8
Идентификатор кодека/Информация : UTF-8 Plain Text
Язык : Russian
Default : Нет
Forced : Нет

Текст #3
Идентификатор : 7
Формат : UTF-8
Идентификатор кодека : S_TEXT/UTF8
Идентификатор кодека/Информация : UTF-8 Plain Text
Язык : English
Default : Нет
Forced : Нет

Меню
00:00:00.000 : en:
00:08:16.162 : en:
00:16:20.312 : en:
00:24:53.158 : en:
00:35:19.867 : en:
00:40:52.950 : en:
00:47:59.501 : en:
00:55:04.843 : en:
01:02:27.869 : en:
01:11:08.889 : en:
01:20:55.684 : en:
01:25:22.826 : en:
01:36:20.024 : en:
01:43:45.302 : en:
01:50:38.715 : en:
01:53:23.671 : en:
Примечание: Рип в High 10 Profile, в настоящее время не поддерживается большинством аппаратных проигрывателей, поэтому предназначен исключительно для воспроизведения на ПК. Для корректного воспроизведения может потребоваться обновление ПО.

Скриншоты:



Шесть демонов Эмили Роуз на NNM-club

Время раздачи: 24/7 (жду до 10-15 скачавших а дальше могу уйти с радачи)
[NNM-Club.me]_SHest' demonov YEmili Rouz (2005) BDRip-AVC.torrent
 Торрент: Платиновая раздача  Зарегистрирован
 
Скачать


Примагнититься
 Зарегистрирован:   07 Янв 2015 22:39:54
 Размер:   2.49 GB  (
 Рейтинг:   4.7 (Голосов: 80)
 Поблагодарили:   293
 Проверка:   Оформление проверено модератором 08 Янв 2015 09:49:43
Как cкачать  ·  Как раздать  ·  Правильно оформить  ·  Поднять ратио!  
stels20
Стаж: 14 лет 8 мес.
Сообщений: 425
Ratio: 2.941
Поблагодарили: 326
100%
belgium.gif
хороший фильм,спасибо за раздачу.
Olegazz
Стаж: 11 лет 1 мес.
Сообщений: 160
Ratio: 19.37
100%
Откуда: Киев
ukraine.gif
один из лучших на эту тему
proEtt
Только чтение
Стаж: 11 лет
Сообщений: 342
Ratio: 15.965
Раздал: 4.838 TB
100%
Откуда: Забулдыгово
philippines.gif
шедевр!
qwwertylo​adrunner​
Стаж: 10 лет 4 мес.
Сообщений: 803
Ratio: 9.63
100%
Откуда: бы ни был
ussr.gif
Да фильм действительно очень классно сделан, лучшее на эту тему со времен "Экзорциста"!
mac15
Стаж: 10 лет 9 мес.
Сообщений: 19
Ratio: 5.2
100%
Откуда: Екатеринбург
russia.gif
Согласен, шедевр на тему "Экзорцизм"
Артем Ивочкин
 
Стаж: 13 лет 8 мес.
Сообщений: 979
Ratio: 48.552
Поблагодарили: 5485
100%
russia.gif
Классика.
Можно смело положить на полочку достойных фильмов.
Интересный, неглупый, сюжет захватывает, актерская игра очень на уровне.

_________________
с уважением.
sinteros ®
Стаж: 15 лет 5 мес.
Сообщений: 562
Ratio: 65.353
Поблагодарили: 62356
100%
stels20 писал(а): Перейти к сообщению
хороший фильм,спасибо за раздачу.

Пожалуйста!

qwwertyloadrunner писал(а): Перейти к сообщению
Да фильм действительно очень классно сделан, лучшее на эту тему со времен "Экзорциста"!


Пожалуй один из лучших фильмов в этом жанре.

И хорошо что вы мне напомнили надо бы сделать на следующей неделе ""Изгоняющий дьявола (1973)"
#ramcram
Uploader 1000+
Стаж: 17 лет 5 мес.
Сообщений: 948
Ratio: 649.135
Поблагодарили: 80
100%
ussr.gif
Артем Ивочкин писал(а): Перейти к сообщению
Классика.
Можно смело положить на полочку достойных фильмов.
Интересный, неглупый, сюжет захватывает, актерская игра очень на уровне.

Присоединяюсь.
Vaabster
Стаж: 14 лет 5 мес.
Сообщений: 110
Ratio: 4.269
1.37%
Качество очень плохое, странно, что никто не написал. Только у меня?
sinteros ®
Стаж: 15 лет 5 мес.
Сообщений: 562
Ratio: 65.353
Поблагодарили: 62356
100%
Vaabster писал(а): Перейти к сообщению
Качество очень плохое, странно, что никто не написал. Только у меня?


Хотелось бы узнать в чем выражается это плохое качество?
В 99 случаях из 100 как правило это несовместимость с 10 битным форматом вашего плеера. Что в свою очередь приводит к рассыпанию картинки на пиксели и другим неприятным последствиям.
Показать сообщения:   
Начать новую тему   Ответить на тему    Торрент-трекер NNM-Club -> Зарубежное кино -> Зарубежные Фильмы (HD, FHD) Часовой пояс: GMT + 3
Страница 1 из 1