Классический форум-трекер
canvas not supported
Нас вместе: 4 235 058

Замужем за мафией / Married to the Mob (1988) BDRip [H.264/720p-LQ] [Hi10P]


 
 
RSS
Начать новую тему   Ответить на тему    Торрент-трекер NNM-Club -> Классика кино и Старые фильмы до 90-х -> Старые Зарубежные Фильмы (HD, FHD, UHD, 3D)
Автор Сообщение
sinteros ®
Стаж: 15 лет 5 мес.
Сообщений: 562
Ratio: 65.353
Поблагодарили: 62356
100%
Замужем за мафией / Married to the Mob (1988)
BDRip [H.264/720p-LQ] [Hi10P]

Год выпуска: 1988
Производство: США
Жанр: триллер, Эротика, драма, мелодрама
Перевод: Дублированный, Многоголосый, Двухголосый х4, Авторский х3
Оригинальная аудио дорожка: Английская
Язык субтитров: Английский
Вид субтитров: Вшитые (отключаемые)

Описание фильма: Начинается все на Лонг-Айленде, где дома набиты дорогой средиземноморской мебелью, люди одеваются в дорогие костюмы в полосочку, а женщины проводят почти все время в парикмахерских. Анжеле Де Марко, жене подающего надежды гангстера Фрэнка «Огурца» Де Марко, надоела криминальная ментальность окружающих ее людей, и она хочет смены обстановки.
После того как Огурца застукал со своей любовницей и убил босс мафии Дон Тони «Тигр» Руссо, двое агентов ФБР решили, что Анжела и Тони состоят в любовной связи. Анжела вместе с сыном переезжает в квартирку на Манхэттэне, но агенты продолжают слежку, связывая уже ее деятельность с грязными делами мафии. Конечно, в соответствующий момент между Анжелой и агентом Майком Дауни вспыхивает страсть...

Режиссер: Джонатан Демме

Актеры: Мишель Пфайффер, Мэттью Модайн, Дин Стокуэлл, Мерседес Руэль, Алек Болдуин, Нэнси Трэвис, Оливер Платт, Джоан Кьюсак, Эллен Фоли, О-Лан Джонс

Качество видео: BDRip
Продолжительность: 01:44:03

< МОИ РЕЛИЗЫ >
Основной файл весит 2,32гб с одной звуковой дорожкой!

Видео: MPEG-4 AVC/H.264, 1280x694(1,85:1), 23,976fps, 2941 Кbps, 0.138bit/pixel
Аудио 1: DVO Russian, AC3, 2ch, 48 kHz, 192 kbps, (Двухголосый - НТВ+)
Аудио 2: DUB Russian, AC3, 2ch, 48 kHz, 192 kbps, (Дубляж) - Отдельным файлом
Аудио 3: MVO Russian, AC3, 2ch, 48 kHz, 192 kbps, (Многоголосый) - Отдельным файлом
Аудио 4: DVO Russian, AC3, 2ch, 48 kHz, 192 kbps, (Двухголосый - НТВ) - Отдельным файлом
Аудио 5: DVO Russian, AC3, 2ch, 48 kHz, 192 kbps, (Двухголосый - LazerVideo) - Отдельным файлом
Аудио 6: DVO Russian, AC3, 2ch, 48 kHz, 192 kbps, (Двухголосый - SDI Media) - Отдельным файлом
Аудио 7: AVO Russian, AC3, 2ch, 48 kHz, 192 kbps, (Одноголосый - Сербин) - Отдельным файлом
Аудио 8: AVO Russian, AC3, 2ch, 48 kHz, 192 kbps, (Одноголосый - Михалёв) - Отдельным файлом
Аудио 9: AVO Russian, AC3, 2ch, 48 kHz, 192 kbps, (Одноголосый - Живов) - Отдельным файлом
Аудио 10: MVO Ukrainian, AC3, 2ch, 48 kHz, 192 kbps, (Оригинал) - Отдельным файлом
Аудио 11: English, AC3, 2ch, 48 kHz, 192 kbps, (Оригинал) - Отдельным файлом

Примечание: Рип в High 10 Profile, в настоящее время не поддерживается большинством аппаратных проигрывателей, поэтому предназначен исключительно для воспроизведения на ПК. Для корректного воспроизведения может потребоваться обновление ПО.
Общее
Уникальный идентификатор : 206075796356000873348466703397551227743 (0x9B08C1341EDDCA7189B9C81FCE12435F)
Полное имя : S:\Замужем за мафией (1988) BDRip-AVC\Скриншоты\Замужем за мафией (1988) BDRip-AVC.mkv
Формат : Matroska
Версия формата : Version 4 / Version 2
Размер файла : 3,72 Гбайт
Продолжительность : 1 ч. 44 м.
Общий поток : 5119 Кбит/сек
Название фильма : Замужем за мафией / Married to the Mob (1988) BDRip-AVC (Sinteros)
Дата кодирования : UTC 2015-01-29 23:22:10
Программа кодирования : mkvmerge v6.9.1 ('Blue Panther') 64bit built on Apr 18 2014 18:23:38
Библиотека кодирования : libebml v1.3.0 + libmatroska v1.4.1
Attachment : Yes

Видео
Идентификатор : 1
Формат : AVC
Формат/Информация : Advanced Video Codec
Профиль формата : High 10@L4.1
Параметр CABAC формата : Да
Параметр ReFrames формата : 11 кадров
Идентификатор кодека : V_MPEG4/ISO/AVC
Продолжительность : 1 ч. 44 м.
Битрейт : 2941 Кбит/сек
Ширина : 1280 пикселей
Высота : 694 пикселя
Соотношение сторон : 1,85:1
Режим частоты кадров : Постоянный
Частота кадров : 23,976 кадра/сек
Цветовое пространство : YUV
Субдискретизация насыщенности : 4:2:0
Битовая глубина : 10 бит
Тип развёртки : Прогрессивная
Бит/(Пиксели*Кадры) : 0.138
Размер потока : 2,11 Гбайт (57%)
Заголовок : MPEG-4 AVC/H.264, 1280x694(1,85:1), 23,976fps, 2941 Кbps, 0.138bit/pixel
Библиотека кодирования : x264 core 133 r2334 a3ac64b
Настройки программы : cabac=1 / ref=11 / deblock=1:-1:-1 / analyse=0x3:0x133 / me=tesa / subme=10 / psy=1 / psy_rd=1.00:0.15 / mixed_ref=1 / me_range=24 / chroma_me=1 / trellis=2 / 8x8dct=1 / cqm=0 / deadzone=21,11 / fast_pskip=1 / chroma_qp_offset=-3 / threads=12 / lookahead_threads=1 / sliced_threads=0 / nr=0 / decimate=1 / interlaced=0 / bluray_compat=0 / constrained_intra=0 / bframes=6 / b_pyramid=2 / b_adapt=2 / b_bias=0 / direct=1 / weightb=1 / open_gop=0 / weightp=2 / keyint=250 / keyint_min=23 / scenecut=40 / intra_refresh=0 / rc_lookahead=60 / rc=crf / mbtree=1 / crf=22.7 / qcomp=0.60 / qpmin=0 / qpmax=81 / qpstep=4 / ip_ratio=1.40 / aq=1:1.00
Язык : English
Default : Да
Forced : Нет

Аудио #1
Идентификатор : 2
Формат : AC-3
Формат/Информация : Audio Coding 3
Расширение режима : CM (complete main)
Параметр Endianness формата : Big
Идентификатор кодека : A_AC3
Продолжительность : 1 ч. 44 м.
Вид битрейта : Постоянный
Битрейт : 192 Кбит/сек
Каналы : 2 канала
Расположение каналов : Front: L R
Частота : 48,0 КГц
Битовая глубина : 16 бит
Метод сжатия : С потерями
Размер потока : 143 Мбайт (4%)
Заголовок : DVO Russian, AC3, 2ch, 48 kHz, 192 kbps, (Двухголосый - НТВ+) - Отдельным файлом
Язык : Russian
Default : Да
Forced : Нет

Аудио #2 - Отдельным файлом
Идентификатор : 3
Формат : AC-3
Формат/Информация : Audio Coding 3
Расширение режима : CM (complete main)
Параметр Endianness формата : Big
Идентификатор кодека : A_AC3
Продолжительность : 1 ч. 44 м.
Вид битрейта : Постоянный
Битрейт : 192 Кбит/сек
Каналы : 2 канала
Расположение каналов : Front: L R
Частота : 48,0 КГц
Битовая глубина : 16 бит
Метод сжатия : С потерями
Размер потока : 143 Мбайт (4%)
Заголовок : DUB Russian, AC3, 2ch, 48 kHz, 192 kbps, (Дубляж)
Язык : Russian
Default : Нет
Forced : Нет

Аудио #3 - Отдельным файлом
Идентификатор : 4
Формат : AC-3
Формат/Информация : Audio Coding 3
Расширение режима : CM (complete main)
Параметр Endianness формата : Big
Идентификатор кодека : A_AC3
Продолжительность : 1 ч. 44 м.
Вид битрейта : Постоянный
Битрейт : 192 Кбит/сек
Каналы : 2 канала
Расположение каналов : Front: L R
Частота : 48,0 КГц
Битовая глубина : 16 бит
Метод сжатия : С потерями
Размер потока : 143 Мбайт (4%)
Заголовок : MVO Russian, AC3, 2ch, 48 kHz, 192 kbps, (Многоголосый) - Отдельным файлом
Язык : Russian
Default : Нет
Forced : Нет

Аудио #4 - Отдельным файлом
Идентификатор : 5
Формат : AC-3
Формат/Информация : Audio Coding 3
Расширение режима : CM (complete main)
Параметр Endianness формата : Big
Идентификатор кодека : A_AC3
Продолжительность : 1 ч. 44 м.
Вид битрейта : Постоянный
Битрейт : 192 Кбит/сек
Каналы : 2 канала
Расположение каналов : Front: L R
Частота : 48,0 КГц
Битовая глубина : 16 бит
Метод сжатия : С потерями
Размер потока : 143 Мбайт (4%)
Заголовок : DVO Russian, AC3, 2ch, 48 kHz, 192 kbps, (Двухголосый - НТВ) - Отдельным файлом
Язык : Russian
Default : Нет
Forced : Нет

Аудио #5 - Отдельным файлом
Идентификатор : 6
Формат : AC-3
Формат/Информация : Audio Coding 3
Расширение режима : CM (complete main)
Параметр Endianness формата : Big
Идентификатор кодека : A_AC3
Продолжительность : 1 ч. 44 м.
Вид битрейта : Постоянный
Битрейт : 192 Кбит/сек
Каналы : 2 канала
Расположение каналов : Front: L R
Частота : 48,0 КГц
Битовая глубина : 16 бит
Метод сжатия : С потерями
Размер потока : 143 Мбайт (4%)
Заголовок : DVO Russian, AC3, 2ch, 48 kHz, 192 kbps, (Двухголосый - LazerVideo) - Отдельным файлом
Язык : Russian
Default : Нет
Forced : Нет

Аудио #6 - Отдельным файлом
Идентификатор : 7
Формат : AC-3
Формат/Информация : Audio Coding 3
Расширение режима : CM (complete main)
Параметр Endianness формата : Big
Идентификатор кодека : A_AC3
Продолжительность : 1 ч. 44 м.
Вид битрейта : Постоянный
Битрейт : 192 Кбит/сек
Каналы : 2 канала
Расположение каналов : Front: L R
Частота : 48,0 КГц
Битовая глубина : 16 бит
Метод сжатия : С потерями
Размер потока : 143 Мбайт (4%)
Заголовок : DVO Russian, AC3, 2ch, 48 kHz, 192 kbps, (Двухголосый - SDI Media) - Отдельным файлом
Язык : Russian
Default : Нет
Forced : Нет

Аудио #7 - Отдельным файлом
Идентификатор : 8
Формат : AC-3
Формат/Информация : Audio Coding 3
Расширение режима : CM (complete main)
Параметр Endianness формата : Big
Идентификатор кодека : A_AC3
Продолжительность : 1 ч. 44 м.
Вид битрейта : Постоянный
Битрейт : 192 Кбит/сек
Каналы : 2 канала
Расположение каналов : Front: L R
Частота : 48,0 КГц
Битовая глубина : 16 бит
Метод сжатия : С потерями
Размер потока : 143 Мбайт (4%)
Заголовок : AVO Russian, AC3, 2ch, 48 kHz, 192 kbps, (Одноголосый - Сербин) - Отдельным файлом
Язык : Russian
Default : Нет
Forced : Нет

Аудио #8 - Отдельным файлом
Идентификатор : 9
Формат : AC-3
Формат/Информация : Audio Coding 3
Расширение режима : CM (complete main)
Параметр Endianness формата : Big
Идентификатор кодека : A_AC3
Продолжительность : 1 ч. 44 м.
Вид битрейта : Постоянный
Битрейт : 192 Кбит/сек
Каналы : 2 канала
Расположение каналов : Front: L R
Частота : 48,0 КГц
Битовая глубина : 16 бит
Метод сжатия : С потерями
Размер потока : 143 Мбайт (4%)
Заголовок : AVO Russian, AC3, 2ch, 48 kHz, 192 kbps, (Одноголосый - Михалёв) - Отдельным файлом
Язык : Russian
Default : Нет
Forced : Нет

Аудио #9 - Отдельным файлом
Идентификатор : 10
Формат : AC-3
Формат/Информация : Audio Coding 3
Расширение режима : CM (complete main)
Параметр Endianness формата : Big
Идентификатор кодека : A_AC3
Продолжительность : 1 ч. 44 м.
Вид битрейта : Постоянный
Битрейт : 192 Кбит/сек
Каналы : 2 канала
Расположение каналов : Front: L R
Частота : 48,0 КГц
Битовая глубина : 16 бит
Метод сжатия : С потерями
Размер потока : 143 Мбайт (4%)
Заголовок : AVO Russian, AC3, 2ch, 48 kHz, 192 kbps, (Одноголосый - Живов) - Отдельным файлом
Язык : Russian
Default : Нет
Forced : Нет

Аудио #10 - Отдельным файлом
Идентификатор : 11
Формат : AC-3
Формат/Информация : Audio Coding 3
Расширение режима : CM (complete main)
Параметр Endianness формата : Big
Идентификатор кодека : A_AC3
Продолжительность : 1 ч. 44 м.
Вид битрейта : Постоянный
Битрейт : 192 Кбит/сек
Каналы : 2 канала
Расположение каналов : Front: L R
Частота : 48,0 КГц
Битовая глубина : 16 бит
Метод сжатия : С потерями
Размер потока : 143 Мбайт (4%)
Заголовок : MVO Ukrainian, AC3, 2ch, 48 kHz, 192 kbps, (Многоголосый) - Отдельным файлом
Язык : Ukrainian
Default : Нет
Forced : Нет

Аудио #11 - Отдельным файлом
Идентификатор : 12
Формат : AC-3
Формат/Информация : Audio Coding 3
Расширение режима : CM (complete main)
Параметр Endianness формата : Big
Идентификатор кодека : A_AC3
Продолжительность : 1 ч. 44 м.
Вид битрейта : Постоянный
Битрейт : 192 Кбит/сек
Каналы : 2 канала
Расположение каналов : Front: L R
Частота : 48,0 КГц
Битовая глубина : 16 бит
Метод сжатия : С потерями
Размер потока : 143 Мбайт (4%)
Заголовок : English, AC3, 2ch, 48 kHz, 192 kbps, (Оригинал) - Отдельным файлом
Язык : English
Default : Нет
Forced : Нет

Текст
Идентификатор : 13
Формат : UTF-8
Идентификатор кодека : S_TEXT/UTF8
Идентификатор кодека/Информация : UTF-8 Plain Text
Язык : English
Default : Нет
Forced : Нет

Меню
00:00:00.000 : en:
00:11:58.634 : en:
00:24:50.405 : en:
00:40:36.183 : en:
00:49:45.899 : en:
01:05:33.929 : en:
01:18:39.339 : en:
01:31:29.484 : en:
Скриншоты:


Замужем за мафией на NNM-club

Время раздачи: 24/7 (жду до 10-15 скачавших а дальше могу уйти с радачи)
[NNM-Club.me]_Zamuzhem za mafiey (1988) BDRip-AVC.torrent
 Торрент: Платиновая раздача  Зарегистрирован
 
Скачать


Примагнититься
 Зарегистрирован:   30 Янв 2015 03:19:51
 Размер:   3.72 GB  (
 Рейтинг:   4.5 (Голосов: 40)
 Поблагодарили:   125
 Проверка:   Оформление проверено модератором 01 Фев 2015 18:27:37
Как cкачать  ·  Как раздать  ·  Правильно оформить  ·  Поднять ратио!  
as-him
Uploader 500+
Стаж: 10 лет 4 мес.
Сообщений: 347
Ratio: 7382.475
100%
ussr.gif
Смотрел четверть века назад. Тогда понравился. Пфайффер бесподобна. Спасибо за релиз.
Ignotus
 
Стаж: 11 лет 8 мес.
Сообщений: 2328
Ratio: 5066.363
100%
ussr.gif
Да-а, как давно это было... Фильм классный.

_________________
В этом мире нет секретов, даже если все думают, что это только их секрет.
Показать сообщения:   
Начать новую тему   Ответить на тему    Торрент-трекер NNM-Club -> Классика кино и Старые фильмы до 90-х -> Старые Зарубежные Фильмы (HD, FHD, UHD, 3D) Часовой пояс: GMT + 3
Страница 1 из 1