Классический форум-трекер
canvas not supported
Нас вместе: 4 235 053

Попутчик: Начало, или Кровавый автостоп / Autostop rosso sangue (1977) BDRip [H.264/720p-LQ] [Hi10P]


 
 
RSS
Начать новую тему   Ответить на тему    Торрент-трекер NNM-Club -> Классика кино и Старые фильмы до 90-х -> Старые Зарубежные Фильмы (HD, FHD, UHD, 3D)
Автор Сообщение
sinteros ®
Стаж: 15 лет 5 мес.
Сообщений: 562
Ratio: 65.353
Поблагодарили: 62356
100%
Попутчик: Начало, или Кровавый автостоп / Autostop rosso sangue (1977)
BDRip [H.264/720p-LQ] [Hi10P]

Год выпуска: 1977
Производство: Италия
Жанр: триллер, драма, криминал
Перевод: Профессиональный (многоголосый, закадровый)
Оригинальная аудио дорожка: Итальянская
Язык субтитров: Русский
Вид субтитров: Вшитые (отключаемые)

Описание фильма: Разваливающийся брак циничного и жестокого журналиста Уолтера Манчини и дочери его начальника ждет чудовищное испытание на прочность. На безлюдной дороге они подсадили в машину улыбчивого, кудрявого молодого человека, который услужливо готов распахнуть обреченной супружеской чете ворота в преисподнюю.

Режиссер: Паскуале Феста Кампаниле

Актеры: Франко Неро, Коринн Клери, Дэвид Хесс, Джошуа Синклер, Карло Пури, Игнацио Спалла, Леонардо Скавино, Моника Занчи, Бенито Пачифико, Анджело Рагуса

Качество видео: BDRip
Продолжительность: 01:43:42

< МОИ РЕЛИЗЫ >
Основной файл весит 2,58гб с одной звуковой дорожкой!

Видео: MPEG-4 AVC/H.264, 1280x692(1,85:1), 23,976fps, 3305 Кbps, 0.156bit/pixel
Аудио 1: MVO Russian, AC3, 2ch, 48 kHz, 192 kbps, (Многоголосый - Cinema Prestige) - Отдельным файлом
Аудио 2: English DUB, AC3, 2ch, 48 kHz, 192 kbps, (Дубляж) - Отдельным файлом
Аудио 3: Italian, AC3, 2ch, 48 kHz, 192 kbps, (Оригинал) - Отдельным файлом

Примечание: Рип в High 10 Profile, в настоящее время не поддерживается большинством аппаратных проигрывателей, поэтому предназначен исключительно для воспроизведения на ПК. Для корректного воспроизведения может потребоваться обновление ПО.
Общее
Полное имя : S:\Попутчик - Начало, или Кровавый автостоп (1977) BDRip-AVC\Скриншоты\Попутчик - Начало, или Кровавый автостоп (1977) BDRip-AVC.mkv
Формат : Matroska
Версия формата : Version 4 / Version 2
Размер файла : 2,87 Гбайт
Продолжительность : 1 ч. 44 м.
Общий поток : 3940 Кбит/сек
Название фильма : Попутчик: Начало, или Кровавый автостоп / Autostop rosso sangue (1977) BDRip-AVC (Sinteros)
Attachment : Yes

Видео
Идентификатор : 1
Формат : AVC
Формат/Информация : Advanced Video Codec
Профиль формата : High 10@L4.1
Параметр CABAC формата : Да
Параметр ReFrames формата : 11 кадров
Идентификатор кодека : V_MPEG4/ISO/AVC
Продолжительность : 1 ч. 44 м.
Битрейт : 3305 Кбит/сек
Ширина : 1280 пикселей
Высота : 692 пикселя
Соотношение сторон : 1,85:1
Режим частоты кадров : Постоянный
Частота кадров : 23,976 кадра/сек
Цветовое пространство : YUV
Субдискретизация насыщенности : 4:2:0
Битовая глубина : 10 бит
Тип развёртки : Прогрессивная
Бит/(Пиксели*Кадры) : 0.156
Размер потока : 2,39 Гбайт (83%)
Заголовок : MPEG-4 AVC/H.264, 1280x692(1,85:1), 23,976fps, 3305 Кbps, 0.156bit/pixel
Библиотека кодирования : x264 core 133 r2334 a3ac64b
Настройки программы : cabac=1 / ref=11 / deblock=1:-1:-1 / analyse=0x3:0x133 / me=tesa / subme=10 / psy=1 / psy_rd=1.00:0.15 / mixed_ref=1 / me_range=24 / chroma_me=1 / trellis=2 / 8x8dct=1 / cqm=0 / deadzone=21,11 / fast_pskip=1 / chroma_qp_offset=-3 / threads=12 / lookahead_threads=1 / sliced_threads=0 / nr=0 / decimate=1 / interlaced=0 / bluray_compat=0 / constrained_intra=0 / bframes=6 / b_pyramid=2 / b_adapt=2 / b_bias=0 / direct=1 / weightb=1 / open_gop=0 / weightp=2 / keyint=250 / keyint_min=23 / scenecut=40 / intra_refresh=0 / rc_lookahead=60 / rc=crf / mbtree=1 / crf=23.5 / qcomp=0.60 / qpmin=0 / qpmax=81 / qpstep=4 / ip_ratio=1.40 / aq=1:1.00
Язык : Italian
Default : Да
Forced : Нет

Аудио #1
Идентификатор : 2
Формат : AC-3
Формат/Информация : Audio Coding 3
Расширение режима : CM (complete main)
Параметр Endianness формата : Big
Идентификатор кодека : A_AC3
Продолжительность : 1 ч. 44 м.
Вид битрейта : Постоянный
Битрейт : 192 Кбит/сек
Каналы : 2 канала
Расположение каналов : Front: L R
Частота : 48,0 КГц
Битовая глубина : 16 бит
Метод сжатия : С потерями
Размер потока : 143 Мбайт (5%)
Заголовок : MVO Russian, AC3, 2ch, 48 kHz, 192 kbps, (Многоголосый - Cinema Prestige) - Отдельным файлом
Язык : Russian
Default : Да
Forced : Нет

Аудио #2 - Отдельным файлом
Идентификатор : 3
Формат : AC-3
Формат/Информация : Audio Coding 3
Расширение режима : CM (complete main)
Параметр Endianness формата : Big
Идентификатор кодека : A_AC3
Продолжительность : 1 ч. 44 м.
Вид битрейта : Постоянный
Битрейт : 192 Кбит/сек
Каналы : 2 канала
Расположение каналов : Front: L R
Частота : 48,0 КГц
Битовая глубина : 16 бит
Метод сжатия : С потерями
Размер потока : 143 Мбайт (5%)
Заголовок : English DUB, AC3, 2ch, 48 kHz, 192 kbps, (Дубляж) - Отдельным файлом
Язык : English
Default : Нет
Forced : Нет

Аудио #3 - Отдельным файлом
Идентификатор : 4
Формат : AC-3
Формат/Информация : Audio Coding 3
Расширение режима : CM (complete main)
Параметр Endianness формата : Big
Идентификатор кодека : A_AC3
Продолжительность : 1 ч. 44 м.
Вид битрейта : Постоянный
Битрейт : 192 Кбит/сек
Каналы : 2 канала
Расположение каналов : Front: L R
Частота : 48,0 КГц
Битовая глубина : 16 бит
Метод сжатия : С потерями
Размер потока : 143 Мбайт (5%)
Заголовок : Italian, AC3, 2ch, 48 kHz, 192 kbps, (Оригинал) - Отдельным файлом
Язык : Italian
Default : Нет
Forced : Нет

Текст
Идентификатор : 5
Формат : UTF-8
Идентификатор кодека : S_TEXT/UTF8
Идентификатор кодека/Информация : UTF-8 Plain Text
Язык : Russian
Default : Нет
Forced : Нет

Меню
00:00:00.000 : en:
00:11:49.582 : en:
00:16:25.985 : en:
00:21:51.267 : en:
00:32:39.582 : en:
00:42:02.893 : en:
00:49:51.947 : en:
01:00:28.750 : en:
01:05:30.550 : en:
01:17:46.203 : en:
01:29:04.129 : en:
01:34:35.627 : en:
01:43:42.631 : en:
Скриншоты:



Попутчик: Начало, или Кровавый автостоп на NNM-club

Время раздачи: 24/7 (жду до 10-15 скачавших а дальше могу уйти с радачи)
[NNM-Club.me]_Poputchik - Nachalo, ili Krovavyiy avtostop (1977) BDRip-AVC.torrent
 Торрент: Платиновая раздача  Зарегистрирован
 
Скачать


Примагнититься
 Зарегистрирован:   06 Фев 2015 17:35:09
 Размер:   2.87 GB  (
 Рейтинг:   4.6 (Голосов: 52)
 Поблагодарили:   242
 Проверка:   Оформление проверено модератором 06 Фев 2015 20:30:25
Как cкачать  ·  Как раздать  ·  Правильно оформить  ·  Поднять ратио!  
nickpoll
Стаж: 13 лет 4 мес.
Сообщений: 73
Ratio: 12.296
100%
ussr.gif
Тётя с ружьём, да таким ... эмм ... рейтингом. Хм, надо глянуть.
Спасибо за релиз!
maldoror666
Стаж: 14 лет 1 мес.
Сообщений: 4771
Ratio: 18.761
100%
хотя классический Попутчик с шикарным Хауэром здесь напрочь притянут за уши, смотреть можно - Неро породистый актер, да и Клери - знакомая многим по Блефу с Челентано, а эстетам по Истории О - бегающая иногда нагишом а иногда с ружом отрада для глаз. лучше смотреть самостоятельно, без ссылок на оригинал Попутчика. кин неплох
akamay
Стаж: 12 лет
Сообщений: 441
Ratio: 4.314
100%
Откуда: Горно-Алтайск
ussr.gif
Глядел его лет шесть назад, запомнился. Атмосферно снято.

_________________
а что толку, все равно все бессмысленно
mvclub
Стаж: 12 лет 1 мес.
Сообщений: 2253
Ratio: 24.924
Раздал: 6.864 TB
Поблагодарили: 38873
100%
Откуда: Питер
russia.gif
maldoror666 писал(а): Перейти к сообщению
хотя классический Попутчик с шикарным Хауэром здесь напрочь притянут за уши... лучше смотреть самостоятельно, без ссылок на оригинал Попутчика

Этот фильм вышел на экраны на 8 лет раньше "Попутчика" с Хауэром. Так какой фильм является оригиналом, а какой "притянут за уши"?
maldoror666
Стаж: 14 лет 1 мес.
Сообщений: 4771
Ratio: 18.761
100%
mvclub писал(а): Перейти к сообщению
maldoror666 писал(а): Перейти к сообщению
хотя классический Попутчик с шикарным Хауэром здесь напрочь притянут за уши... лучше смотреть самостоятельно, без ссылок на оригинал Попутчика

Этот фильм вышел на экраны на 8 лет раньше "Попутчика" с Хауэром. Так какой фильм является оригиналом, а какой "притянут за уши"?


спрашивали - отвечаем. оригиналом является вообще то фильм "Автостопщик" / The Hitch-Hiker, снятый Идой Лупино в 1953 году. вот он напрямую имеет родственные связи с "хауэровским". и смело может считаться "началом" - как и того Попутчика, так и многих других...
этот же фильм вообще в оригинале в данной теме ни одним боком и называется Autostop rosso sangue / Красная кровь автостопа. без разницы когда он снят русский перевод названия со всеми вытекающими подробностями таким образом и есть те самые уши о котором писал выше )) еще вопросы есть?
tracker35
Стаж: 13 лет 6 мес.
Сообщений: 616
Ratio: 39.299
Раздал: 22.15 TB
Поблагодарили: 11927
100%
Звуковые дорожки отдельными файлами :приветствую: :клево:

_________________
IPv6.NNMClub.to
mvclub
Стаж: 12 лет 1 мес.
Сообщений: 2253
Ratio: 24.924
Раздал: 6.864 TB
Поблагодарили: 38873
100%
Откуда: Питер
russia.gif
maldoror666 писал(а): Перейти к сообщению
еще вопросы есть?

Есть... Что значит это мудреное выражение?
maldoror666 писал(а): Перейти к сообщению
этот же фильм вообще в оригинале в данной теме ни одним боком

P.S. Нужно было сначала гуглить, а потом писать умные вещи, а не наоборот. Кстати, следовало бы заодно и посмотреть в Википедии значение слов "оригинал" и "классический".
волны перекатывались через мол и падали вниз стремительным домкратом...
sergio1975
Стаж: 13 лет 1 мес.
Сообщений: 1591
Ratio: 6.487
100%
Откуда: Новосибирск
russia.gif
не пойму о чём вообще споры?Хоть с Хауэром (на моей памяти худший фильм,который я посмотрел в видеосалоне в своё время),хоть этот - фильмы ниочём,я уж молчу про продолжения
dasistklair
Стаж: 13 лет 1 мес.
Сообщений: 369
Ratio: 5.011
100%
Достойный фильм! Старая школа. И сюжет, и актеры, и съемка - все на уровне.
Год 77! За 38 лет все фуфло уже отсеялось. А критикам в комментах отсеивание еще предстоит)))
messer20080
Стаж: 14 лет 3 мес.
Сообщений: 3648
Ratio: 25.509
Раздал: 69.07 TB
Поблагодарили: 111503
100%
Откуда: Измаил
ussr.gif
Хороший фильм, но неестественное, натянутое ржание главного злодея все портит.
sevapva
Стаж: 13 лет 3 мес.
Сообщений: 297
Ratio: 43.599
Раздал: 35.01 TB
Поблагодарили: 8
100%
russia.gif
ха-ха-ха, в роли злодея В. Лановой!!! =)
Показать сообщения:   
Начать новую тему   Ответить на тему    Торрент-трекер NNM-Club -> Классика кино и Старые фильмы до 90-х -> Старые Зарубежные Фильмы (HD, FHD, UHD, 3D) Часовой пояс: GMT + 3
Страница 1 из 1