Классический форум-трекер
canvas not supported
Нас вместе: 4 104 823

Сурганова и Оркестр - Проверено Временем.Часть I - Вечное Движение 2CD (2008) [WavPack|Lossless] < Acoustic Rock >


 
 
RSS
Начать новую тему   Ответить на тему    Торрент-трекер NNM-Club -> Rock, Alternative, Punk, Metal -> Русский Рок (Lossless)
Автор Сообщение
Metr_72 ®
Релизер-меломан
Стаж: 12 лет 11 мес.
Сообщений: 2434
Ratio: 13,061
Поблагодарили: 26914
100%
Откуда: Rivne Сельская местность
ukraine.gif
Сурганова и Оркестр - Проверено Временем.Часть I - Вечное Движение 2CD (2008)
Год: 2008
Жанр: Acoustic Rock
Издатель (лейбл): Фирма Грамзаписи Никитин
Номер по каталогу #: ТФН-CD 625/08, 626/08
Наличие сканов в содержимом раздачи: да
Продолжительность: 01:09:23

Кодек: WavPack
Битрейт: Lossless
Тип рипа: image+.cue
Описание:
В альбом вошли двадцать три композиции на стихи любимых авторов Светланы Сургановой, среди которых Цветаева и Мандельштам. На диске звучат также произведения Петра Малаховского, Елены Нуриевой, Юла Абрамова. Однако большинство песен принадлежит самой Светлане. Они были написаны в течение последних 20 лет. Эти чистые и фактурные тексты, будто отреставрированные фасады домов старого города, теперь зажили новой жизнью. Название альбому дала скрипичная композиция, которая войдет во вторую часть альбома…
«Проверено временем» можно назвать юбилейным альбомом: в этом году исполнилось пять лет группе «Сурганова и Оркестр» и сорок самой Светлане Сургановой. Диск был записан без спешки в уютной атмосфере собственной студии Светланы в Санкт-Петербурге летом-осенью 2008 года. Альбом получился весьма щедрым в плане эмоций и представленного материала: два СD и DVD с записью живого концерта, состоявшегося 3 июля в клубе А2 Санкт-Петербурга. Эта программа уже была показана поклонникам в Америке, Риге, на очереди большой тур в поддержку альбома от Калининграда до Владивостока.
Трeклиcт:
01. Ленинград (3:02)
02. Добрый вечер (2:43)
03. Коммунальный Рок-н-Ролл (2:25)
04. Путник милый (ст. А.Ахматова, Т.Хмельник) (3:39)
05. Устроенность (ст. М.Бернадской) (3:40)
06. Курица (сл. неизвестного автора) (2:25)
07. Кошка (2:43)
08. Вечное движение (муз. С.Сурганова, В. Тхай) (4:28)
09. Мой маленький рыжий (2:04)
10. Вот так нескладно (1:57)
11. Сохрани мою тень (муз. М.Треуголникова, П.Малаховский по мотивам ст. И.Бродского) (3:39)
12. Звучи гитара (3:00)
13. А дочь моя (ст. В.Смирнов) (3:13)

Прoдoлжительнoсть: 00:38:59
Код:
Exact Audio Copy V0.99 prebeta 4 from 23. January 2008

EAC extraction logfile from 8. December 2008, 1:12

Сурганова и Оркестр / Проверено Временем. Часть I - Вечное Движение (CD1)

Used drive  : Optiarc DVD RW AD-7203S   Adapter: 0  ID: 4

Read mode               : Secure
Utilize accurate stream : Yes
Defeat audio cache      : Yes
Make use of C2 pointers : No

Read offset correction                      : 48
Overread into Lead-In and Lead-Out          : No
Fill up missing offset samples with silence : Yes
Delete leading and trailing silent blocks   : No
Null samples used in CRC calculations       : Yes
Used interface                              : Installed external ASPI interface

Used output format : Internal WAV Routines
Sample format      : 44.100 Hz; 16 Bit; Stereo

TOC of the extracted CD

     Track |   Start  |  Length  | Start sector | End sector
    ---------------------------------------------------------
        1  |  0:00.00 |  3:02.21 |         0    |    13670
        2  |  3:02.21 |  2:43.12 |     13671    |    25907
        3  |  5:45.33 |  2:25.04 |     25908    |    36786
        4  |  8:10.37 |  3:39.06 |     36787    |    53217
        5  | 11:49.43 |  3:39.70 |     53218    |    69712
        6  | 15:29.38 |  2:25.30 |     69713    |    80617
        7  | 17:54.68 |  2:42.55 |     80618    |    92822
        8  | 20:37.48 |  4:28.01 |     92823    |   112923
        9  | 25:05.49 |  2:04.01 |    112924    |   122224
       10  | 27:09.50 |  1:57.21 |    122225    |   131020
       11  | 29:06.71 |  3:39.01 |    131021    |   147446
       12  | 32:45.72 |  3:00.35 |    147447    |   160981
       13  | 35:46.32 |  3:13.35 |    160982    |   175491

Range status and errors

Selected range

     Filename E:\Lossless\Сурганова и Оркестр - Проверено Временем. Часть I - Вечное Движение\Сурганова и Оркестр - Проверено Временем. Часть I - Вечное Движение (CD1).wav

     Peak level 100.0 %
     Range quality 100.0 %
     Test CRC DE87FAD2
     Copy CRC DE87FAD2
     Copy OK

No errors occurred

AccurateRip summary

Track  1  not present in database
Track  2  not present in database
Track  3  not present in database
Track  4  not present in database
Track  5  not present in database
Track  6  not present in database
Track  7  not present in database
Track  8  not present in database
Track  9  not present in database
Track 10  not present in database
Track 11  not present in database
Track 12  not present in database
Track 13  not present in database

None of the tracks are present in the AccurateRip database

End of status report
Код:
-----------------------

DON'T MODIFY THIS FILE

-----------------------

PERFORMER: auCDtect Task Manager, ver. 1.6.0 RC1 build 1.6.0.1
Copyright (c) 2008-2010 y-soft. All rights reserved
http://y-soft.org

ANALYZER: auCDtect: CD records authenticity detector, version 0.8.2
Copyright (c) 2004 Oleg Berngardt. All rights reserved.
Copyright (c) 2004 Alexander Djourik. All rights reserved.

FILE: Surganova_i_Orkestr_-_Provereno_Vremenem_(I-Vechnoe_Dvizgenie)_CD1_(2008,_TFN-CD-625-08,_eac_wv_cue_log_covers_boocklet_tags)_by.Oleg39.iso.wv
  Size: 682723109 Hash: B701FF25B699FBABF6BD602EB9D19EF7 Accuracy: -m0
  Conclusion: CDDA 100%
  Signature: 5E2C32F4DBB23ED40F0A278AA226A59021926624
Код:
REM GENRE Rock
REM DATE 2008
REM DISCID B109230D
REM COMMENT "ExactAudioCopy v0.99pb4"
PERFORMER "Сурганова и Оркестр"
TITLE "Проверено Временем. Часть I - Вечное Движение (CD1)"
FILE "Сурганова и Оркестр - Проверено Временем. Часть I - Вечное Движение (CD1).wav" WAVE
  TRACK 01 AUDIO
    TITLE "Ленинград"
    PERFORMER "Сурганова и Оркестр"
    INDEX 01 00:00:00
  TRACK 02 AUDIO
    TITLE "Добрый вечер"
    PERFORMER "Сурганова и Оркестр"
    INDEX 00 03:00:21
    INDEX 01 03:02:21
  TRACK 03 AUDIO
    TITLE "Коммунальный Рок-н-Ролл"
    PERFORMER "Сурганова и Оркестр"
    INDEX 00 05:43:33
    INDEX 01 05:45:33
  TRACK 04 AUDIO
    TITLE "Путник милый"
    PERFORMER "Сурганова и Оркестр"
    INDEX 00 08:08:37
    INDEX 01 08:10:37
  TRACK 05 AUDIO
    TITLE "Устроенность"
    PERFORMER "Сурганова и Оркестр"
    INDEX 00 11:47:43
    INDEX 01 11:49:43
  TRACK 06 AUDIO
    TITLE "Курица"
    PERFORMER "Сурганова и Оркестр"
    INDEX 00 15:27:38
    INDEX 01 15:29:38
  TRACK 07 AUDIO
    TITLE "Кошка"
    PERFORMER "Сурганова и Оркестр"
    INDEX 00 17:52:68
    INDEX 01 17:54:68
  TRACK 08 AUDIO
    TITLE "Вечное движение"
    PERFORMER "Сурганова и Оркестр"
    INDEX 00 20:35:48
    INDEX 01 20:37:48
  TRACK 09 AUDIO
    TITLE "Мой маленький рыжий"
    PERFORMER "Сурганова и Оркестр"
    INDEX 00 25:03:49
    INDEX 01 25:05:49
  TRACK 10 AUDIO
    TITLE "Вот так нескладно"
    PERFORMER "Сурганова и Оркестр"
    INDEX 00 27:07:50
    INDEX 01 27:09:50
  TRACK 11 AUDIO
    TITLE "Сохрани мою тень"
    PERFORMER "Сурганова и Оркестр"
    INDEX 00 29:04:71
    INDEX 01 29:06:71
  TRACK 12 AUDIO
    TITLE "Звучи гитара"
    PERFORMER "Сурганова и Оркестр"
    INDEX 00 32:43:72
    INDEX 01 32:45:72
  TRACK 13 AUDIO
    TITLE "А дочь моя"
    PERFORMER "Сурганова и Оркестр"
    INDEX 00 35:44:32
    INDEX 01 35:46:32
Трeклиcт:
01. Д'Арк (муз. и ст. Е.Нуриева) (3:09)
02. Лучший жребий (ст. Пьер Жан Беранже) (3:53)
03. Тебя я в мыслях не держу (ст. В.Смирнов) (2:39)
04. Лица (1:21)
05. Забирай (муз. и ст. Ю.Абрамов) (4:11)
06. В доме (2:30)
07. Двадцать два часа разлуки (3:18)
08. Время (3:45)
09. Ну, вот и все (1:16)
10. Мне нравится (муз. М.Таривердиев, ст. М.Цветаева)

Прoдoлжительнoсть: 00:30:24
Код:
Exact Audio Copy V0.99 prebeta 4 from 23. January 2008

EAC extraction logfile from 8. December 2008, 2:12

Сурганова и Оркестр / Проверено Временем. Часть I - Вечное Движение (CD2)

Used drive  : Optiarc DVD RW AD-7203S   Adapter: 0  ID: 4

Read mode               : Secure
Utilize accurate stream : Yes
Defeat audio cache      : Yes
Make use of C2 pointers : No

Read offset correction                      : 48
Overread into Lead-In and Lead-Out          : No
Fill up missing offset samples with silence : Yes
Delete leading and trailing silent blocks   : No
Null samples used in CRC calculations       : Yes
Used interface                              : Installed external ASPI interface

Used output format : Internal WAV Routines
Sample format      : 44.100 Hz; 16 Bit; Stereo

TOC of the extracted CD

     Track |   Start  |  Length  | Start sector | End sector
    ---------------------------------------------------------
        1  |  0:00.00 |  3:09.28 |         0    |    14202
        2  |  3:09.28 |  3:52.67 |     14203    |    31669
        3  |  7:02.20 |  2:38.43 |     31670    |    43562
        4  |  9:40.63 |  1:20.50 |     43563    |    49612
        5  | 11:01.38 |  4:10.50 |     49613    |    68412
        6  | 15:12.13 |  2:30.20 |     68413    |    79682
        7  | 17:42.33 |  3:17.47 |     79683    |    94504
        8  | 21:00.05 |  3:44.64 |     94505    |   111368
        9  | 24:44.69 |  1:16.16 |    111369    |   117084
       10  | 26:01.10 |  4:22.35 |    117085    |   136769

Range status and errors

Selected range

     Filename E:\Lossless\Сурганова и Оркестр - Проверено Временем. Часть I - Вечное Движение\Сурганова и Оркестр - Проверено Временем. Часть I - Вечное Движение (CD2).wav

     Peak level 100.0 %
     Range quality 100.0 %
     Test CRC 6B47A1FD
     Copy CRC 6B47A1FD
     Copy OK

No errors occurred

AccurateRip summary

Track  1  not present in database
Track  2  not present in database
Track  3  not present in database
Track  4  not present in database
Track  5  not present in database
Track  6  not present in database
Track  7  not present in database
Track  8  not present in database
Track  9  not present in database
Track 10  not present in database

None of the tracks are present in the AccurateRip database

End of status report
Код:
-----------------------

DON'T MODIFY THIS FILE

-----------------------

PERFORMER: auCDtect Task Manager, ver. 1.6.0 RC1 build 1.6.0.1
Copyright (c) 2008-2010 y-soft. All rights reserved
http://y-soft.org

ANALYZER: auCDtect: CD records authenticity detector, version 0.8.2
Copyright (c) 2004 Oleg Berngardt. All rights reserved.
Copyright (c) 2004 Alexander Djourik. All rights reserved.

FILE: Surganova_i_Orkestr_-_Provereno_Vremenem_(I-Vechnoe_Dvizgenie)_CD2_(2008,_TFN-CD-626-08,_eac_wv_cue_log_covers_boocklet_tags)_by.Oleg39.iso.wv
  Size: 250123432 Hash: E3F88251B9ABB441012E14C897945B31 Accuracy: -m0
  Conclusion: CDDA 100%
  Signature: EA2760EBFC526F1992693C132DD10B1E5A74646A
Код:
REM GENRE Rock
REM DATE 2008
REM DISCID 7B071F0A
REM COMMENT "ExactAudioCopy v0.99pb4"
PERFORMER "Сурганова и Оркестр"
TITLE "Проверено Временем. Часть I - Вечное Движение (CD2)"
FILE "Сурганова и Оркестр - Проверено Временем. Часть I - Вечное Движение (CD2).wav" WAVE
  TRACK 01 AUDIO
    TITLE "Д'Арк"
    PERFORMER "Сурганова и Оркестр"
    INDEX 01 00:00:00
  TRACK 02 AUDIO
    TITLE "Лучший жребий"
    PERFORMER "Сурганова и Оркестр"
    INDEX 00 03:07:28
    INDEX 01 03:09:28
  TRACK 03 AUDIO
    TITLE "Тебя я в мыслях не держу"
    PERFORMER "Сурганова и Оркестр"
    INDEX 00 07:00:20
    INDEX 01 07:02:20
  TRACK 04 AUDIO
    TITLE "Лица"
    PERFORMER "Сурганова и Оркестр"
    INDEX 00 09:38:63
    INDEX 01 09:40:63
  TRACK 05 AUDIO
    TITLE "Забирай"
    PERFORMER "Сурганова и Оркестр"
    INDEX 00 10:59:38
    INDEX 01 11:01:38
  TRACK 06 AUDIO
    TITLE "В доме"
    PERFORMER "Сурганова и Оркестр"
    INDEX 00 15:10:13
    INDEX 01 15:12:13
  TRACK 07 AUDIO
    TITLE "Двадцать два часа разлуки"
    PERFORMER "Сурганова и Оркестр"
    INDEX 00 17:40:33
    INDEX 01 17:42:33
  TRACK 08 AUDIO
    TITLE "Время"
    PERFORMER "Сурганова и Оркестр"
    INDEX 00 20:58:05
    INDEX 01 21:00:05
  TRACK 09 AUDIO
    TITLE "Ну, вот и все"
    PERFORMER "Сурганова и Оркестр"
    INDEX 00 24:42:69
    INDEX 01 24:44:69
  TRACK 10 AUDIO
    TITLE "Мне нравится"
    PERFORMER "Сурганова и Оркестр"
    INDEX 00 25:59:10
    INDEX 01 26:01:10
Все ковры, буклет, блины отсканены 600dpi и находятся внутри образа. Поскольку буклет довольно обьемный, а именно 392 МБ (411 576 216 байт), находится он только в первом образе. Во втором образе скан блина II диска и обложка.

Бонусы:
Видео:
«КругоСветка» DVD rip
«Квартирник на O2TV» (2006) TV rip
«5 песен на 5-м» (2007) TV
Полный контакт: «Сурганова и Оркестр» против «Butch» MTV (9.02.2007)TV rip
Светлана Сурганова и Оркестр «Соль» (2007) DVD 5
"Исповедь четырех": Богушевская, Butch, Умка, Сурганова
Светлана Сурганова (''Бальзам на душу'', Рига-ТВ, 21.05.2005) TVrip
Три телепередачи с Светланой Сургановой TVrip

Аудио (МР3 & АРЕ) :
(2008) "Проверено временем" [MP3- 192 kbps] < Acoustic Rock >
"Соль" (2007) APE
"Соль" (2007)MP3 «КругоСветка» (2006)
«Возлюбленная Шопена» (2005) «Неужели не я» (переиздание) (2004) «Живой» - 2003

Дискография :
Сурганова и "Оркестр" Дискография [2003 - 2007] [Eac_Ape_Wavpack_Iso_Image_Cue_Log_Covers_Tags] < Acoustic Rock >

Кроме того могу предложить:

Видео
Светлана Сурганова - акустический концерт (клуб Б2, 31.07.2005) avi 540 Метров
Светлана Сурганова - квартирник (Москва, 29.03.2003) avi 537 Метров
Светлана Сурганова и Оркестр - клуб Тень 09.03.07 avi 1.668 Гига
Светлана Сурганова и Оркестр - МАИ 3.02.07 (весь концерт) avi 654 Метрa
Сурганова и Оркестр - программа "Живые люди" канал СТО (2006-09-26) avi 347 метров
Светлана Сурганова, "День рождения", Клуб Точка 17.11.2005 (Live) 4.36 GB
Сурганова - Программа "Воздух" (30.04.2005) avi 352 метра
ЗвездоЧат на A-ONE эфир 22 11 2008 flv 387 метров

Аудио
Светлана Сурганова Дохлый сурик или Невнятные аналогии, 1991-1996, mp3, 128 kbs 70 метров
Светлана Сурганова - Акустика в "Мюзик-Холле" - 2007, mp3, 192 kbps 169 метров
Интервью с С.Сургановой 27-09-2008 в Лондоне mp3, 256 kbps 84 метра
С. Сурганова концерт в Киеве 14-11-2008 Джем ФМ (эфир 20.11.2008) mp3, 128 kbps 56 метров
Сурганова и оркестр (полный воздух (30.04.2005)) mp3, 192 kbps 79 метров
История группы «Сурганова и Оркестр» началась 6 лет назад, когда в декабре 2002 г. одна из основательниц группы «Ночные Снайперы» Светлана Сурганова покинула коллектив, наделав этим много шума в прессе. Меньше чем за год Светлана прошла грандиозный путь, создав свою группу из
профессиональных питерских музыкантов, сочинив, записав и уже в 2003 году выпустив дебютный альбом «Неужели не я», который стал настоящим прорывом и был продан тиражом свыше 100 000 (официальных!) экземпляров. В следующем, 2004 году, Сурганова и Оркестр становятся номинантами премии «лучший живой коллектив года» и получают престижную премию журнала FUZZ «Песня года». Песни из "Неужели не я" поставили рекорды продолжительности пребывания на верхних строчках музыкальных чартов («Мураками» – 16 недель на 1 месте «Чартовой Дюжины» радиостанции «Наше радио», песня «Больно» - 10 недель»). Группа записала клип «Корабли», с успехом ротировавшийся в эфире MTV и МУЗ-ТВ и отправилась в первый суперуспешный тур «Кругосветка». Вслед за первым альбомом последовали «Живой» (2003) и «Возлюбленная Шопена»(2005), презентация которого состоялась в Москве в Международном Доме Музыки. Эти альбомы повторили успех первого: почти все песни из них стали хитами и также побывали на вершинах музыкальных чартов.
На сегодняшний день «Сурганова и Оркестр» - одна из самых активно концертирующих групп с географией выступлений от Дальнего Востока до Калининграда. В туре «Кругосветка» музыканты проехали уже более 100 городов в России и зарубежье, неизменно собирая полные залы фанатов и просто любителей хорошей музыки. Записанный в декабре 2005 г. по итогам тура 50-тый концерт «Кругосветки» выпущен тройным видео-аудио концертным альбомом, прослушав который Вы убедитесь в том, что «Сурганову и Оркестр» недаром называют лучшим живым коллективом страны.
Сейчас «Сурганова и Оркестр» - желанный гость на самых престижных московских и питерских площадках и неизменный фаворит рок-фестивалей.
Определение, придуманное Светланой музыке, которую играет группа "Сурганова и Оркестр": VIP-Punk-Decadence (сокращенно - VPD), что расшифровывается, как: V - эстетически выверенный сценический образ человека элегантного и думающего, образ артиста, сочетающий в себе опыт и неискушенность; P- энергичная и искренняя подача, с хулиганским шармом и большой долей самоиронии, D - изысканная и интеллигентная, но доступная при этом поэзия, затрагивающая вечные темы и имеющая своими аналогами произведения художников слова Серебряного века и поэтики французского символизма. И при этом все это – настоящий драйв, захватывающий зрителей с самого начала выступления, заставляющий их «стоять на головах» в клубах и едва удерживаться в креслах в сидячих залах.
С музыкальной точки зрения творчество "Сургановой и "Оркестра" - это по-хорошему эклектичная смесь различных стилей - современный рок, в котором присутствуют элементы джаза и трип-хопа, с вкраплениями скрипки и французского аккордеона, помноженная на новейшие технологии в области звуковой обработки. Их выступление - всегда настоящее шоу, яркое и живое, со множеством сюрпризов как со стороны артистов, каждый из которых – прекрасный музыкант яркая личность, так и со стороны публики, загодя готовящейся к каждому концерту своих любимцев.
Этим летом группа создала новую концертную программу «Просвет». К работе над ней были привлечены лучшие саунд-проюсеры страны (Самсонов, Клименков). Программа стала большим шагом в сторону европейского саунда и еще большей «танцевальности». «Просвет» был представлен публике 29 сентября в С-Петербурге в зале ДК Ленсовета, 30 сентября в Москве в СДК МАИ и прошел на "ура" и с аншлагом в обеих столицах. В осенне-зимнем туре, который также назывался "Просвет", группа представила новую программу своим поклонникам в Сибири, на Урале, Дальнем Востоке, в Украине и Белоруссии.

Время раздачи: 24/7 . . . Не забывайте нажимать на


Поглощение/вытеснение
Только с согласия релизера

DesideriuM

Реставрация релиза: foralreg
[NNM-Club.info] SURGANOVA_-_PROVERENO.torrent
 Торрент: Платиновая раздача  Зарегистрирован
 
Скачать


 Зарегистрирован:   09 Дек 2008 20:46:41
 Размер:   890 MB  (
 Рейтинг:   4,9 (Голосов: 14)
 Поблагодарили:   57
 Проверка:   Оформление проверено модератором 09 Дек 2008 22:05:50
Как cкачать  ·  Как раздать  ·  Правильно оформить  ·  Поднять ратио!  
Metr_72 ®
Релизер-меломан
Стаж: 12 лет 11 мес.
Сообщений: 2434
Ratio: 13,061
Поблагодарили: 26914
100%
Откуда: Rivne Сельская местность
ukraine.gif
Предлагаю обратить внимание на ДВД диск входящий в комплект этого альбома.
Сурганова и Оркестр - Проверено Временем. Часть I - Вечное Движение (2008) [DVD9] < Acoustic Rock >
Поклонникам творчества Светланы Яковлевны качать и смотреть обязательно. :поцелуй:
P.S. И не забудьте купить лицензионный диск. =)
spyhunter2
 
Стаж: 12 лет 9 мес.
Сообщений: 512
Ratio: 6,112
100%
Откуда: TATARSTAN
russia.gif
Благодарствую!!!!
прекрасный альбом!!!

_________________
бесконечность мой единственный путь
Metr_72 ®
Релизер-меломан
Стаж: 12 лет 11 мес.
Сообщений: 2434
Ratio: 13,061
Поблагодарили: 26914
100%
Откуда: Rivne Сельская местность
ukraine.gif
МаринаZebra
Стаж: 12 лет
Сообщений: 7
Ratio: 0,852
3.32%
russia.gif
спасибо. вот это настоящее.
Показать сообщения:   
Начать новую тему   Ответить на тему    Торрент-трекер NNM-Club -> Rock, Alternative, Punk, Metal -> Русский Рок (Lossless) Часовой пояс: GMT + 3
Страница 1 из 1