Классический форум-трекер
canvas not supported
Нас вместе: 4 101 299

Сурганова и Оркестр - Grand Collection (2007) [FLAC|Lossless] < VIP-Punk-Decadence>


 
 
RSS
Начать новую тему   Ответить на тему    Торрент-трекер NNM-Club -> Rock, Alternative, Punk, Metal -> Русский Рок (Lossless)
Автор Сообщение
Metr_72 ®
Релизер-меломан
Стаж: 12 лет 11 мес.
Сообщений: 2434
Ratio: 13,061
Поблагодарили: 26902
100%
Откуда: Rivne Сельская местность
ukraine.gif
Сурганова и Оркестр - Grand Collection (2007)
Год: 2007
Жанр: VIP-Punk-Decadence
Издатель (лейбл): Квадро Диск
Номер по каталогу #: GCR 236
Наличие сканов в содержимом раздачи: да
Продолжительность: 01:13:14

Кодек: FLAC
Битрейт: Lossless Lossless
Тип рипа: tracks+.cue

Треклист:
01. Не тобой болеет сердце (3:20)
02. Ты - моё дыхание (3:58)
03. Больно (4:01)
04. Предчувствие смерти (4:49)
05. Апрельская (3:47)
06. По дороге (3:30)
07. Мураками (3:15)
08. Весна (4:16)
09. Белые люди (5:55)
10. Февральский ветер (2:51)
11. Неужели не я (4:10)
12. Мой взгляд (3:49)
13. Молитва мольберту (5:05)
14. Горе по небу (3:52)
15. Абсолютный сталевар (3:08)
16. Оставь (2:28)
17. Ворон (5:18)
18. Так начинался день (5:38)
Код:
Exact Audio Copy V0.99 prebeta 4 from 23. January 2008

Отчёт EAC об извлечении, выполненном 20. февраля 2009, 18:06

Сурганова и оркестр / Grand Collection

Дисковод: PIONEER DVD-RW DVR-109 Adapter: 1 ID: 0

Режим чтения : Достоверность
Использование точного потока : Да
Отключение кэша аудио : Да
Использование указателей C2 : Нет

Коррекция смещения при чтении : 48
Способность читать области Lead-in и Lead-out : Нет
Заполнение пропущенных сэмплов тишиной : Да
Удаление блоков с тишиной в начале и конце : Нет
При вычислениях CRC использовались нулевые сэмплы : Да
Интерфейс : Встроенный Win32-интерфейс для Win NT/2000
Обработка зазоров : Добавлено к предыдущему треку

Выходной формат : Пользовательский кодировщик
Выбранный битрейт : 1024 kBit/s
Качество : Высокий
Добавление ID3-тэга : Да
Утилита сжатия : C:\Program Files\Exact Audio Copy\FLAC\FLAC.EXE
Дополнительные параметры : -8 -V -T "ARTIST=%a" -T "TITLE=%t" -T "ALBUM=%g" -T "DATE=%y" -T "TRACKNUMBER=%n" -T "GENRE=%m" -T "COMMENT=%e" %s -o %d

TOC извлечённого CD

Трек | Старт | Длительность | Начальный сектор | Конечный сектор
---------------------------------------------------------------------
1 | 0:00.00 | 3:20.40 | 0 | 15039
2 | 3:20.40 | 3:58.60 | 15040 | 32949
3 | 7:19.25 | 4:01.55 | 32950 | 51079
4 | 11:21.05 | 4:49.38 | 51080 | 72792
5 | 16:10.43 | 3:47.71 | 72793 | 89888
6 | 19:58.39 | 3:30.56 | 89889 | 105694
7 | 23:29.20 | 3:15.24 | 105695 | 120343
8 | 26:44.44 | 4:16.18 | 120344 | 139561
9 | 31:00.62 | 5:55.61 | 139562 | 166247
10 | 36:56.48 | 2:51.11 | 166248 | 179083
11 | 39:47.59 | 4:10.39 | 179084 | 197872
12 | 43:58.23 | 3:49.54 | 197873 | 215101
13 | 47:48.02 | 5:05.41 | 215102 | 238017
14 | 52:53.43 | 3:52.27 | 238018 | 255444
15 | 56:45.70 | 3:08.43 | 255445 | 269587
16 | 59:54.38 | 2:28.08 | 269588 | 280695
17 | 62:22.46 | 5:18.07 | 280696 | 304552
18 | 67:40.53 | 5:38.58 | 304553 | 329960

Трек 1

Имя файла H:\MUSIC\Сурганова и Оркестр - Grand Collection'2007\01. Не тобой болеет сердце.wav

Длина предзазора 0:00:02.00

Пиковый уровень 97.7 %
Качество трека 100.0 %
CRC копии E5CB10F9
Трек не обнаружен в базе AccurateRip
Копирование... OK

Трек 2

Имя файла H:\MUSIC\Сурганова и Оркестр - Grand Collection'2007\02. Ты - моё дыхание.wav

Пиковый уровень 97.7 %
Качество трека 100.0 %
CRC копии 23CC011A
Трек не обнаружен в базе AccurateRip
Копирование... OK

Трек 3

Имя файла H:\MUSIC\Сурганова и Оркестр - Grand Collection'2007\03. Больно.wav

Пиковый уровень 97.7 %
Качество трека 99.9 %
CRC копии 9F734F08
Трек не обнаружен в базе AccurateRip
Копирование... OK

Трек 4

Имя файла H:\MUSIC\Сурганова и Оркестр - Grand Collection'2007\04. Предчувствие смерти.wav

Пиковый уровень 97.7 %
Качество трека 100.0 %
CRC копии 59332239
Трек не обнаружен в базе AccurateRip
Копирование... OK

Трек 5

Имя файла H:\MUSIC\Сурганова и Оркестр - Grand Collection'2007\05. Апрельская.wav

Пиковый уровень 97.7 %
Качество трека 100.0 %
CRC копии 908982D1
Трек не обнаружен в базе AccurateRip
Копирование... OK

Трек 6

Имя файла H:\MUSIC\Сурганова и Оркестр - Grand Collection'2007\06. По дороге.wav

Пиковый уровень 97.7 %
Качество трека 100.0 %
CRC копии E7C21F06
Трек не обнаружен в базе AccurateRip
Копирование... OK

Трек 7

Имя файла H:\MUSIC\Сурганова и Оркестр - Grand Collection'2007\07. Мураками.wav

Пиковый уровень 97.7 %
Качество трека 100.0 %
CRC копии 342F6C4A
Трек не обнаружен в базе AccurateRip
Копирование... OK

Трек 8

Имя файла H:\MUSIC\Сурганова и Оркестр - Grand Collection'2007\08. Весна.wav

Пиковый уровень 88.8 %
Качество трека 100.0 %
CRC копии 722CE903
Трек не обнаружен в базе AccurateRip
Копирование... OK

Трек 9

Имя файла H:\MUSIC\Сурганова и Оркестр - Grand Collection'2007\09. Белые люди.wav

Пиковый уровень 85.7 %
Качество трека 100.0 %
CRC копии 6E49F7B8
Трек не обнаружен в базе AccurateRip
Копирование... OK

Трек 10

Имя файла H:\MUSIC\Сурганова и Оркестр - Grand Collection'2007\10. Февральский ветер.wav

Пиковый уровень 97.7 %
Качество трека 100.0 %
CRC копии E39F9F63
Трек не обнаружен в базе AccurateRip
Копирование... OK

Трек 11

Имя файла H:\MUSIC\Сурганова и Оркестр - Grand Collection'2007\11. Неужели не я.wav

Пиковый уровень 97.7 %
Качество трека 100.0 %
CRC копии B7771260
Трек не обнаружен в базе AccurateRip
Копирование... OK

Трек 12

Имя файла H:\MUSIC\Сурганова и Оркестр - Grand Collection'2007\12. Мой взгляд.wav

Пиковый уровень 97.7 %
Качество трека 100.0 %
CRC копии E6AB4D88
Трек не обнаружен в базе AccurateRip
Копирование... OK

Трек 13

Имя файла H:\MUSIC\Сурганова и Оркестр - Grand Collection'2007\13. Молитва мольберту.wav

Пиковый уровень 86.5 %
Качество трека 100.0 %
CRC копии AEE215BA
Трек не обнаружен в базе AccurateRip
Копирование... OK

Трек 14

Имя файла H:\MUSIC\Сурганова и Оркестр - Grand Collection'2007\14. Горе по небу.wav

Пиковый уровень 86.1 %
Качество трека 100.0 %
CRC копии 68F43B53
Трек не обнаружен в базе AccurateRip
Копирование... OK

Трек 15

Имя файла H:\MUSIC\Сурганова и Оркестр - Grand Collection'2007\15. Абсолютный сталевар.wav

Пиковый уровень 97.2 %
Качество трека 100.0 %
CRC копии F75E91CE
Трек не обнаружен в базе AccurateRip
Копирование... OK

Трек 16

Имя файла H:\MUSIC\Сурганова и Оркестр - Grand Collection'2007\16. Оставь.wav

Пиковый уровень 97.9 %
Качество трека 99.9 %
CRC копии 19F04FE6
Трек не обнаружен в базе AccurateRip
Копирование... OK

Трек 17

Имя файла H:\MUSIC\Сурганова и Оркестр - Grand Collection'2007\17. Ворон.wav

Пиковый уровень 97.9 %
Качество трека 99.9 %
CRC копии 5E74C3FE
Трек не обнаружен в базе AccurateRip
Копирование... OK

Трек 18

Имя файла H:\MUSIC\Сурганова и Оркестр - Grand Collection'2007\18. Так начинался день.wav

Пиковый уровень 85.9 %
Качество трека 100.0 %
CRC копии 157C7CB1
Трек не обнаружен в базе AccurateRip
Копирование... OK

Ни одного трека нет в базе AccurateRip

Ошибок не произошло

Конец отчёта
Код:
REM GENRE Rock
REM DATE 2007
REM DISCID ED112F12
REM COMMENT "ExactAudioCopy v0.99pb4"
PERFORMER "Сурганова и оркестр"
TITLE "Grand Collection"
FILE "01. Не тобой болеет сердце.wav" WAVE
TRACK 01 AUDIO
TITLE "Не тобой болеет сердце"
PERFORMER "Сурганова и оркестр"
INDEX 01 00:00:00
FILE "02. Ты - моё дыхание.wav" WAVE
TRACK 02 AUDIO
TITLE "Ты - моё дыхание"
PERFORMER "Сурганова и оркестр"
INDEX 01 00:00:00
FILE "03. Больно.wav" WAVE
TRACK 03 AUDIO
TITLE "Больно"
PERFORMER "Сурганова и оркестр"
INDEX 01 00:00:00
FILE "04. Предчувствие смерти.wav" WAVE
TRACK 04 AUDIO
TITLE "Предчувствие смерти"
PERFORMER "Сурганова и оркестр"
INDEX 01 00:00:00
FILE "05. Апрельская.wav" WAVE
TRACK 05 AUDIO
TITLE "Апрельская"
PERFORMER "Сурганова и оркестр"
INDEX 01 00:00:00
FILE "06. По дороге.wav" WAVE
TRACK 06 AUDIO
TITLE "По дороге"
PERFORMER "Сурганова и оркестр"
INDEX 01 00:00:00
FILE "07. Мураками.wav" WAVE
TRACK 07 AUDIO
TITLE "Мураками"
PERFORMER "Сурганова и оркестр"
INDEX 01 00:00:00
FILE "08. Весна.wav" WAVE
TRACK 08 AUDIO
TITLE "Весна"
PERFORMER "Сурганова и оркестр"
INDEX 01 00:00:00
FILE "09. Белые люди.wav" WAVE
TRACK 09 AUDIO
TITLE "Белые люди"
PERFORMER "Сурганова и оркестр"
INDEX 01 00:00:00
FILE "10. Февральский ветер.wav" WAVE
TRACK 10 AUDIO
TITLE "Февральский ветер"
PERFORMER "Сурганова и оркестр"
INDEX 01 00:00:00
FILE "11. Неужели не я.wav" WAVE
TRACK 11 AUDIO
TITLE "Неужели не я"
PERFORMER "Сурганова и оркестр"
INDEX 01 00:00:00
FILE "12. Мой взгляд.wav" WAVE
TRACK 12 AUDIO
TITLE "Мой взгляд"
PERFORMER "Сурганова и оркестр"
INDEX 01 00:00:00
FILE "13. Молитва мольберту.wav" WAVE
TRACK 13 AUDIO
TITLE "Молитва мольберту"
PERFORMER "Сурганова и оркестр"
INDEX 01 00:00:00
FILE "14. Горе по небу.wav" WAVE
TRACK 14 AUDIO
TITLE "Горе по небу"
PERFORMER "Сурганова и оркестр"
INDEX 01 00:00:00
FILE "15. Абсолютный сталевар.wav" WAVE
TRACK 15 AUDIO
TITLE "Абсолютный сталевар"
PERFORMER "Сурганова и оркестр"
INDEX 01 00:00:00
FILE "16. Оставь.wav" WAVE
TRACK 16 AUDIO
TITLE "Оставь"
PERFORMER "Сурганова и оркестр"
INDEX 01 00:00:00
FILE "17. Ворон.wav" WAVE
TRACK 17 AUDIO
TITLE "Ворон"
PERFORMER "Сурганова и оркестр"
INDEX 01 00:00:00
FILE "18. Так начинался день.wav" WAVE
TRACK 18 AUDIO
TITLE "Так начинался день"
PERFORMER "Сурганова и оркестр"
INDEX 01 00:00:00
Код:
-----------------------

DON'T MODIFY THIS FILE

-----------------------

PERFORMER: auCDtect Task Manager, ver. 1.6.0 RC1 build 1.6.0.1
Copyright (c) 2008-2010 y-soft. All rights reserved
http://y-soft.org

ANALYZER: auCDtect: CD records authenticity detector, version 0.8.2
Copyright (c) 2004 Oleg Berngardt. All rights reserved.
Copyright (c) 2004 Alexander Djourik. All rights reserved.

FILE: 18. Так начинался день.flac
  Size: 36866393 Hash: 30F13A5959B5BBED85B1ACF97CB5C2B0 Accuracy: -m0
  Conclusion: CDDA 100%
  Signature: 98C468ACE7C694B75D274FCC0BB3FFB49788C514
FILE: 17. Ворон.flac
  Size: 36426193 Hash: 88CD11BB70B2B85CEA5AE154C3BFC4E8 Accuracy: -m0
  Conclusion: CDDA 100%
  Signature: 316C74963A83B47D314D7DACD9D0848A49F5F237
FILE: 16. Оставь.flac
  Size: 12412546 Hash: DADD3A9DD657B5A16EFFDB4E33F767B7 Accuracy: -m0
  Conclusion: MPEG 90%
  Signature: B7DF009E4C5E8650D37B2AA88F5494EAA71046DF
FILE: 15. Абсолютный сталевар.flac
  Size: 21079794 Hash: 37623735C3A5F81C214AB5EEE7ED0A87 Accuracy: -m0
  Conclusion: CDDA 99%
  Signature: 8DC6A0503BAE77D2D508E04BFCB3DFCBB5C623CC
FILE: 14. Горе по небу.flac
  Size: 25679259 Hash: 70D9BE83F82C7009AF78328D036069FC Accuracy: -m0
  Conclusion: CDDA 100%
  Signature: A6F912A8073F7AB67D93D4B9A49AC2F5ABD3B853
FILE: 13. Молитва мольберту.flac
  Size: 30867518 Hash: 8E9155691D0B0C17B2B2D31E828C22E5 Accuracy: -m0
  Conclusion: CDDA 100%
  Signature: 50515CD4A2F2AECE452E6226083EF4036649D90F
FILE: 12. Мой взгляд.flac
  Size: 26703871 Hash: 574183358E43DA9F7452B4A40BE6C309 Accuracy: -m0
  Conclusion: CDDA 100%
  Signature: BC3474D9F5AD581BDFC14921D05000CD6A0B5060
FILE: 11. Неужели не я.flac
  Size: 27706242 Hash: 45DB4C8EE8C44083D8C74BB424351DAB Accuracy: -m0
  Conclusion: CDDA 100%
  Signature: 952E90C3D3DAA2A90433C2CDCEBBB72CE8A0C6FF
FILE: 10. Февральский ветер.flac
  Size: 20209009 Hash: 5C2AF617EA8D4580DBFF217BBC69C438 Accuracy: -m0
  Conclusion: CDDA 100%
  Signature: EB62B2F6BF2334C7E2A66985319FAF8F82FBA502
FILE: 09. Белые люди.flac
  Size: 37850840 Hash: 33FC1A92EC0C1DBD07F0A4B7CBA6BC76 Accuracy: -m0
  Conclusion: CDDA 100%
  Signature: 728926B66C1236E138F5A4D998C68BBF85562C75
FILE: 08. Весна.flac
  Size: 29881237 Hash: 819CCC47CA27C992754CBEE05F83B9C9 Accuracy: -m0
  Conclusion: CDDA 100%
  Signature: 5BCBD040A61DA9B5DEEED76B99F1A660AE24E3B3
FILE: 07. Мураками.flac
  Size: 24020511 Hash: 8D86FAE61E9F5003A230F77C6CD405E0 Accuracy: -m0
  Conclusion: CDDA 100%
  Signature: 2F4EB213DCA03755C66C0E0BA0E4728272AA8E64
FILE: 06. По дороге.flac
  Size: 25313573 Hash: D1C4830C59F70FCF63930DBFD2B281B5 Accuracy: -m0
  Conclusion: CDDA 100%
  Signature: 52C9E06EC97805F5C6963F24B52054AF00C66D56
FILE: 05. Апрельская.flac
  Size: 28147308 Hash: BA8AB44F1E787719E258D348078D2203 Accuracy: -m0
  Conclusion: CDDA 99%
  Signature: EC641A9F7B52ADBB689C616A31E42F92E92A8CAE
FILE: 04. Предчувствие смерти.flac
  Size: 33009945 Hash: 1FA20642E620DDBB8BFE570A6E5A5221 Accuracy: -m0
  Conclusion: CDDA 100%
  Signature: 44975613A5CBD6CF7D632D7415103556313BE038
FILE: 03. Больно.flac
  Size: 27097260 Hash: 708F28928D2B952E3C79C0F1B4B1CB45 Accuracy: -m0
  Conclusion: CDDA 100%
  Signature: 683463449FE41F91F8E12CF59CE4557213A97680
FILE: 02. Ты - моё дыхание.flac
  Size: 27778027 Hash: 093984CFF474DB2080626BA21278FB30 Accuracy: -m0
  Conclusion: CDDA 100%
  Signature: 67B8C7B6D6ADBD540C8809BBD776AEAABDBDFD82
FILE: 01. Не тобой болеет сердце.flac
  Size: 23188858 Hash: A5237E70AAC84B0E6D54C98627376251 Accuracy: -m0
  Conclusion: CDDA 100%
  Signature: 84EDA49E50A0B1FA26B86305F32BD0D1C00DEDC9
Видео:
«КругоСветка» DVD rip
«Квартирник на O2TV» (2006) TV rip
«5 песен на 5-м» (2007) TV
Полный контакт: «Сурганова и Оркестр» против «Butch» MTV (9.02.2007)TV rip
Светлана Сурганова и Оркестр «Соль» (2007) DVD 5
"Исповедь четырех": Богушевская, Butch, Умка, Сурганова
Светлана Сурганова (''Бальзам на душу'', Рига-ТВ, 21.05.2005) TVrip
Три телепередачи с Светланой Сургановой TVrip
Сурганова и Оркестр - Проверено Временем. Часть I - Вечное Движение (2008) [DVD9]
Все равно я встану (2007) DVDrip
Сурганова и Оркестр - День рождения в Киеве (14.11.2008) CamRip

Аудио (МР3 и другие) :
Проверено Временем. Часть I - Вечное Движение (2008) [lossless] < Acoustic Rock >
(2008) "Проверено временем" [MP3- 192 kbps] < Acoustic Rock >
"Соль" (2007) APE
"Соль" (2007)MP3 «КругоСветка» (2006)
«Возлюбленная Шопена» (2005) «Неужели не я» (переиздание) (2004) «Живой» - 2003
Светлана Сурганова. Четыре радиотрансляции 2008 г. [МР3 64-256 kbps]

Дискография :
Сурганова и "Оркестр" Дискография [2003 - 2007] [Eac_Ape_Wavpack_Iso_Image_Cue_Log_Covers_Tags] < Acoustic Rock >

Кроме того могу предложить:

Видео
Светлана Сурганова - акустический концерт (клуб Б2, 31.07.2005) avi 540 Метров
Светлана Сурганова - квартирник (Москва, 29.03.2003) avi 537 Метров
Светлана Сурганова и Оркестр - клуб Тень 09.03.07 avi 1.668 Гига
Светлана Сурганова и Оркестр - МАИ 3.02.07 (весь концерт) avi 654 Метрa
Сурганова и Оркестр - программа "Живые люди" канал СТО (2006-09-26) avi 347 метров
Светлана Сурганова, "День рождения", Клуб Точка 17.11.2005 (Live) 4.36 GB
Сурганова - Программа "Воздух" (30.04.2005) avi 352 метра
ЗвездоЧат на A-ONE эфир 22 11 2008 flv 387 метров

Аудио
Светлана Сурганова Дохлый сурик или Невнятные аналогии, 1991-1996, mp3, 128 kbs 70 метров
Светлана Сурганова - Акустика в "Мюзик-Холле" - 2007, mp3, 192 kbps 169 метров
Время раздачи: с 8 до 23 . . . Не забывайте нажимать на


Поглощение/вытеснение
Только с согласия релизера

DesideriuM

Реставрация релиза: foralreg
[NNM-Club.ru] Surganova i Orkestr - Grand Collection'2007.torrent
 Торрент: Платиновая раздача  Зарегистрирован
 
Скачать


 Зарегистрирован:   21 Мар 2009 09:19:25
 Размер:   604 MB  (
 Рейтинг:    (Голосов: 8)
 Поблагодарили:   32
 Проверка:   Оформление проверено модератором 21 Мар 2009 14:15:39
Как cкачать  ·  Как раздать  ·  Правильно оформить  ·  Поднять ратио!  
Metr_72 ®
Релизер-меломан
Стаж: 12 лет 11 мес.
Сообщений: 2434
Ratio: 13,061
Поблагодарили: 26902
100%
Откуда: Rivne Сельская местность
ukraine.gif
Поклонникам творчества Светланы Сургановой предлагаю посмотреть свежую он-лайн трасляцию телепередачи 100% звук на 100ТВ ( от 02.04.09)
МаринаZebra
Стаж: 12 лет
Сообщений: 7
Ratio: 0,852
3.32%
russia.gif
Спасибо. Замечательнейший коллектив!
Показать сообщения:   
Начать новую тему   Ответить на тему    Торрент-трекер NNM-Club -> Rock, Alternative, Punk, Metal -> Русский Рок (Lossless) Часовой пояс: GMT + 3
Страница 1 из 1