Классический форум-трекер
canvas not supported
Нас вместе: 4 104 223

Сурганова и Оркестр: на фестивале НАШЕСТВИЕ (2009) SATRip


 
 
RSS
Начать новую тему   Ответить на тему    Торрент-трекер NNM-Club -> Театр и Музыкальное видео -> Концерты
Автор Сообщение
Metr_72 ®
Релизер-меломан
Стаж: 12 лет 11 мес.
Сообщений: 2434
Ratio: 13,061
Поблагодарили: 26910
100%
Откуда: Rivne Сельская местность
ukraine.gif
Сурганова и Оркестр: на фестивале НАШЕСТВИЕ (2009) SATRip

Год выпуска: 2009
Жанр: VIP-Punk-Decadence
Описание:
Выступление Светланы Сургановой и Оркестра на главной сцене рок-фестиваля НАШЕСТВИЕ 2009

Состав: Светлана Сурганова, Валерий Тхай и остальная часть оркестра

Треклист:
01. Не бойся милая
02. Среди мертвых и живых
03. Золотое пятно
04. Забирай
05. Корабли
06. Весна
07. Апрельская
08. Мураками
Видеокодек: WMV3
Битрейт видео:691 kbps
Размер кадра: 320 x 240
Качество видео: SATRip

Аудио кодек: WMA2 2.0
Битрейт аудио: 40 kbps (CBR)
Продолжительность: 00: 38:03


Видео:
«КругоСветка» DVD rip
«Квартирник на O2TV» (2006) TV rip
«5 песен на 5-м» (2007) TV
Полный контакт: «Сурганова и Оркестр» против «Butch» MTV (9.02.2007)TV rip
Светлана Сурганова и Оркестр «Соль» (2007) DVD 5
"Исповедь четырех": Богушевская, Butch, Умка, Сурганова
Светлана Сурганова (''Бальзам на душу'', Рига-ТВ, 21.05.2005) TVrip
Три телепередачи с Светланой Сургановой TVrip
Сурганова и Оркестр - Проверено Временем. Часть I - Вечное Движение (2008) [DVD9]
Все равно я встану (2007) DVDrip
Сурганова и Оркестр - День рождения в Киеве (14.11.2008) CamRip
Сурганова и Оркестр - Концерт в Смоленске (1.03.2009) CamRip
Сурганова и Оркестр - Юбилей в "Докер Пабе" (Киев, 15.11.2008) CamRip
Сурганова и Оркестр - 100% звук на 100ТВ (02.04.09) <Rock> DVD5
Сурганова и Оркестр: Открытый проект на ТВЦ (2005) TvRip

Аудио (МР3 и другие) :
Проверено Временем. Часть I - Вечное Движение (2008) [lossless] < Acoustic Rock >
(2008) "Проверено временем" [MP3- 192 kbps] < Acoustic Rock >
"Соль" (2007) APE
"Соль" (2007)MP3 «КругоСветка» (2006)
«Возлюбленная Шопена» (2005) «Неужели не я» (переиздание) (2004) «Живой» - 2003
Светлана Сурганова. Четыре радиотрансляции 2008 г. [МР3 64-256 kbps]
Grand Collection - 2007, FLAC (tracks+.cue), lossless url]

Дискография :
[url=http://www.nnmclub.to/forum/viewtopic.php?t=107916] Сурганова и "Оркестр" Дискография [2003 - 2007] [Eac_Ape_Wavpack_Iso_Image_Cue_Log_Covers_Tags] < Acoustic Rock >


Кроме того могу предложить:

Видео
Светлана Сурганова - акустический концерт (клуб Б2, 31.07.2005) avi 540 Метров
Светлана Сурганова - квартирник (Москва, 29.03.2003) avi 537 Метров
Светлана Сурганова и Оркестр - клуб Тень 09.03.07 avi 1.668 Гига
Светлана Сурганова и Оркестр - МАИ 3.02.07 (весь концерт) avi 654 Метрa
Сурганова и Оркестр - программа "Живые люди" канал СТО (2006-09-26) avi 347 метров
Светлана Сурганова, "День рождения", Клуб Точка 17.11.2005 (Live) 4.36 GB
Сурганова - Программа "Воздух" (30.04.2005) avi 352 метра
ЗвездоЧат на A-ONE эфир 22 11 2008 flv 387 метров

Аудио
Светлана Сурганова Дохлый сурик или Невнятные аналогии, 1991-1996, mp3, 128 kbs 70 метров
Светлана Сурганова - Акустика в "Мюзик-Холле" - 2007, mp3, 192 kbps 169 метров
Светлана Сурганова 7.04.2009 Радио Рокс передача Русский рок (без песен) 128 kbs 24 метра
Код:

    Полное имя                               : Z:\Концерты\05_surganova.asf
Формат                                   : Windows Media
Размер файла                             : 305 Мбайт
Продолжительность                        : 38 м.
Режим общего битрейта                    : Постоянный
Общий поток                              : 1101 Кбит/сек
Максимальный общий битрейт               : 1070 Кбит/сек
Дата кодирования                         : UTC 2009-07-15 19:57:19.421

Видео #1
Идентификатор                            : 3
Формат                                   : VC-1
Профиль формата                          : Main
Идентификатор кодека                     : WMV3
Идентификатор кодека/Информация          : Windows Media Video 9
Идентификатор кодека/Подсказка           : WMV3
Описание кодека                          : Windows Media Video 9
Продолжительность                        : 38 м.
Вид битрейта                             : Постоянный
Битрейт                                  : 691 Кбит/сек
Ширина                                   : 320 пикселей
Высота                                   : 240 пикселей
Соотношение сторон                       : 4:3
Частота кадров                           : 29,970 кадров/сек
Битовая глубина                          : 8 бит
Тип развёртки                            : Прогрессивная
Метод сжатия                             : С потерями
Бит/(Пиксели*Кадры)                      : 0.300
Размер потока                            : 192 Мбайт (63%)
Язык                                     : Russian

Видео #2
Идентификатор                            : 4
Формат                                   : VC-1
Профиль формата                          : Main
Идентификатор кодека                     : WMV3
Идентификатор кодека/Информация          : Windows Media Video 9
Идентификатор кодека/Подсказка           : WMV3
Описание кодека                          : Windows Media Video 9
Продолжительность                        : 38 м.
Вид битрейта                             : Постоянный
Битрейт                                  : 291 Кбит/сек
Ширина                                   : 320 пикселей
Высота                                   : 240 пикселей
Соотношение сторон                       : 4:3
Частота кадров                           : 29,970 кадров/сек
Битовая глубина                          : 8 бит
Тип развёртки                            : Прогрессивная
Метод сжатия                             : С потерями
Бит/(Пиксели*Кадры)                      : 0.126
Размер потока                            : 80,8 Мбайт (26%)
Язык                                     : Russian

Аудио #1
Идентификатор                            : 1
Формат                                   : WMA
Версия формата                           : Version 2
Идентификатор кодека                     : 161
Идентификатор кодека/Информация          : Windows Media Audio
Описание кодека                          : Windows Media Audio 9.2 -  40 kbps, 32 kHz, stereo (A/V) 1-pass CBR
Продолжительность                        : 38 м.
Вид битрейта                             : Постоянный
Битрейт                                  : 64,0 Кбит/сек
Каналы                                   : 2 канала
Частота                                  : 48,0 КГц
Битовая глубина                          : 16 бит
Размер потока                            : 17,8 Мбайт (6%)
Язык                                     : English (US)

Аудио #2
Идентификатор                            : 2
Формат                                   : WMA
Версия формата                           : Version 2
Идентификатор кодека                     : 161
Идентификатор кодека/Информация          : Windows Media Audio
Описание кодека                          : Windows Media Audio 9.2 -  40 kbps, 32 kHz, stereo (A/V) 1-pass CBR
Продолжительность                        : 38 м.
Вид битрейта                             : Постоянный
Битрейт                                  : 40,0 Кбит/сек
Каналы                                   : 2 канала
Частота                                  : 32,0 КГц
Битовая глубина                          : 16 бит
Размер потока                            : 11,1 Мбайт (4%)
Язык                                     : English (US)
             
Скриншоты:

Время раздачи: 24/7. . . Не забывайте нажимать на

Реставрация sklad600
[NNM-Club.ru] 05_surganova.asf.torrent
 Торрент: Золотая раздача  Зарегистрирован
 
Зарегистрируйтесь и скачайте торрент!
12,1 KB
Free Leech
 Зарегистрирован:   25 Июл 2009 15:44:25
 Размер:   305 MB  (
 Рейтинг:    (Голосов: 9)
 Поблагодарили:   25
 Проверка:   Оформление проверено модератором 26 Июл 2009 11:26:43
Как cкачать  ·  Как раздать  ·  Правильно оформить  ·  Поднять ратио!  
Показать сообщения:   
Начать новую тему   Ответить на тему    Торрент-трекер NNM-Club -> Театр и Музыкальное видео -> Концерты Часовой пояс: GMT + 3
Страница 1 из 1