Классический форум-трекер
canvas not supported
Нас вместе: 4 104 002

Сурганова и Оркестр - Программа "Весь этот рок" [2009 г., Rock, SATRip]


 
 
RSS
Начать новую тему   Ответить на тему    Торрент-трекер NNM-Club -> Театр и Музыкальное видео -> Концерты
Автор Сообщение
Metr_72 ®
Релизер-меломан
Стаж: 12 лет 11 мес.
Сообщений: 2434
Ratio: 13,061
Поблагодарили: 26909
100%
Откуда: Rivne Сельская местность
ukraine.gif
Сурганова и Оркестр - Программа "Весь этот рок" [2009 г., Rock, SATRip]

Жанр: Концерт, VIP-Punk-Decadence, интервью

Описание:

Программа "Весь этот рок": Сурганова и оркестр
Запись с телеканала "Парк Развлечений" 15.11.09 .


Режиссер:
Ольга Михешкина

В ролях:
Юрий Спиридонов, Светлана Сурганова, Валерий Тхай, "Команда Сталинград"

Продолжительность: 00:27:38
Видеокодек: XviD
Битрейт видео: 1509 kbps
Размер кадра: 640x400
Качество видео: SATRip
Аудио окодек: AC3 2.0
Битрейт аудио: 192 kbps

Скачать СЭМПЛ около 12 мегабайт
Видео:
«КругоСветка» DVD rip
«Квартирник на O2TV» (2006) TV rip
«5 песен на 5-м» (2007) TV
Полный контакт: «Сурганова и Оркестр» против «Butch» MTV (9.02.2007)TV rip
Светлана Сурганова и Оркестр «Соль» (2007) DVD 5
"Исповедь четырех": Богушевская, Butch, Умка, Сурганова
Светлана Сурганова (''Бальзам на душу'', Рига-ТВ, 21.05.2005) TVrip
Три телепередачи с Светланой Сургановой TVrip
Сурганова и Оркестр - Проверено Временем. Часть I - Вечное Движение (2008) [DVD9]
Все равно я встану (2007) DVDrip
Сурганова и Оркестр - День рождения в Киеве (14.11.2008) CamRip
Сурганова и Оркестр - Концерт в Смоленске (1.03.2009) CamRip
Сурганова и Оркестр - Юбилей в "Докер Пабе" (Киев, 15.11.2008) CamRip
Сурганова и Оркестр - 100% звук на 100ТВ (02.04.09) <Rock> DVD5
Сурганова и Оркестр: Открытый проект на ТВЦ (2005) TvRip
Сурганова и Оркестр: на фестивале НАШЕСТВИЕ 2009 SATRip
Сурганова и Оркестр - Сад Эрмитаж (25.06.09) [2009 г., Rock, DVD5]

Аудио (МР3 и другие) :
Проверено Временем. Часть I - Вечное Движение (2008) [lossless] < Acoustic Rock >
(2008) "Проверено временем" [MP3- 192 kbps] < Acoustic Rock >
"Соль" (2007) APE
"Соль" (2007)MP3 «КругоСветка» (2006)
«Возлюбленная Шопена» (2005) «Неужели не я» (переиздание) (2004) «Живой» - 2003
Светлана Сурганова. Четыре радиотрансляции 2008 г. [МР3 64-256 kbps]
Grand Collection - 2007, FLAC (tracks+.cue), lossless
Сурганова и Оркестр - Сад Эрмитаж (25.06.09) 2009 г., Rock, МР3, 320 KB/s
Сурганова и оркестр - "Чужие как свои" (2009), MP3 (tracks), 320 kbps <Rock>
Сурганова и оркестр - "Чужие как свои" (2009), APE (image+.cue), lossless <Rock>

Дискография :
Сурганова и "Оркестр" Дискография [2003 - 2007] [Eac_Ape_Wavpack_Iso_Image_Cue_Log_Covers_Tags] < Acoustic Rock >

Кроме того могу предложить:

Видео
Светлана Сурганова - акустический концерт (клуб Б2, 31.07.2005) avi 540 Метров
Светлана Сурганова - квартирник (Москва, 29.03.2003) avi 537 Метров
Светлана Сурганова и Оркестр - клуб Тень 09.03.07 avi 1.668 Гига
Светлана Сурганова и Оркестр - МАИ 3.02.07 (весь концерт) avi 654 Метрa
Сурганова и Оркестр - программа "Живые люди" канал СТО (2006-09-26) avi 347 метров
Светлана Сурганова, "День рождения", Клуб Точка 17.11.2005 (Live) 4.36 GB
Сурганова - Программа "Воздух" (30.04.2005) avi 352 метра
ЗвездоЧат на A-ONE эфир 22 11 2008 flv 387 метров
С. Я. Сурганова и поклонники (фильм) avi 770 метров
Сурганова na TVC, эфир от 08.10.2005 avi 326 метров
Сурганова na синем диване эфир от15.10.2007 flv 172 метра

Аудио
Светлана Сурганова Дохлый сурик или Невнятные аналогии, 1991-1996, mp3, 128 kbs 70 метров
Светлана Сурганова - Акустика в "Мюзик-Холле" - 2007, mp3, 192 kbps 169 метров
Светлана Сурганова 7.04.2009 Радио Рокс передача Русский рок (без песен) 128 kbs 24 метра
Код:
Полное имя                               : Z:\Концерты\Ves_etot_rock_Surganova_by_Lavrov.avi
Формат                                   : AVI
Формат/Информация                        : Audio Video Interleave
Размер файла                             : 336 Мбайт
Продолжительность                        : 27 м.
Общий поток                              : 1701 Кбит/сек
Программа кодирования                    : VirtualDubMod 1.5.10.2 (build 2540/release)
Библиотека кодирования                   : VirtualDubMod build 2540/release

Видео
Идентификатор                            : 0
Формат                                   : MPEG-4 Visual
Профиль формата                          : Advanced Simple@L5
Параметр BVOP формата                    : 1
Параметр QPel формата                    : Нет
Параметр GMC формата                     : Без точки перехода
Параметр матрицы формата                 : Default (H.263)
Идентификатор кодека                     : XVID
Идентификатор кодека/Подсказка           : XviD
Продолжительность                        : 27 м.
Битрейт                                  : 1499 Кбит/сек
Ширина                                   : 640 пикселей
Высота                                   : 400 пикселей
Соотношение сторон                       : 1,600
Частота кадров                           : 25,000 кадров/сек
Цветовое пространство                    : YUV
Субдискретизация насыщенности            : 4:2:0
Битовая глубина                          : 8 бит
Тип развёртки                            : Прогрессивная
Метод сжатия                             : С потерями
Бит/(Пиксели*Кадры)                      : 0.234
Размер потока                            : 296 Мбайт (88%)
Библиотека кодирования                   : XviD 1.2.0.dev47 (UTC 2006-11-01)

Аудио
Идентификатор                            : 1
Формат                                   : AC-3
Формат/Информация                        : Audio Coding 3
Расширение режима                        : CM (complete main)
Параметр Endianness формата              : Big
Идентификатор кодека                     : 2000
Продолжительность                        : 27 м.
Вид битрейта                             : Постоянный
Битрейт                                  : 192 Кбит/сек
Каналы                                   : 2 канала
Расположение каналов                     : Front: L R
Частота                                  : 48,0 КГц
Битовая глубина                          : 16 бит
Метод сжатия                             : С потерями
Размер потока                            : 38,0 Мбайт (11%)
Выравнивание                             : Разделение по промежуткам
Продолжительность промежутка             : 40  мс. (1,00 видеокадр)
Время предзагрузки промежутка            : 500  мс.

Скриншоты:

Время раздачи: 7 / 24 . . . Не забывайте нажимать на

.
[NNM-Club.ru]_Ves_etot_rock_Surganova_by_Lavrov.avi.torrent
 Торрент: Золотая раздача  Зарегистрирован
 
Зарегистрируйтесь и скачайте торрент!
13,3 KB
Free Leech
 Зарегистрирован:   20 Ноя 2009 20:20:23
 Размер:   336 MB  (
 Рейтинг:   4,9 (Голосов: 16)
 Поблагодарили:   27
 Проверка:   Оформление проверено модератором 20 Ноя 2009 23:41:27
Как cкачать  ·  Как раздать  ·  Правильно оформить  ·  Поднять ратио!  
sentinel2727
Стаж: 13 лет 1 мес.
Сообщений: 4368
Ratio: 99,103
Поблагодарили: 31280
100%
Откуда: Odessa
ukraine.gif
Metr_72 Спасибо , как всегда- блестяще
Metr_72 ®
Релизер-меломан
Стаж: 12 лет 11 мес.
Сообщений: 2434
Ratio: 13,061
Поблагодарили: 26909
100%
Откуда: Rivne Сельская местность
ukraine.gif
sentinel2727 писал(а): link
Metr_72 Спасибо , как всегда- блестяще

И Вам спасибо за добрые слова. (особенно приятны они от представителей власти любимого трекера) =)
Показать сообщения:   
Начать новую тему   Ответить на тему    Торрент-трекер NNM-Club -> Театр и Музыкальное видео -> Концерты Часовой пояс: GMT + 3
Страница 1 из 1