Классический форум-трекер
canvas not supported
Нас вместе: 4 166 487

Ария - Мания величия (1985) [ALAC|Tracks]<Heavy Metal>


 
 
RSS
Начать новую тему   Ответить на тему    Торрент-трекер NNM-Club -> Аудио и Видео -> Музыка Lossless (ALAC)
Автор Сообщение
Cecidit ®
Стаж: 7 лет 8 мес.
Сообщений: 129
Ratio: 39.772
Поблагодарили: 8806
100%
Откуда: Москва, МО Щелково
russia.gif
Ария - Мания величия (1985)
Год: 1985
Жанр: Heavy Metal
Продолжительность: 00:41:18

Кодек: ALAC
Битрейт: Lossless
Тип раздачи: Tracks
Обложки: Вшиты
Кодирование: XLD + QuickTime + iTunes

«Мания величия» дебютный музыкальный альбом группы «Ария».
Альбом был записан в конце 1985 года. Альбом записан с одним гитаристом — Владимиром Холстининым — и с Кириллом Покровским в качестве бэк-вокалиста.

Состав:
Валерий Кипелов — вокал
Владимир Холстинин — гитары
Алик Грановский — бас
Кирилл Покровский — клавишные, бэк-вокал, вокал (3)
Александр Львов — барабаны

Треклист:
01. Это Рок
02. Тореро
03. Волонтёр
04. Бивни Чёрных Скал
05. Мания Величия
06. Жизнь Задаром
07. Мечты
08. Позади Америка
Код: выделить все

Общее
Полное имя                               : /Users/Denis/Library/Containers/net.mediaarea.mediainfo.mac/Data/Music/iTunes/iTunes Media/Music/Ария/Мания величия/01 Это рок.m4a
Формат                                   : MPEG-4
Профиль формата                          : Apple audio with iTunes info
Идентификатор кодека                     : M4A
Размер файла                             : 38,0 Мбайт
Продолжительность                        : 5 м. 54 с.
Режим общего битрейта                    : Переменный
Общий поток                              : 898 Кбит/сек
Альбом                                   : Мания величия
Альбом/Исполнитель                       : Ария
Трек                                     : Это рок
Трек/Положение                           : 1
Трек/Всего                               : 8
Исполнитель                              : Ария
Жанр                                     : Heavy Metal
Дата записи                              : 1985
Дата пометки                             : UTC 2014-05-28 23:01:54
Программа кодирования                    : X Lossless Decoder 20140504, QuickTime 7.7.1
Обложка                                  : Yes
Примечание                               : ExactAudioCopy v0.99pb3
iTunes_CDDB_1                            : 7009AF08+186075+8+150+26762+51430+89250+111100+119317+138742+162500
iTunes_CDDB_TrackNumber                  : 1

Аудио
Идентификатор                            : 1
Формат                                   : ALAC
Идентификатор кодека                     : alac
Идентификатор кодека/Информация          : Apple Lossless Audio Codec
Продолжительность                        : 5 м. 54 с.
Duration_LastFrame                       : -67 мс.
Вид битрейта                             : Переменный
Битрейт                                  : 890 Кбит/сек
Каналы                                   : 2 канала
Частота                                  : 44,1 КГц
Битовая глубина                          : 16 бит
Размер потока                            : 37,6 Мбайт (99%)
Язык                                     : English
Дата пометки                             : UTC 2014-05-28 23:01:54

Общее
Полное имя                               : /Users/Denis/Library/Containers/net.mediaarea.mediainfo.mac/Data/Music/iTunes/iTunes Media/Music/Ария/Мания величия/02 Тореро.m4a
Формат                                   : MPEG-4
Профиль формата                          : Apple audio with iTunes info
Идентификатор кодека                     : M4A
Размер файла                             : 35,1 Мбайт
Продолжительность                        : 5 м. 28 с.
Режим общего битрейта                    : Переменный
Общий поток                              : 894 Кбит/сек
Альбом                                   : Мания величия
Альбом/Исполнитель                       : Ария
Трек                                     : Тореро
Трек/Положение                           : 2
Трек/Всего                               : 8
Исполнитель                              : Ария
Жанр                                     : Heavy Metal
Дата записи                              : 1985
Дата пометки                             : UTC 2014-05-28 23:01:57
Программа кодирования                    : X Lossless Decoder 20140504, QuickTime 7.7.1
Обложка                                  : Yes
Примечание                               : ExactAudioCopy v0.99pb3
iTunes_CDDB_1                            : 7009AF08+186075+8+150+26762+51430+89250+111100+119317+138742+162500
iTunes_CDDB_TrackNumber                  : 2

Аудио
Идентификатор                            : 1
Формат                                   : ALAC
Идентификатор кодека                     : alac
Идентификатор кодека/Информация          : Apple Lossless Audio Codec
Продолжительность                        : 5 м. 28 с.
Duration_LastFrame                       : -74 мс.
Вид битрейта                             : Переменный
Битрейт                                  : 885 Кбит/сек
Каналы                                   : 2 канала
Частота                                  : 44,1 КГц
Битовая глубина                          : 16 бит
Размер потока                            : 34,7 Мбайт (99%)
Язык                                     : English
Дата пометки                             : UTC 2014-05-28 23:01:57

Общее
Полное имя                               : /Users/Denis/Library/Containers/net.mediaarea.mediainfo.mac/Data/Music/iTunes/iTunes Media/Music/Ария/Мания величия/03 Волонтёр.m4a
Формат                                   : MPEG-4
Профиль формата                          : Apple audio with iTunes info
Идентификатор кодека                     : M4A
Размер файла                             : 49,7 Мбайт
Продолжительность                        : 8 м. 24 с.
Режим общего битрейта                    : Переменный
Общий поток                              : 827 Кбит/сек
Альбом                                   : Мания величия
Альбом/Исполнитель                       : Ария
Трек                                     : Волонтёр
Трек/Положение                           : 3
Трек/Всего                               : 8
Исполнитель                              : Ария
Жанр                                     : Heavy Metal
Дата записи                              : 1985
Дата кодирования                         : UTC 1988-06-19 17:35:11
Дата пометки                             : UTC 2014-05-28 23:02:00
Программа кодирования                    : X Lossless Decoder 20140504, QuickTime 7.7.1
Обложка                                  : Yes
Примечание                               : ExactAudioCopy v0.99pb3
iTunes_CDDB_1                            : 7009AF08+186075+8+150+26762+51430+89250+111100+119317+138742+162500
iTunes_CDDB_TrackNumber                  : 3

Аудио
Идентификатор                            : 1
Формат                                   : ALAC
Идентификатор кодека                     : alac
Идентификатор кодека/Информация          : Apple Lossless Audio Codec
Продолжительность                        : 8 м. 24 с.
Duration_LastFrame                       : -71 мс.
Вид битрейта                             : Переменный
Битрейт                                  : 821 Кбит/сек
Каналы                                   : 2 канала
Частота                                  : 44,1 КГц
Битовая глубина                          : 16 бит
Размер потока                            : 49,3 Мбайт (99%)
Язык                                     : English
Дата кодирования                         : UTC 1988-06-19 17:35:11
Дата пометки                             : UTC 2014-05-28 23:02:00

Общее
Полное имя                               : /Users/Denis/Library/Containers/net.mediaarea.mediainfo.mac/Data/Music/iTunes/iTunes Media/Music/Ария/Мания величия/04 Бивни чёрных скал.m4a
Формат                                   : MPEG-4
Профиль формата                          : Apple audio with iTunes info
Идентификатор кодека                     : M4A
Размер файла                             : 32,0 Мбайт
Продолжительность                        : 4 м. 51 с.
Режим общего битрейта                    : Переменный
Общий поток                              : 922 Кбит/сек
Альбом                                   : Мания величия
Альбом/Исполнитель                       : Ария
Трек                                     : Бивни чёрных скал
Трек/Положение                           : 4
Трек/Всего                               : 8
Исполнитель                              : Ария
Жанр                                     : Heavy Metal
Дата записи                              : 1985
Дата кодирования                         : UTC 1981-07-22 09:11:43
Дата пометки                             : UTC 2014-05-28 23:02:05
Программа кодирования                    : X Lossless Decoder 20140504, QuickTime 7.7.1
Обложка                                  : Yes
Примечание                               : ExactAudioCopy v0.99pb3
iTunes_CDDB_1                            : 7009AF08+186075+8+150+26762+51430+89250+111100+119317+138742+162500
iTunes_CDDB_TrackNumber                  : 4

Аудио
Идентификатор                            : 1
Формат                                   : ALAC
Идентификатор кодека                     : alac
Идентификатор кодека/Информация          : Apple Lossless Audio Codec
Продолжительность                        : 4 м. 51 с.
Duration_LastFrame                       : -31 мс.
Вид битрейта                             : Переменный
Битрейт                                  : 912 Кбит/сек
Каналы                                   : 2 канала
Частота                                  : 44,1 КГц
Битовая глубина                          : 16 бит
Размер потока                            : 31,7 Мбайт (99%)
Язык                                     : English
Дата кодирования                         : UTC 1981-07-22 09:11:43
Дата пометки                             : UTC 2014-05-28 23:02:05

Общее
Полное имя                               : /Users/Denis/Library/Containers/net.mediaarea.mediainfo.mac/Data/Music/iTunes/iTunes Media/Music/Ария/Мания величия/05 Мания величия.m4a
Формат                                   : MPEG-4
Профиль формата                          : Apple audio with iTunes info
Идентификатор кодека                     : M4A
Размер файла                             : 10,4 Мбайт
Продолжительность                        : 1 м. 49 с.
Режим общего битрейта                    : Переменный
Общий поток                              : 799 Кбит/сек
Альбом                                   : Мания величия
Альбом/Исполнитель                       : Ария
Трек                                     : Мания величия
Трек/Положение                           : 5
Трек/Всего                               : 8
Исполнитель                              : Ария
Жанр                                     : Heavy Metal
Дата записи                              : 1985
Дата кодирования                         : UTC 1986-11-15 04:34:23
Дата пометки                             : UTC 2014-05-28 23:02:08
Программа кодирования                    : X Lossless Decoder 20140504, QuickTime 7.7.1
Обложка                                  : Yes
Примечание                               : ExactAudioCopy v0.99pb3
iTunes_CDDB_1                            : 7009AF08+186075+8+150+26762+51430+89250+111100+119317+138742+162500
iTunes_CDDB_TrackNumber                  : 5

Аудио
Идентификатор                            : 1
Формат                                   : ALAC
Идентификатор кодека                     : alac
Идентификатор кодека/Информация          : Apple Lossless Audio Codec
Продолжительность                        : 1 м. 49 с.
Duration_LastFrame                       : -38 мс.
Вид битрейта                             : Переменный
Битрейт                                  : 773 Кбит/сек
Каналы                                   : 2 канала
Частота                                  : 44,1 КГц
Битовая глубина                          : 16 бит
Размер потока                            : 10,1 Мбайт (97%)
Язык                                     : English
Дата кодирования                         : UTC 1986-11-15 04:34:23
Дата пометки                             : UTC 2014-05-28 23:02:08

Общее
Полное имя                               : /Users/Denis/Library/Containers/net.mediaarea.mediainfo.mac/Data/Music/iTunes/iTunes Media/Music/Ария/Мания величия/06 Жизнь задаром.m4a
Формат                                   : MPEG-4
Профиль формата                          : Apple audio with iTunes info
Идентификатор кодека                     : M4A
Размер файла                             : 30,1 Мбайт
Продолжительность                        : 4 м. 19 с.
Режим общего битрейта                    : Переменный
Общий поток                              : 974 Кбит/сек
Альбом                                   : Мания величия
Альбом/Исполнитель                       : Ария
Трек                                     : Жизнь задаром
Трек/Положение                           : 6
Трек/Всего                               : 8
Исполнитель                              : Ария
Жанр                                     : Heavy Metal
Дата записи                              : 1985
Дата кодирования                         : UTC 1998-01-13 23:39:59
Дата пометки                             : UTC 2014-05-28 23:02:09
Программа кодирования                    : X Lossless Decoder 20140504, QuickTime 7.7.1
Обложка                                  : Yes
Примечание                               : ExactAudioCopy v0.99pb3
iTunes_CDDB_1                            : 7009AF08+186075+8+150+26762+51430+89250+111100+119317+138742+162500
iTunes_CDDB_TrackNumber                  : 6

Аудио
Идентификатор                            : 1
Формат                                   : ALAC
Идентификатор кодека                     : alac
Идентификатор кодека/Информация          : Apple Lossless Audio Codec
Продолжительность                        : 4 м. 19 с.
Duration_LastFrame                       : -42 мс.
Вид битрейта                             : Переменный
Битрейт                                  : 963 Кбит/сек
Каналы                                   : 2 канала
Частота                                  : 44,1 КГц
Битовая глубина                          : 16 бит
Размер потока                            : 29,7 Мбайт (99%)
Язык                                     : English
Дата кодирования                         : UTC 1998-01-13 23:39:59
Дата пометки                             : UTC 2014-05-28 23:02:09

Общее
Полное имя                               : /Users/Denis/Library/Containers/net.mediaarea.mediainfo.mac/Data/Music/iTunes/iTunes Media/Music/Ария/Мания величия/07 Мечты.m4a
Формат                                   : MPEG-4
Профиль формата                          : Apple audio with iTunes info
Идентификатор кодека                     : M4A
Размер файла                             : 33,2 Мбайт
Продолжительность                        : 5 м. 16 с.
Режим общего битрейта                    : Переменный
Общий поток                              : 878 Кбит/сек
Альбом                                   : Мания величия
Альбом/Исполнитель                       : Ария
Трек                                     : Мечты
Трек/Положение                           : 7
Трек/Всего                               : 8
Исполнитель                              : Ария
Жанр                                     : Heavy Metal
Дата записи                              : 1985
Дата кодирования                         : UTC 2003-05-09 19:02:39
Дата пометки                             : UTC 2014-05-28 23:02:13
Программа кодирования                    : X Lossless Decoder 20140504, QuickTime 7.7.1
Обложка                                  : Yes
Примечание                               : ExactAudioCopy v0.99pb3
iTunes_CDDB_1                            : 7009AF08+186075+8+150+26762+51430+89250+111100+119317+138742+162500
iTunes_CDDB_TrackNumber                  : 7

Аудио
Идентификатор                            : 1
Формат                                   : ALAC
Идентификатор кодека                     : alac
Идентификатор кодека/Информация          : Apple Lossless Audio Codec
Продолжительность                        : 5 м. 16 с.
Duration_LastFrame                       : -40 мс.
Вид битрейта                             : Переменный
Битрейт                                  : 869 Кбит/сек
Каналы                                   : 2 канала
Частота                                  : 44,1 КГц
Битовая глубина                          : 16 бит
Размер потока                            : 32,8 Мбайт (99%)
Язык                                     : English
Дата кодирования                         : UTC 2003-05-09 19:02:39
Дата пометки                             : UTC 2014-05-28 23:02:13

Общее
Полное имя                               : /Users/Denis/Library/Containers/net.mediaarea.mediainfo.mac/Data/Music/iTunes/iTunes Media/Music/Ария/Мания величия/08 Позади америка.m4a
Формат                                   : MPEG-4
Профиль формата                          : Apple audio with iTunes info
Идентификатор кодека                     : M4A
Размер файла                             : 33,1 Мбайт
Продолжительность                        : 5 м. 14 с.
Режим общего битрейта                    : Переменный
Общий поток                              : 882 Кбит/сек
Альбом                                   : Мания величия
Альбом/Исполнитель                       : Ария
Трек                                     : Позади америка
Трек/Положение                           : 8
Трек/Всего                               : 8
Исполнитель                              : Ария
Жанр                                     : Heavy Metal
Дата записи                              : 1985
Дата кодирования                         : UTC 2009-03-14 18:45:35
Дата пометки                             : UTC 2014-05-28 23:02:16
Программа кодирования                    : X Lossless Decoder 20140504, QuickTime 7.7.1
Обложка                                  : Yes
Примечание                               : ExactAudioCopy v0.99pb3
iTunes_CDDB_1                            : 7009AF08+186075+8+150+26762+51430+89250+111100+119317+138742+162500
iTunes_CDDB_TrackNumber                  : 8

Аудио
Идентификатор                            : 1
Формат                                   : ALAC
Идентификатор кодека                     : alac
Идентификатор кодека/Информация          : Apple Lossless Audio Codec
Продолжительность                        : 5 м. 14 с.
Duration_LastFrame                       : -65 мс.
Вид битрейта                             : Переменный
Битрейт                                  : 872 Кбит/сек
Каналы                                   : 2 канала
Частота                                  : 44,1 КГц
Битовая глубина                          : 16 бит
Размер потока                            : 32,7 Мбайт (99%)
Язык                                     : English
Дата кодирования                         : UTC 2009-03-14 18:45:35
Дата пометки                             : UTC 2014-05-28 23:02:16
Код: выделить все

-----------------------

DON'T MODIFY THIS FILE

-----------------------

PERFORMER: auCDtect Task Manager, ver. 1.6.0 RC1 build 1.6.0.1
Copyright (c) 2008-2010 y-soft. All rights reserved
http://y-soft.org

ANALYZER: auCDtect: CD records authenticity detector, version 0.8.2
Copyright (c) 2004 Oleg Berngardt. All rights reserved.
Copyright (c) 2004 Alexander Djourik. All rights reserved.

FILE: 08 Позади америка.m4a
  Size: 34657905 Hash: CE9A4502DE56E65F387A78EAAD8737B1 Accuracy: -m8
  Conclusion: CDDA 100%
  Signature: 7033144B132EF8F64F5A3A7C1C79C60797183A7A
FILE: 07 Мечты.m4a
  Size: 34774578 Hash: D0CEE58C61503BF205EB02FA900DEED0 Accuracy: -m8
  Conclusion: CDDA 100%
  Signature: 7CDB66AB60F077D8453AB54ECC96D2A2978CFFA1
FILE: 06 Жизнь задаром.m4a
  Size: 31544962 Hash: C125D54FA6384E3C27C26CB3419961A3 Accuracy: -m8
  Conclusion: CDDA 100%
  Signature: 5F6376E008D32E3BD9990F559AA74CC4F3C5D2D2
FILE: 05 Мания величия.m4a
  Size: 10944724 Hash: 9CBB0BD303C2C6FECE8F9FEB6431B4B4 Accuracy: -m8
  Conclusion: CDDA 100%
  Signature: BF32FC0DEA7B595FD0E3722BCAF0B227A0BB08FF
FILE: 04 Бивни чёрных скал.m4a
  Size: 33564965 Hash: A0D7DD61F5BFBEBA420C8C86B50DF593 Accuracy: -m0
  Conclusion: CDDA 100%
  Signature: 9B468E52E1139D5C0C9D8BBED2DFAFDAFC9F00E2
FILE: 03 Волонтёр.m4a
  Size: 52119338 Hash: 48F3BF5A0B5FB57C8BD28E0C2F3D0540 Accuracy: -m8
  Conclusion: CDDA 100%
  Signature: FF07C5A92CCEA806DE6FD213D1F1C24DCB460EC5
FILE: 02 Тореро.m4a
  Size: 36771023 Hash: F1D90CA86029C781B2A8EEF34F2B95AC Accuracy: -m8
  Conclusion: CDDA 100%
  Signature: 39FCEDB905748A780DC48DB347AF2EEC581A86EE
FILE: 01 Это рок.m4a
  Size: 39842149 Hash: DF1C2F7F59584D83C096AB2D1E4EADD6 Accuracy: -m8
  Conclusion: CDDA 100%
  Signature: A9FBB38D425863AD91B56E7923DECC304C42AE72

Все номерные альбомы группы АРИЯ в ALAC/Lossless/Tracks:
1. Мания величия (1985 год)
2. C кем ты (1986 год)
3. Герой асфальта (1987 год)
4. Игра с огнем (1989 год)
5. Кровь за кровь (1991 год)
6. Ночь короче дня (1995 год)
7. Генератор зла (1998 год)
8. Химера (2001 год)
9. Крещение огнем (2003 год)
10. Армагеддон (2006 год)
11. Феникс (2011 год)


Все альбомы (номерные, концертные, синглы трибьюты и сборники) группы АРИЯ в ALAC

Время раздачи: с 20:00 до 03:00 постоянно / часто 24/7
[NNM-Club.me]_Ariya (1985) Maniya velichiya.torrent
 Торрент: Платиновая раздача  Зарегистрирован
 
Скачать


Примагнититься
 Зарегистрирован:   30 Май 2014 11:56:59
 Размер:   262 MB  (
 Рейтинг:   4.7 (Голосов: 44)
 Поблагодарили:   129
 Проверка:   Оформление проверено модератором 30 Май 2014 14:51:17
Как cкачать  ·  Как раздать  ·  Правильно оформить  ·  Поднять ратио!  
archerius
Стаж: 10 лет 10 мес.
Сообщений: 36
Ratio: 53.917
Раздал: 9.21 TB
100%
Вот спасибо!)
Показать сообщения:   
Начать новую тему   Ответить на тему    Торрент-трекер NNM-Club -> Аудио и Видео -> Музыка Lossless (ALAC) Часовой пояс: GMT + 3
Страница 1 из 1